osu file format v14

[General]
AudioFilename: audio.mp3
AudioLeadIn: 0
PreviewTime: 101854
Countdown: 0
SampleSet: Soft
StackLeniency: 0.7
Mode: 0
LetterboxInBreaks: 0
WidescreenStoryboard: 1

[Editor]
DistanceSpacing: 1.9
BeatDivisor: 4
GridSize: 16
TimelineZoom: 2.600005

[Metadata]
Title:Kurukuru Tsukai
TitleUnicode:くるくる使い
Artist:BUTAOTOME
ArtistUnicode:豚乙女
Creator:Entry
Version:xChorse's Lunatic
Source:東方Project
Tags:touhou th15.5 th08 reisen udongein inaba japanese pop j-pop rock swirl user daifugou daihinmin 大貧民 ranko ランコ 狂気の瞳 ~ invisible full moon lunatic eyes 永遠に続く回廊 東方憑依華 ~ antinomy of common flowers. 東方永夜抄 ~ imperishable night. corridor stretching to eternity zun video game xchorse elcheer skytuna
BeatmapID:2168319
BeatmapSetID:1032027

[Difficulty]
HPDrainRate:5.5
CircleSize:4
OverallDifficulty:7.5
ApproachRate:9
SliderMultiplier:1.6
SliderTickRate:1

[Events]
//Background and Video events
0,0,"65.jpg",0,0
//Break Periods
2,133251,141683
//Storyboard Layer 0 (Background)
//Storyboard Layer 1 (Fail)
//Storyboard Layer 2 (Pass)
//Storyboard Layer 3 (Foreground)
//Storyboard Layer 4 (Overlay)
//Storyboard Sound Samples

[TimingPoints]
360,288.461538461538,4,2,1,60,1,0
1225,-100,4,2,1,5,0,0
1369,-100,4,2,1,60,0,0
2379,-100,4,2,1,5,0,0
2523,-100,4,2,1,60,0,0
3533,-100,4,2,1,5,0,0
3677,-100,4,2,1,60,0,0
5840,-100,4,2,1,5,0,0
5984,-100,4,2,1,60,0,0
6994,-100,4,2,1,5,0,0
7138,-100,4,2,1,60,0,0
8148,-100,4,2,1,5,0,0
8292,-100,4,2,1,60,0,0
8472,-100,4,2,1,5,0,0
9590,-100,4,2,1,75,0,0
16513,-100,4,2,1,60,0,0
17667,-100,4,2,1,75,0,0
18821,-125,4,2,1,50,0,0
37283,-100,4,2,1,60,0,0
44206,-111.111111111111,4,2,1,50,0,0
46513,-99.9999999999999,4,2,1,60,0,0
51129,-100,4,2,1,85,0,1
69013,-100,4,2,1,85,0,0
69590,-100,4,2,1,75,0,0
76513,-100,4,2,1,60,0,0
77667,-100,4,2,1,75,0,0
78821,-125,4,2,1,50,0,0
88052,-100,4,2,1,60,0,0
92811,-100,4,2,1,30,0,0
93100,-100,4,2,1,35,0,0
93388,-100,4,2,1,40,0,0
93677,-100,4,2,1,45,0,0
93965,-100,4,2,1,50,0,0
94254,-100,4,2,1,55,0,0
94542,-100,4,2,1,60,0,0
94975,-111.111111111111,4,2,1,50,0,0
97283,-100,4,2,1,60,0,0
101898,-100,4,2,1,85,0,1
119783,-100,4,2,1,85,0,0
120359,-100,4,2,1,60,0,0
121225,-100,4,2,1,5,0,0
121369,-100,4,2,1,60,0,0
122379,-100,4,2,1,5,0,0
122523,-100,4,2,1,60,0,0
123533,-100,4,2,1,5,0,0
123677,-100,4,2,1,60,0,0
125840,-100,4,2,1,5,0,0
125984,-100,4,2,1,60,0,0
126994,-100,4,2,1,5,0,0
127138,-100,4,2,1,60,0,0
128148,-100,4,2,1,5,0,0
128292,-100,4,2,1,60,0,0
128472,-100,4,2,1,5,0,0
129158,-100,4,2,1,60,0,0
142283,-100,4,2,1,85,0,1
160167,-100,4,2,1,85,0,0
160744,-100,4,2,1,75,0,0
167667,-100,4,2,1,60,0,0
168821,-100,4,2,1,75,0,0
169975,-100,4,2,1,60,0,0
171129,-100,4,2,1,75,0,0
172283,-100,4,2,1,60,0,0
173436,-100,4,2,1,75,0,0
174230,-100,4,2,1,5,0,0
174302,-100,4,2,1,75,0,0

[Colours]
Combo1 : 196,0,5
Combo2 : 167,183,218
Combo3 : 233,178,158
Combo4 : 231,169,187
Combo5 : 214,103,136
Combo6 : 202,166,234
Combo7 : 158,92,218
Combo8 : 255,34,34

[HitObjects]
76,122,360,70,0,L|67:176,7,40,8|8|8|8|8|8|8|8,0:0|0:0|0:0|0:0|0:0|0:0|0:0|0:0,0:0:0:0:
85,179,936,1,0,1:0:0:0:
0,256,1081,2,0,P|38:257|101:275,1,80,6|0,1:2|0:0,0:0:0:0:
140,337,1369,1,6,1:2:0:0:
235,247,1513,6,0,L|244:193,7,40,8|8|8|8|8|8|8|8,0:0|0:0|0:0|0:0|0:0|0:0|0:0|0:0,0:0:0:0:
226,190,2090,1,0,1:0:0:0:
155,113,2234,2,0,B|163:131|163:131|192:104|217:109,1,80,6|0,1:2|0:0,0:0:0:0:
296,148,2523,1,6,1:2:0:0:
356,52,2667,102,0,L|410:61,7,40,8|8|8|8|8|8|8|8,0:0|0:0|0:0|0:0|0:0|0:0|0:0|0:0,0:0:0:0:
409,88,3244,1,0,1:0:0:0:
500,49,3388,2,0,P|491:88|490:128,1,80,6|0,1:2|0:0,0:0:0:0:
365,205,3677,1,6,1:2:0:0:
452,237,3821,22,0,L|372:226,1,80,14|0,0:0|1:0,0:0:0:0:
403,317,4109,2,0,L|323:306,1,80,10|0,0:0|1:0,0:0:0:0:
280,185,4326,5,0,1:0:0:0:
280,185,4398,2,0,L|200:174,1,80,10|0,0:0|1:0,0:0:0:0:
231,265,4614,1,0,1:0:0:0:
231,265,4686,2,0,L|151:254,1,80,10|0,0:0|1:0,0:0:0:0:
76,177,4903,1,0,1:0:0:0:
76,177,4975,70,0,L|67:123,7,40,8|8|8|8|8|8|8|8,0:0|0:0|0:0|0:0|0:0|0:0|0:0|0:0,0:0:0:0:
85,120,5552,1,0,1:0:0:0:
0,43,5696,2,0,P|38:42|101:24,1,80,6|0,1:2|0:0,0:0:0:0:
163,99,5984,1,6,1:2:0:0:
261,9,6129,6,0,L|315:0,7,40,8|8|8|8|8|8|8|8,0:0|0:0|0:0|0:0|0:0|0:0|0:0|0:0,0:0:0:0:
318,18,6706,1,0,1:0:0:0:
398,85,6850,2,0,B|377:81|377:81|404:52|398:26,1,80,6|0,1:2|0:0,0:0:0:0:
279,102,7138,1,6,1:2:0:0:
368,164,7283,102,0,L|422:173,7,40,8|8|8|8|8|8|8|8,0:0|0:0|0:0|0:0|0:0|0:0|0:0|0:0,0:0:0:0:
421,200,7859,1,0,1:0:0:0:
512,102,8004,2,0,P|503:141|502:181,1,80,6|0,1:2|0:0,0:0:0:0:
512,321,8292,1,6,1:2:0:0:
303,223,8436,22,0,L|293:248,1,20,2|0,1:2|0:0,0:0:0:0:
44,250,9590,54,0,P|44:195|22:162,1,80,2|8,1:2|0:0,0:3:0:0:
105,44,9879,2,0,L|121:138,1,80,2|8,1:2|0:0,0:3:0:0:
233,216,10167,2,0,P|213:164|223:126,1,80,2|8,1:2|0:0,0:3:0:0:
335,4,10456,1,2,1:2:0:0:
307,136,10600,1,10,0:0:0:0:
244,49,10744,5,2,1:2:0:0:
400,83,10888,1,8,0:0:0:0:
244,60,11033,101,2,1:2:0:0:
400,94,11177,1,8,0:0:0:0:
216,141,11321,6,0,B|187:180|187:180|209:219|209:219|199:326,1,160,2|2,1:2|1:2,0:0:0:0:
202,285,11754,1,8,0:0:0:0:
366,204,11898,102,0,L|286:188,1,80,6|8,1:2|0:0,0:0:0:0:
294,311,12186,2,0,L|374:327,1,80,2|8,1:2|0:0,0:0:0:0:
428,260,12403,1,0,1:0:0:0:
428,260,12475,2,0,P|450:214|445:179,2,80,2|10|2,1:2|0:0|1:2,0:0:0:0:
287,188,12908,6,0,L|365:203,1,80,10|0,0:0|1:0,0:0:0:0:
464,98,13196,1,10,0:0:0:0:
464,98,13340,2,0,L|385:113,1,80,2|10,1:2|0:0,0:0:0:0:
291,30,13629,102,0,L|281:87,1,40,2|0,1:2|1:0,0:0:0:0:
183,104,13773,2,0,L|193:161,1,40,0|0,1:0|1:0,0:0:0:0:
87,30,13917,1,8,0:0:0:0:
77,29,13989,1,8,0:0:0:0:
67,28,14061,1,8,0:0:0:0:
57,27,14134,1,8,0:0:0:0:
47,26,14206,6,0,L|34:104,1,80,6|8,1:2|0:0,0:0:0:0:
160,224,14494,2,0,L|160:128,1,80,2|8,1:2|0:0,0:0:0:0:
273,26,14783,2,0,L|285:104,1,80,2|8,1:2|0:0,0:0:0:0:
240,196,15071,1,2,1:2:0:0:
385,151,15215,1,10,0:0:0:0:
285,105,15359,101,2,1:2:0:0:
339,243,15504,1,8,0:0:0:0:
300,111,15648,5,2,1:2:0:0:
354,249,15792,1,8,0:0:0:0:
207,119,15936,102,0,B|182:110|168:90|168:90|157:105|129:112|129:112|91:79|38:98,1,160,2|2,1:2|1:2,0:0:0:0:
69,174,16369,1,8,0:0:0:0:
129,21,16513,53,2,1:2:0:0:
512,193,17090,1,2,1:2:0:0:
129,363,17667,2,0,L|113:274,1,80,12|0,0:0|1:0,0:0:0:0:
280,198,17956,2,0,L|265:276,1,80,8|0,0:0|1:0,0:0:0:0:
95,183,18244,2,0,L|79:94,1,80,8|0,0:0|1:0,0:0:0:0:
189,25,18533,1,8,0:0:0:0:
208,26,18605,1,0,1:0:0:0:
228,28,18677,1,0,1:0:0:0:
248,30,18749,1,0,1:0:0:0:
268,32,18821,22,0,L|338:21,2,64,6|0|8,0:0|0:0|0:0,0:0:0:0:
203,122,19254,1,0,0:0:0:0:
203,122,19398,2,0,L|133:111,2,64,2|0|8,0:0|0:0|0:0,0:0:0:0:
247,316,19831,6,0,B|276:285|276:285|271:172,1,128,0|0,0:0|0:0,0:0:0:0:
341,122,20263,2,0,L|411:111,1,64,8|0,0:0|0:0,0:0:0:0:
490,99,20552,1,2,0:0:0:0:
449,194,20696,1,0,0:0:0:0:
363,39,20840,2,0,L|299:48,1,64,8|0,0:0|0:0,0:0:0:0:
174,123,21129,101,0,1:0:0:0:
98,66,21273,2,0,P|90:100|84:137,1,64,0|8,0:0|0:0,0:0:0:0:
136,211,21561,1,0,0:0:0:0:
57,267,21706,2,0,P|19:245|-6:241,2,64,2|0|8,0:0|0:0|0:0,0:0:0:0:
165,374,22138,2,0,P|159:342|152:311,1,64,0|2,0:0|1:2,0:0:0:0:
271,161,22427,6,0,P|262:218|253:309,1,128,0|0,0:0|0:0,0:0:0:0:
343,355,22859,1,2,0:0:0:0:
343,355,23004,1,0,0:0:0:0:
447,252,23148,2,0,L|365:240,1,64,8|0,0:0|0:0,0:0:0:0:
271,161,23436,101,2,1:2:0:0:
271,161,23581,2,0,L|353:149,1,64,0|8,0:0|0:0,0:0:0:0:
376,65,23869,1,0,0:0:0:0:
477,105,24013,2,0,P|499:153|502:169,2,64,2|0|8,0:0|0:0|0:0,0:0:0:0:
376,65,24446,2,0,L|294:53,1,64,0|2,0:0|1:2,0:0:0:0:
179,27,24734,6,0,B|198:14|226:14|226:14|210:51|223:91,1,128,0|0,0:0|0:0,0:0:0:0:
166,172,25167,1,0,0:0:0:0:
166,172,25311,1,0,0:0:0:0:
242,225,25456,1,8,0:0:0:0:
181,322,25600,1,0,0:0:0:0:
285,373,25744,102,0,B|331:378|331:378|366:357|366:357|435:362,1,128,2|8,1:2|0:0,0:0:0:0:
445,223,26177,2,0,P|431:244|509:266,1,128,0|0,0:0|0:0,0:0:0:0:
512,152,26609,2,0,L|442:139,1,64,8|0,0:0|0:0,0:0:0:0:
311,66,26898,2,0,B|338:80|338:80|433:60,1,128,2|8,1:2|0:0,0:0:0:0:
256,320,27475,5,2,0:0:0:0:
218,251,27619,1,8,0:0:0:0:
295,170,27763,1,0,1:0:0:0:
208,63,27908,1,0,1:0:0:0:
288,11,28052,102,0,L|350:24,2,64,6|0|8,0:0|0:0|0:0,0:0:0:0:
208,63,28484,1,0,0:0:0:0:
128,11,28629,2,0,L|65:24,2,64,2|0|8,0:0|0:0|0:0,0:0:0:0:
80,134,29061,6,0,B|44:115|44:115|34:219,1,128,0|0,0:0|0:0,0:0:0:0:
0,308,29494,2,0,P|41:289|72:290,1,64,8|0,0:0|0:0,0:0:0:0:
132,342,29783,1,2,0:0:0:0:
189,258,29927,1,0,0:0:0:0:
267,361,30071,2,0,L|330:348,1,64,8|0,0:0|0:0,0:0:0:0:
409,291,30359,102,0,P|423:252|425:219,1,64,0|0,1:0|0:0,0:0:0:0:
327,225,30648,2,0,P|313:186|311:153,1,64,8|0,0:0|0:0,0:0:0:0:
387,114,30936,1,2,0:0:0:0:
315,46,31081,1,0,0:0:0:0:
235,102,31225,1,8,0:0:0:0:
171,6,31369,6,0,L|81:-3,1,64,0|2,0:0|1:2,0:0:0:0:
31,107,31658,2,0,B|116:95|116:95|95:158,1,128,0|0,0:0|0:0,0:0:0:0:
48,212,32090,1,2,0:0:0:0:
119,266,32234,1,0,0:0:0:0:
33,349,32379,2,0,L|109:356,1,64,8|0,0:0|0:0,0:0:0:0:
208,237,32667,102,0,L|144:242,1,64,2|0,1:2|0:0,0:0:0:0:
274,323,32956,1,8,0:0:0:0:
331,241,33100,1,0,0:0:0:0:
414,318,33244,2,0,L|477:312,2,64,2|0|8,0:0|0:0|0:0,0:0:0:0:
331,241,33677,2,0,P|320:190|338:155,1,64,0|2,0:0|1:2,0:0:0:0:
490,126,33965,6,0,P|433:202|405:202,1,128,0|0,0:0|0:0,0:0:0:0:
360,101,34398,1,0,0:0:0:0:
322,179,34542,1,0,0:0:0:0:
220,74,34686,1,8,0:0:0:0:
228,165,34831,1,0,0:0:0:0:
123,85,34975,102,0,P|73:76|41:76,1,64,2|0,1:2|0:0,0:0:0:0:
0,189,35263,2,0,P|31:186|63:179,1,64,8|0,0:0|0:0,0:0:0:0:
121,252,35552,1,2,0:0:0:0:
228,165,35696,2,0,L|216:242,1,64,0|8,0:0|0:0,0:0:0:0:
346,275,35984,6,0,B|324:265|309:249|309:249|286:354,1,128,0|0,0:0|0:0,0:0:0:0:
427,235,36417,2,0,L|417:171,1,64,8|0,0:0|0:0,0:0:0:0:
326,95,36706,1,0,1:0:0:0:
326,95,36778,1,0,1:0:0:0:
326,95,36850,1,8,0:0:0:0:
228,165,36994,1,0,1:0:0:0:
131,56,37138,1,0,1:0:0:0:
27,222,37283,6,0,L|17:138,1,80,14|0,0:0|1:0,0:0:0:0:
122,310,37571,1,0,1:0:0:0:
122,310,37715,2,0,L|132:226,1,80,10|0,0:0|1:0,0:0:0:0:
231,206,38004,1,0,1:0:0:0:
231,206,38148,6,0,L|221:122,2,80,10|0|0,0:0|1:0|1:0,0:0:0:0:
292,297,38581,1,10,0:0:0:0:
364,215,38725,1,0,1:0:0:0:
307,312,38869,1,0,1:0:0:0:
443,249,39013,2,0,P|448:194|425:157,1,80,10|0,0:0|1:0,0:0:0:0:
315,72,39302,1,0,1:0:0:0:
426,66,39446,1,0,1:0:0:0:
283,169,39590,102,0,B|209:162|209:162|198:158|198:158|89:149,1,160,14|0,0:0|1:0,0:0:0:0:
251,251,40023,2,0,B|177:244|177:244|166:240|166:240|57:231,1,160,10|0,0:0|1:0,0:0:0:0:
219,333,40456,2,0,B|145:326|145:326|134:322|134:322|25:313,1,160,10|0,0:0|1:0,0:0:0:0:
0,202,40888,1,10,0:0:0:0:
124,151,41033,2,0,L|215:159,1,80,0|0,1:0|1:0,0:0:0:0:
350,218,41321,5,10,0:0:0:0:
278,195,41465,1,0,1:0:0:0:
278,119,41609,1,0,1:0:0:0:
350,95,41754,1,0,1:0:0:0:
395,157,41898,102,0,B|386:212|386:212|395:235|395:235|380:256|380:256|371:309,1,160,14|0,0:0|1:0,0:0:0:0:
256,352,42331,2,0,L|256:192,1,160,10|0,0:0|1:0,0:0:0:0:
117,157,42763,2,0,B|126:212|126:212|117:235|117:235|132:256|132:256|140:309,1,160,10|0,0:0|1:0,0:0:0:0:
256,352,43196,1,10,0:0:0:0:
371,309,43340,2,0,P|390:271|373:223,1,80,0|0,1:0|1:0,0:0:0:0:
264,158,43629,5,10,0:0:0:0:
260,175,43701,1,0,1:0:0:0:
256,192,43773,1,0,1:0:0:0:
137,96,43917,2,0,L|234:85,1,80,0|8,1:0|0:0,0:0:0:0:
65,44,44206,70,0,B|13:26|13:26|17:82|17:82|3:103|3:103|23:120|23:120|37:200,1,215.999993408203,6|0,0:0|1:0,0:0:0:0:
115,244,44783,2,0,B|91:242|69:263|69:263|99:276|117:265,1,71.9999978027344,8|0,0:0|0:0,0:0:0:0:
180,332,45071,2,0,B|206:288|202:230|202:230|244:233|266:269|266:269|231:264|213:282,1,215.999993408203,2|0,0:0|0:0,0:0:0:0:
330,319,45648,2,0,P|346:287|343:249,1,71.9999978027344,2|0,0:0|1:0,0:0:0:0:
282,112,45936,6,0,L|293:196,1,71.9999978027344,8|0,0:0|0:0,0:0:0:0:
397,59,46225,2,0,L|386:143,1,71.9999978027344,2|0,1:2|1:0,0:0:0:0:
512,186,46513,5,14,0:0:0:0:
343,251,46658,1,2,1:2:0:0:
338,256,46946,1,2,1:2:0:0:
231,40,47234,101,0,1:0:0:0:
196,121,47379,1,8,0:0:0:0:
144,50,47523,1,0,1:0:0:0:
283,111,47667,5,14,0:0:0:0:
109,131,47811,1,2,1:2:0:0:
104,136,48100,1,2,1:2:0:0:
207,297,48388,101,0,1:0:0:0:
249,199,48533,1,8,0:0:0:0:
311,285,48677,1,0,1:0:0:0:
144,211,48821,5,10,0:0:0:0:
353,187,48965,2,0,B|433:187|433:187|437:183|437:183|525:183,3,160,2|2|2|6,1:2|1:2|1:2|1:2,0:0:0:0:
82,290,50119,2,0,L|72:335,6,40,8|8|8|8|8|8|4,0:0|0:0|0:0|0:0|0:0|0:0|1:2,0:0:0:0:
36,196,50696,1,0,1:0:0:0:
422,292,51129,21,6,1:2:0:0:
351,232,51273,1,0,1:0:0:0:
453,152,51417,1,8,0:0:0:0:
382,92,51561,2,0,P|316:84|311:19,1,120,2|0,1:2|1:0,0:0:0:0:
320,34,51850,1,0,1:0:0:0:
152,32,51994,1,10,0:0:0:0:
239,110,52138,1,0,1:0:0:0:
45,188,52283,6,0,L|22:89,1,80,2|0,1:2|0:0,0:0:0:0:
133,55,52571,2,0,L|133:135,1,80,10|0,0:0|1:2,0:0:0:0:
221,188,52859,1,2,0:0:0:0:
230,149,52932,1,2,1:2:0:0:
239,110,53004,1,2,1:2:0:0:
394,64,53148,2,0,P|317:40|301:6,1,80,10|0,0:0|1:0,0:0:0:0:
484,53,53436,101,6,1:2:0:0:
442,142,53581,1,0,1:0:0:0:
493,232,53725,1,8,0:0:0:0:
421,302,53869,2,0,P|355:310|350:375,1,120,2|0,1:2|1:0,0:0:0:0:
354,368,54158,1,0,1:0:0:0:
259,291,54302,1,10,0:0:0:0:
161,361,54446,1,0,1:0:0:0:
83,291,54590,6,0,L|60:192,1,80,2|0,1:2|0:0,0:0:0:0:
171,158,54879,2,0,L|171:238,1,80,10|0,0:0|1:2,0:0:0:0:
259,291,55167,1,2,0:0:0:0:
268,252,55239,1,2,1:2:0:0:
277,213,55311,1,2,1:2:0:0:
382,172,55456,2,0,L|363:94,1,80,10|0,0:0|1:0,0:0:0:0:
279,37,55744,101,6,1:2:0:0:
170,47,55888,1,0,1:0:0:0:
271,142,56033,1,8,0:0:0:0:
109,132,56177,2,0,B|68:120|68:120|92:169|86:225,1,120,2|0,1:2|1:0,0:0:0:0:
80,211,56465,1,0,1:0:0:0:
166,340,56609,1,10,0:0:0:0:
48,323,56754,1,0,1:0:0:0:
214,232,56898,6,0,B|275:223|275:223|302:236|302:236|394:223,1,160,2|8,1:2|0:0,0:0:0:0:
495,73,57331,2,0,L|480:165,1,80,2|0,1:2|0:0,0:0:0:0:
487,157,57547,1,0,1:0:0:0:
492,163,57619,1,0,1:0:0:0:
382,305,57763,2,0,L|369:226,1,80,10|0,0:0|1:0,0:0:0:0:
395,119,58052,5,14,0:0:0:0:
276,48,58196,2,0,L|285:10,2,40,0|0|0,1:0|1:0|1:0,0:0:0:0:
400,128,58484,5,10,0:0:0:0:
205,127,58629,2,0,L|195:78,2,40,0|0|0,1:0|1:0|1:0,0:0:0:0:
405,137,58917,101,14,0:0:0:0:
262,226,59061,2,0,L|272:167,2,40,0|0|0,1:0|1:0|1:0,0:0:0:0:
102,292,59350,6,0,L|10:277,1,80,10|0,0:0|1:0,0:0:0:0:
18,284,59566,1,0,1:0:0:0:
12,289,59638,1,0,1:0:0:0:
167,355,59783,2,0,P|193:304|186:264,1,80,14|0,0:0|1:0,0:0:0:0:
123,138,60071,1,8,0:0:0:0:
116,156,60143,1,8,0:0:0:0:
116,176,60215,1,8,0:0:0:0:
121,196,60287,1,8,0:0:0:0:
132,212,60359,69,6,1:2:0:0:
208,166,60504,1,0,1:0:0:0:
292,248,60648,1,8,0:0:0:0:
411,145,60792,2,0,P|401:210|463:232,1,120,2|0,1:2|1:0,0:0:0:0:
450,219,61081,1,0,1:0:0:0:
423,335,61225,1,10,0:0:0:0:
506,300,61369,1,0,1:0:0:0:
328,256,61513,6,0,L|229:279,1,80,2|0,1:2|0:0,0:0:0:0:
195,168,61802,2,0,L|275:168,1,80,10|0,0:0|1:2,0:0:0:0:
328,80,62090,1,2,0:0:0:0:
289,71,62162,1,2,1:2:0:0:
250,62,62234,1,2,1:2:0:0:
122,115,62379,2,0,P|104:159|114:207,1,80,10|0,0:0|1:0,0:0:0:0:
79,348,62667,101,6,1:2:0:0:
168,306,62811,1,0,1:0:0:0:
258,357,62956,1,8,0:0:0:0:
328,285,63100,2,0,P|336:219|401:214,1,120,2|0,1:2|1:0,0:0:0:0:
394,218,63388,1,0,1:0:0:0:
427,346,63533,1,10,0:0:0:0:
484,257,63677,1,0,1:0:0:0:
328,285,63821,6,0,L|229:308,1,80,2|0,1:2|0:0,0:0:0:0:
159,197,64109,2,0,L|239:197,1,80,10|0,0:0|1:2,0:0:0:0:
327,109,64398,1,2,0:0:0:0:
289,100,64470,1,2,1:2:0:0:
250,91,64542,1,2,1:2:0:0:
398,164,64686,2,0,P|416:129|415:90,1,80,10|0,0:0|1:0,0:0:0:0:
193,0,64975,102,0,B|186:48|186:48|165:70|165:70|176:102|176:102|165:181,1,160,6|8,1:2|0:0,0:0:0:0:
169,148,65408,1,0,1:0:0:0:
169,240,65552,2,0,B|131:241|103:212|103:212|86:225|89:253,2,120,2|2|2,0:0|0:0|1:2,0:0:0:0:
254,196,66129,2,0,P|264:254|239:307,2,120,2|2|2,1:2|1:2|1:2,0:0:0:0:
173,108,66706,1,2,0:0:0:0:
171,128,66778,1,2,1:2:0:0:
169,148,66850,1,2,1:2:0:0:
89,229,66994,2,0,L|169:240,1,80,10|0,0:0|1:0,0:0:0:0:
254,196,67283,21,14,0:0:0:0:
339,148,67427,2,0,L|335:107,2,40,0|0|0,1:0|1:0|1:0,0:0:0:0:
430,195,67715,1,10,0:0:0:0:
339,270,67859,5,0,1:0:0:0:
448,210,68004,1,0,1:0:0:0:
508,319,68148,1,0,1:0:0:0:
399,379,68292,101,10,0:0:0:0:
393,373,68581,1,10,0:0:0:0:
387,367,68869,5,10,0:0:0:0:
508,319,69013,1,10,0:0:0:0:
36,172,69590,38,0,P|36:117|14:84,1,80,2|8,1:2|0:0,0:3:0:0:
90,30,69879,2,0,P|137:57|177:54,1,80,2|8,1:2|0:0,0:3:0:0:
185,147,70167,2,0,P|137:174|119:210,1,80,2|8,1:2|0:0,0:3:0:0:
186,297,70456,1,2,1:2:0:0:
17,261,70600,1,10,0:0:0:0:
124,194,70744,5,2,1:2:0:0:
90,350,70888,1,8,0:0:0:0:
113,194,71033,101,2,1:2:0:0:
79,350,71177,1,8,0:0:0:0:
210,211,71321,6,0,B|241:191|241:191|273:207|273:207|318:185|356:209,1,160,2|2,1:2|1:2,0:0:0:0:
315,279,71754,1,8,0:0:0:0:
448,261,71898,102,0,L|464:181,1,80,6|8,1:2|0:0,0:0:0:0:
399,46,72186,2,0,L|383:126,1,80,2|8,1:2|0:0,0:0:0:0:
285,132,72403,1,0,1:0:0:0:
285,132,72475,2,0,P|239:110|204:115,2,80,2|10|2,1:2|0:0|1:2,0:0:0:0:
211,282,72908,6,0,L|226:204,1,80,10|0,0:0|1:0,0:0:0:0:
111,79,73196,1,10,0:0:0:0:
111,79,73340,2,0,L|126:158,1,80,2|10,1:2|0:0,0:0:0:0:
49,248,73629,102,0,L|-8:238,1,40,2|0,1:2|1:0,0:0:0:0:
96,346,73773,2,0,L|153:336,1,40,0|0,1:0|1:0,0:0:0:0:
200,210,73917,1,8,0:0:0:0:
201,200,73989,1,8,0:0:0:0:
202,190,74061,1,8,0:0:0:0:
203,180,74134,1,8,0:0:0:0:
204,170,74206,6,0,P|168:174|126:157,1,80,6|8,1:2|0:0,0:0:0:0:
234,30,74494,2,0,P|256:62|262:101,1,80,2|8,1:2|0:0,0:0:0:0:
98,73,74783,2,0,P|114:38|146:13,1,80,2|8,1:2|0:0,0:0:0:0:
262,101,75071,1,2,1:2:0:0:
127,158,75215,1,10,0:0:0:0:
181,92,75359,101,2,1:2:0:0:
220,198,75504,1,8,0:0:0:0:
186,97,75648,5,2,1:2:0:0:
225,203,75793,1,8,0:0:0:0:
293,30,75936,102,0,B|318:39|332:59|332:59|361:36|408:35|432:78,1,160,2|2,1:2|1:2,0:0:0:0:
439,175,76369,1,8,0:0:0:0:
512,28,76513,53,2,1:2:0:0:
0,149,77090,1,2,1:2:0:0:
512,356,77667,2,0,L|497:277,1,80,12|0,0:0|1:0,0:0:0:0:
284,197,77956,2,0,L|269:275,1,80,8|0,0:0|1:0,0:0:0:0:
478,185,78244,2,0,L|462:96,1,80,8|0,0:0|1:0,0:0:0:0:
355,31,78533,1,8,0:0:0:0:
336,32,78605,1,0,1:0:0:0:
316,34,78677,1,0,1:0:0:0:
296,36,78749,1,0,1:0:0:0:
276,38,78821,22,0,L|206:27,2,64,6|0|8,0:0|0:0|0:0,0:0:0:0:
183,114,79254,1,0,0:0:0:0:
183,114,79398,2,0,L|113:103,2,64,2|0|8,0:0|0:0|0:0,0:0:0:0:
304,235,79831,6,0,B|273:206|273:206|160:211,1,128,0|0,0:0|0:0,0:0:0:0:
145,314,80263,2,0,L|215:303,1,64,8|0,0:0|0:0,0:0:0:0:
297,340,80552,1,2,0:0:0:0:
304,235,80696,1,0,0:0:0:0:
424,288,80840,2,0,L|433:224,1,64,8|0,0:0|0:0,0:0:0:0:
489,142,81129,101,0,1:0:0:0:
419,73,81273,2,0,P|385:81|348:87,2,64,0|8|0,0:0|0:0|0:0,0:0:0:0:
307,154,81706,2,0,P|275:148|244:141,2,64,2|0|8,0:0|0:0|0:0,0:0:0:0:
196,10,82138,2,0,P|188:41|183:72,1,64,0|2,0:0|1:2,0:0:0:0:
51,181,82427,6,0,P|114:187|177:197,1,128,0|0,0:0|0:0,0:0:0:0:
185,307,82859,1,2,0:0:0:0:
185,307,83004,1,0,0:0:0:0:
320,260,83148,2,0,L|238:248,1,64,8|0,0:0|0:0,0:0:0:0:
394,324,83436,101,2,1:2:0:0:
394,324,83581,2,0,L|476:312,1,64,0|8,0:0|0:0,0:0:0:0:
494,224,83869,1,0,0:0:0:0:
423,152,84013,2,0,P|431:121|447:93,2,64,2|0|8,0:0|0:0|0:0,0:0:0:0:
343,202,84446,2,0,L|261:190,1,64,0|2,0:0|1:2,0:0:0:0:
140,219,84734,6,0,B|159:232|187:232|187:232|171:195|184:155,1,128,0|0,0:0|0:0,0:0:0:0:
259,107,85167,1,0,0:0:0:0:
259,107,85311,1,0,0:0:0:0:
163,60,85456,1,8,0:0:0:0:
254,15,85600,1,0,0:0:0:0:
82,14,85744,102,0,L|67:95,1,64,2|0,1:2|0:0,0:0:0:0:
183,155,86033,2,0,L|194:217,1,64,8|0,0:0|0:0,0:0:0:0:
47,274,86321,2,0,L|32:355,1,64,2|0,0:0|0:0,0:0:0:0:
109,196,86609,1,8,0:0:0:0:
232,353,86754,6,0,P|294:357|251:263,1,192,0|8,0:0|0:0,0:0:0:0:
432,154,87475,1,0,1:0:0:0:
429,178,87547,1,0,1:0:0:0:
426,202,87619,1,8,0:0:0:0:
464,279,87763,1,0,1:0:0:0:
406,344,87908,1,0,1:0:0:0:
328,259,88052,6,0,L|244:269,1,80,14|0,0:0|1:0,0:0:0:0:
103,168,88340,1,0,1:0:0:0:
103,168,88484,2,0,L|187:178,1,80,10|0,0:0|1:0,0:0:0:0:
313,59,88773,1,0,1:0:0:0:
313,59,88917,6,0,L|229:69,2,80,10|0|0,0:0|1:0|1:0,0:0:0:0:
419,54,89350,1,10,0:0:0:0:
394,170,89494,1,0,1:0:0:0:
437,46,89638,1,0,1:0:0:0:
426,251,89782,2,0,P|371:256|334:233,1,80,10|0,0:0|1:0,0:0:0:0:
287,161,90071,1,0,1:0:0:0:
242,288,90215,1,0,1:0:0:0:
123,225,90359,102,0,B|116:151|116:151|112:140|112:140|103:31,1,160,14|0,0:0|1:0,0:0:0:0:
205,193,90792,2,0,B|198:119|198:119|194:108|194:108|185:-1,1,160,10|0,0:0|1:0,0:0:0:0:
287,161,91225,2,0,B|280:87|280:87|276:76|276:76|267:-33,1,160,10|0,0:0|1:0,0:0:0:0:
358,24,91657,1,10,0:0:0:0:
187,34,91802,2,0,L|107:26,1,80,0|0,1:0|1:0,0:0:0:0:
136,193,92090,5,10,0:0:0:0:
113,121,92234,1,0,1:0:0:0:
37,121,92378,1,0,1:0:0:0:
13,193,92523,1,0,1:0:0:0:
74,238,92667,102,0,P|86:283|70:325,1,80,14|8,0:0|0:0,0:0:0:0:
76,314,92884,1,8,0:0:0:0:
76,314,92956,1,8,0:0:0:0:
212,285,93100,2,0,L|253:275,2,40,8|8|8,0:0|0:0|0:0,0:0:0:0:
142,145,93388,5,8,0:0:0:0:
139,169,93460,1,8,0:0:0:0:
136,193,93532,1,8,0:0:0:0:
221,78,93677,2,0,L|262:68,2,40,8|8|8,0:0|0:0|0:0,0:0:0:0:
329,208,93965,101,8,0:0:0:0:
332,184,94037,1,8,0:0:0:0:
335,160,94109,1,8,0:0:0:0:
250,275,94254,2,0,L|209:285,2,40,8|8|8,0:0|0:0|0:0,0:0:0:0:
341,355,94542,5,8,0:0:0:0:
341,355,94614,1,8,0:0:0:0:
341,355,94686,2,0,L|430:358,1,80,8|8,0:0|0:0,0:0:0:0:
421,364,94903,1,8,0:0:0:0:
421,364,94975,70,0,B|441:321|428:290|428:290|456:264|456:264|432:209|462:159,1,215.999993408203,6|0,0:0|1:0,0:0:0:0:
371,78,95552,2,0,B|370:112|370:112|374:117|374:117|372:163,1,71.9999978027344,8|0,0:0|0:0,0:0:0:0:
217,222,95840,2,0,B|195:214|189:188|189:188|237:157|304:192,1,143.999995605469,2|0,0:0|0:0,0:0:0:0:
111,74,96273,2,0,B|112:108|112:108|108:113|108:113|110:159,1,71.9999978027344,0|2,0:0|0:0,0:0:0:0:
112,239,96561,1,0,1:0:0:0:
112,239,96705,6,0,L|28:228,1,71.9999978027344,8|0,0:0|0:0,0:0:0:0:
148,329,96994,1,2,1:2:0:0:
202,215,97138,1,0,1:0:0:0:
249,302,97282,5,14,0:0:0:0:
112,239,97427,1,2,1:2:0:0:
107,234,97715,1,2,1:2:0:0:
329,41,98003,5,0,1:0:0:0:
355,118,98148,1,8,0:0:0:0:
408,57,98292,1,0,1:0:0:0:
276,102,98436,101,14,0:0:0:0:
434,134,98580,1,2,1:2:0:0:
438,139,98869,1,2,1:2:0:0:
294,283,99157,5,0,1:0:0:0:
261,205,99302,1,8,0:0:0:0:
211,274,99446,1,0,1:0:0:0:
345,214,99590,101,10,0:0:0:0:
178,195,99734,2,0,B|89:194|89:194|80:184|80:184|90:175|90:175|150:174,3,160,2|2|2|6,1:2|1:2|1:2|1:2,0:0:0:0:
344,68,100888,2,0,L|351:24,6,40,8|8|8|8|8|8|4,0:0|0:0|0:0|0:0|0:0|0:0|1:2,0:0:0:0:
403,144,101465,1,0,1:0:0:0:
90,92,101898,21,6,1:2:0:0:
161,152,102042,1,0,1:0:0:0:
59,232,102186,1,8,0:0:0:0:
130,292,102330,2,0,P|196:300|201:365,1,120,2|0,1:2|1:0,0:0:0:0:
192,350,102619,1,0,1:0:0:0:
286,290,102763,1,10,0:0:0:0:
376,361,102907,1,0,1:0:0:0:
462,290,103052,6,0,L|485:191,1,80,2|0,1:2|0:0,0:0:0:0:
374,157,103340,2,0,L|374:237,1,80,10|0,0:0|1:2,0:0:0:0:
286,290,103628,1,2,0:0:0:0:
277,251,103701,1,2,1:2:0:0:
268,212,103773,1,2,1:2:0:0:
290,114,103917,2,0,P|213:90|197:56,1,80,10|0,0:0|1:0,0:0:0:0:
142,9,104205,101,6,1:2:0:0:
100,98,104350,1,0,1:0:0:0:
151,188,104494,1,8,0:0:0:0:
79,258,104638,2,0,P|13:266|8:331,1,120,2|0,1:2|1:0,0:0:0:0:
12,324,104927,1,0,1:0:0:0:
168,328,105071,1,10,0:0:0:0:
91,384,105215,1,0,1:0:0:0:
164,230,105359,6,0,L|141:131,1,80,2|0,1:2|0:0,0:0:0:0:
252,97,105648,2,0,L|252:177,1,80,10|0,0:0|1:2,0:0:0:0:
340,230,105936,1,2,0:0:0:0:
349,191,106008,1,2,1:2:0:0:
358,152,106080,1,2,1:2:0:0:
426,49,106225,2,0,L|445:127,1,80,10|0,0:0|1:0,0:0:0:0:
474,226,106513,101,6,1:2:0:0:
411,298,106657,1,0,1:0:0:0:
340,230,106802,1,8,0:0:0:0:
255,295,106946,2,0,L|177:276,1,80,2|0,1:2|0:0,0:0:0:0:
177,276,107162,1,0,1:0:0:0:
178,276,107234,1,0,1:0:0:0:
85,331,107378,1,10,0:0:0:0:
82,214,107523,1,0,1:0:0:0:
211,183,107667,6,0,B|236:151|236:151|106:127,1,160,2|8,1:2|0:0,0:0:0:0:
239,60,108100,2,0,L|331:45,1,80,2|0,1:2|0:0,0:0:0:0:
317,47,108316,1,0,1:0:0:0:
317,47,108388,1,0,1:0:0:0:
428,169,108533,2,0,L|336:154,1,80,10|0,0:0|1:0,0:0:0:0:
222,223,108821,5,14,0:0:0:0:
341,294,108965,2,0,L|332:332,2,40,0|0|0,1:0|1:0|1:0,0:0:0:0:
217,214,109253,5,10,0:0:0:0:
412,215,109398,2,0,L|422:264,2,40,0|0|0,1:0|1:0|1:0,0:0:0:0:
212,205,109686,101,14,0:0:0:0:
355,116,109830,2,0,L|345:175,2,40,0|0|0,1:0|1:0|1:0,0:0:0:0:
198,69,110119,6,0,L|106:84,1,80,10|0,0:0|1:0,0:0:0:0:
114,77,110335,1,0,1:0:0:0:
108,72,110407,1,0,1:0:0:0:
263,6,110552,2,0,P|289:57|282:97,1,80,14|0,0:0|1:0,0:0:0:0:
219,223,110840,1,8,0:0:0:0:
212,205,110912,1,8,0:0:0:0:
212,185,110984,1,8,0:0:0:0:
217,165,111056,1,8,0:0:0:0:
228,149,111128,69,6,1:2:0:0:
297,192,111273,1,0,1:0:0:0:
287,78,111417,1,8,0:0:0:0:
385,237,111561,2,0,P|320:227|298:289,1,120,2|0,1:2|1:0,0:0:0:0:
311,276,111850,1,0,1:0:0:0:
196,346,111994,1,10,0:0:0:0:
214,243,112138,1,0,1:0:0:0:
60,268,112283,6,0,P|18:228|15:174,1,80,2|0,1:2|0:0,0:0:0:0:
172,178,112571,2,0,P|167:217|144:249,1,80,10|0,0:0|1:2,0:0:0:0:
39,127,112859,1,2,0:0:0:0:
75,112,112931,1,2,1:2:0:0:
114,116,113003,1,2,1:2:0:0:
289,196,113148,2,0,L|312:87,1,80,10|0,0:0|1:0,0:0:0:0:
388,34,113436,101,6,1:2:0:0:
317,97,113580,1,0,1:0:0:0:
204,16,113725,1,8,0:0:0:0:
158,143,113869,2,0,P|133:204|69:192,1,120,2|0,1:2|1:0,0:0:0:0:
76,190,114157,1,0,1:0:0:0:
78,58,114302,1,10,0:0:0:0:
0,129,114446,1,0,1:0:0:0:
158,143,114590,6,0,L|259:153,1,80,2|0,1:2|0:0,0:0:0:0:
366,234,114879,2,0,L|265:244,1,80,10|0,0:0|1:2,0:0:0:0:
143,330,115167,1,2,0:0:0:0:
182,333,115239,1,2,1:2:0:0:
222,337,115311,1,2,1:2:0:0:
430,292,115455,2,0,P|450:258|452:218,1,80,10|0,0:0|1:0,0:0:0:0:
348,150,115744,102,0,B|300:143|300:143|278:122|278:122|246:133|246:133|167:122,1,160,6|8,1:2|0:0,0:0:0:0:
200,126,116177,1,0,1:0:0:0:
112,171,116321,2,0,P|102:112|127:60,2,120,2|2|2,0:0|0:0|1:2,0:0:0:0:
272,192,116898,2,0,P|297:139|288:81,2,120,2|2|2,1:2|1:2|1:2,0:0:0:0:
182,250,117475,1,2,0:0:0:0:
180,270,117547,1,2,1:2:0:0:
178,290,117619,1,2,1:2:0:0:
346,356,117763,2,0,L|266:367,1,80,10|0,0:0|1:0,0:0:0:0:
274,266,118052,21,14,0:0:0:0:
97,328,118196,2,0,L|93:367,2,40,0|0|0,1:0|1:0|1:0,0:0:0:0:
48,221,118484,1,10,0:0:0:0:
163,167,118628,5,0,1:0:0:0:
33,199,118773,1,0,1:0:0:0:
0,68,118917,1,0,1:0:0:0:
131,38,119061,101,10,0:0:0:0:
135,44,119350,1,10,0:0:0:0:
139,52,119638,5,10,0:0:0:0:
0,68,119782,1,10,0:0:0:0:
128,335,120359,70,0,L|137:281,7,40,8|8|8|8|8|8|8|8,0:0|0:0|0:0|0:0|0:0|0:0|0:0|0:0,0:0:0:0:
119,278,120935,1,0,1:0:0:0:
272,241,121080,2,0,P|234:240|171:222,1,80,6|0,1:2|0:0,0:0:0:0:
151,156,121368,1,6,1:2:0:0:
216,51,121513,6,0,L|207:105,7,40,8|8|8|8|8|8|8|8,0:0|0:0|0:0|0:0|0:0|0:0|0:0|0:0,0:0:0:0:
225,108,122089,1,0,1:0:0:0:
72,145,122234,2,0,P|110:146|173:164,1,80,6|0,1:2|0:0,0:0:0:0:
193,230,122522,1,6,1:2:0:0:
286,291,122667,102,0,L|340:282,7,40,8|8|8|8|8|8|8|8,0:0|0:0|0:0|0:0|0:0|0:0|0:0|0:0,0:0:0:0:
339,255,123243,1,0,1:0:0:0:
430,294,123388,2,0,P|421:255|420:215,1,80,6|0,1:2|0:0,0:0:0:0:
295,138,123677,1,6,1:2:0:0:
382,106,123820,22,0,L|302:117,1,80,14|0,0:0|1:0,0:0:0:0:
333,26,124109,2,0,L|253:37,1,80,10|0,0:0|1:0,0:0:0:0:
210,158,124326,5,0,1:0:0:0:
210,158,124398,2,0,L|130:169,1,80,10|0,0:0|1:0,0:0:0:0:
161,78,124614,1,0,1:0:0:0:
161,78,124686,2,0,L|81:89,1,80,10|0,0:0|1:0,0:0:0:0:
57,227,124903,1,0,1:0:0:0:
57,227,124975,70,0,L|48:281,7,40,8|8|8|8|8|8|8|8,0:0|0:0|0:0|0:0|0:0|0:0|0:0|0:0,0:0:0:0:
130,168,125552,1,0,1:0:0:0:
158,292,125696,2,0,P|197:293|236:302,1,80,6|0,1:2|0:0,0:0:0:0:
307,352,125984,1,6,1:2:0:0:
360,236,126129,6,0,L|366:196,7,40,8|8|8|8|8|8|8|8,0:0|0:0|0:0|0:0|0:0|0:0|0:0|0:0,0:0:0:0:
384,187,126705,1,0,1:0:0:0:
464,114,126850,2,0,P|424:112|385:103,1,80,6|0,1:2|0:0,0:0:0:0:
315,54,127138,1,6,1:2:0:0:
247,173,127283,102,0,L|193:164,7,40,8|8|8|8|8|8|8|8,0:0|0:0|0:0|0:0|0:0|0:0|0:0|0:0,0:0:0:0:
194,137,127859,1,0,1:0:0:0:
103,235,128004,2,0,P|112:196|113:156,1,80,6|0,1:2|0:0,0:0:0:0:
74,61,128292,1,6,1:2:0:0:
246,25,128436,22,0,L|271:35,1,20,2|0,1:2|0:0,0:0:0:0:
410,98,129158,5,2,1:2:0:0:
410,98,129446,1,2,1:2:0:0:
394,191,129590,1,2,1:2:0:0:
102,98,130311,101,2,1:2:0:0:
102,98,130599,1,2,1:2:0:0:
118,191,130743,1,2,1:2:0:0:
256,64,131465,5,2,1:2:0:0:
256,64,131753,1,2,1:2:0:0:
256,192,131898,102,0,L|255:286,1,80,14|0,1:2|1:0,0:0:0:0:
313,328,132114,1,0,1:0:0:0:
313,328,132186,2,0,L|419:306,1,80,10|0,1:2|1:0,0:0:0:0:
199,328,132403,1,0,1:0:0:0:
199,328,132475,2,0,L|92:306,1,80,10|0,1:2|1:0,0:0:0:0:
257,113,132763,1,10,1:2:0:0:
256,132,132835,1,0,1:0:0:0:
256,152,132907,1,0,1:0:0:0:
256,172,132979,1,0,1:0:0:0:
256,192,133051,1,0,0:0:0:0:
76,37,142283,85,6,1:2:0:0:
44,132,142427,5,0,1:0:0:0:
178,51,142571,1,8,0:0:0:0:
123,205,142715,2,0,P|189:213|194:278,1,120,2|0,1:2|1:0,0:0:0:0:
194,270,143004,1,0,1:0:0:0:
278,211,143148,1,10,0:0:0:0:
338,274,143292,1,0,1:0:0:0:
454,211,143437,102,0,L|477:112,1,80,2|0,1:2|0:0,0:0:0:0:
366,78,143725,2,0,L|366:158,1,80,10|0,0:0|1:2,0:0:0:0:
278,211,144013,1,2,0:0:0:0:
269,172,144086,1,2,1:2:0:0:
260,133,144158,1,2,1:2:0:0:
221,278,144302,2,0,P|255:299|295:299,1,80,10|0,0:0|1:0,0:0:0:0:
365,242,144590,5,6,1:2:0:0:
454,211,144735,1,0,1:0:0:0:
426,336,144879,1,8,0:0:0:0:
512,165,145023,2,0,P|446:157|441:92,1,120,2|0,1:2|1:0,0:0:0:0:
445,99,145312,1,0,1:0:0:0:
383,29,145456,1,10,0:0:0:0:
312,92,145600,1,0,1:0:0:0:
228,18,145744,102,0,L|129:-5,1,80,2|0,1:2|0:0,0:0:0:0:
95,106,146033,2,0,L|175:106,1,80,10|0,0:0|1:2,0:0:0:0:
228,194,146321,1,2,0:0:0:0:
189,203,146393,1,2,1:2:0:0:
150,212,146465,1,2,1:2:0:0:
88,299,146610,2,0,L|166:318,1,80,10|0,0:0|1:0,0:0:0:0:
257,376,146898,5,6,1:2:0:0:
309,300,147042,1,0,1:0:0:0:
228,194,147187,1,8,0:0:0:0:
308,120,147331,2,0,L|230:101,1,80,2|0,1:2|0:0,0:0:0:0:
230,101,147547,1,0,1:0:0:0:
231,101,147619,1,0,1:0:0:0:
123,149,147763,1,10,0:0:0:0:
147,54,147908,1,0,1:0:0:0:
32,109,148052,102,0,B|-1:138|-1:138|20:265,1,160,2|8,1:2|0:0,0:0:0:0:
114,318,148485,2,0,L|206:303,1,80,2|0,1:2|0:0,0:0:0:0:
192,305,148701,1,0,1:0:0:0:
192,305,148773,1,0,1:0:0:0:
332,215,148918,2,0,L|240:200,1,80,10|0,0:0|1:0,0:0:0:0:
125,205,149206,21,14,0:0:0:0:
54,86,149350,2,0,L|16:95,2,40,0|0|0,1:0|1:0|1:0,0:0:0:0:
134,210,149638,5,10,0:0:0:0:
133,15,149783,2,0,L|84:5,2,40,0|0|0,1:0|1:0|1:0,0:0:0:0:
143,215,150071,101,14,0:0:0:0:
232,72,150215,2,0,L|173:82,2,40,0|0|0,1:0|1:0|1:0,0:0:0:0:
332,215,150504,6,0,L|240:200,1,80,10|0,0:0|1:0,0:0:0:0:
248,207,150720,1,0,1:0:0:0:
242,212,150792,1,0,1:0:0:0:
397,278,150937,2,0,P|423:227|416:187,1,80,14|0,0:0|1:0,0:0:0:0:
353,61,151225,1,8,0:0:0:0:
346,79,151297,1,8,0:0:0:0:
346,99,151369,1,8,0:0:0:0:
351,119,151441,1,8,0:0:0:0:
362,135,151513,69,6,1:2:0:0:
421,205,151658,1,0,1:0:0:0:
466,106,151802,1,8,0:0:0:0:
321,203,151946,2,0,P|256:213|234:151,1,120,2|0,1:2|1:0,0:0:0:0:
247,164,152235,1,0,1:0:0:0:
121,91,152379,1,10,0:0:0:0:
216,56,152523,1,0,1:0:0:0:
92,173,152667,6,0,L|69:272,1,80,2|0,1:2|0:0,0:0:0:0:
180,306,152956,2,0,L|180:226,1,80,10|0,0:0|1:2,0:0:0:0:
268,173,153244,1,2,0:0:0:0:
277,212,153316,1,2,1:2:0:0:
286,251,153388,1,2,1:2:0:0:
370,325,153533,2,0,L|389:247,1,80,10|0,0:0|1:0,0:0:0:0:
439,89,153821,101,6,1:2:0:0:
354,146,153965,1,0,1:0:0:0:
314,26,154110,1,8,0:0:0:0:
202,126,154254,2,0,P|149:166|100:123,1,120,2|0,1:2|1:0,0:0:0:0:
107,125,154542,1,0,1:0:0:0:
175,13,154687,1,10,0:0:0:0:
72,34,154831,1,0,1:0:0:0:
202,126,154975,6,0,L|179:225,1,80,2|0,1:2|0:0,0:0:0:0:
290,259,155264,2,0,L|290:179,1,80,10|0,0:0|1:2,0:0:0:0:
378,126,155552,1,2,0:0:0:0:
387,165,155624,1,2,1:2:0:0:
396,204,155696,1,2,1:2:0:0:
487,287,155840,2,0,P|445:288|411:315,1,80,10|0,0:0|1:0,0:0:0:0:
322,370,156129,102,0,B|274:363|274:363|244:371|244:371|220:353|220:353|134:338,1,160,6|8,1:2|0:0,0:0:0:0:
169,344,156562,1,0,1:0:0:0:
100,268,156706,2,0,P|90:209|146:225,2,120,2|2|2,0:0|0:0|1:2,0:0:0:0:
247,195,157283,2,0,P|257:136|201:152,2,120,2|2|2,1:2|1:2|1:2,0:0:0:0:
123,98,157860,1,2,0:0:0:0:
121,78,157932,1,2,1:2:0:0:
119,58,158004,1,2,1:2:0:0:
235,19,158148,2,0,L|315:30,1,80,10|0,0:0|1:0,0:0:0:0:
339,119,158437,21,14,0:0:0:0:
415,56,158581,2,0,L|419:17,2,40,0|0|0,1:0|1:0|1:0,0:0:0:0:
472,142,158869,1,10,0:0:0:0:
326,129,159013,5,0,1:0:0:0:
478,162,159158,1,0,1:0:0:0:
444,313,159302,1,0,1:0:0:0:
293,281,159446,101,10,0:0:0:0:
298,286,159734,1,10,0:0:0:0:
303,291,160023,5,10,0:0:0:0:
454,323,160167,1,10,0:0:0:0:
44,134,160744,38,0,P|44:189|22:222,1,80,2|8,1:2|0:0,0:3:0:0:
105,340,161033,2,0,L|121:246,1,80,2|8,1:2|0:0,0:3:0:0:
233,168,161321,2,0,P|213:220|223:258,1,80,2|8,1:2|0:0,0:3:0:0:
335,380,161610,1,2,1:2:0:0:
307,248,161754,1,10,0:0:0:0:
244,335,161898,5,2,1:2:0:0:
400,301,162042,1,8,0:0:0:0:
244,324,162187,101,2,1:2:0:0:
400,290,162331,1,8,0:0:0:0:
216,243,162475,6,0,B|187:204|187:204|209:165|209:165|199:58,1,160,2|2,1:2|1:2,0:0:0:0:
202,99,162908,1,8,0:0:0:0:
366,180,163052,102,0,L|286:196,1,80,6|8,1:2|0:0,0:0:0:0:
294,73,163340,2,0,L|374:57,1,80,2|8,1:2|0:0,0:0:0:0:
428,124,163557,1,0,1:0:0:0:
428,124,163629,2,0,P|450:170|445:205,2,80,2|10|2,1:2|0:0|1:2,0:0:0:0:
287,196,164062,6,0,L|365:181,1,80,10|0,0:0|1:0,0:0:0:0:
464,286,164350,1,10,0:0:0:0:
464,286,164494,2,0,L|385:271,1,80,2|10,1:2|0:0,0:0:0:0:
291,354,164783,102,0,L|281:297,1,40,2|0,1:2|1:0,0:0:0:0:
183,280,164927,2,0,L|193:223,1,40,0|0,1:0|1:0,0:0:0:0:
87,354,165071,1,8,0:0:0:0:
77,355,165143,1,8,0:0:0:0:
67,356,165215,1,8,0:0:0:0:
57,357,165288,1,8,0:0:0:0:
47,358,165360,6,0,L|34:280,1,80,6|8,1:2|0:0,0:0:0:0:
160,160,165648,2,0,L|160:256,1,80,2|8,1:2|0:0,0:0:0:0:
273,358,165937,2,0,L|285:280,1,80,2|8,1:2|0:0,0:0:0:0:
240,188,166225,1,2,1:2:0:0:
385,233,166369,1,10,0:0:0:0:
285,279,166513,101,2,1:2:0:0:
339,141,166658,1,8,0:0:0:0:
300,273,166802,5,2,1:2:0:0:
354,135,166946,1,8,0:0:0:0:
183,280,167090,2,0,L|77:290,1,80,2|8,1:2|0:0,0:0:0:0:
14,178,167379,2,0,L|120:188,1,80,2|8,1:2|0:0,0:0:0:0:
15,359,167667,37,2,1:2:0:0:
512,191,168244,1,2,1:2:0:0:
15,25,168821,2,0,L|6:118,1,80,12|0,0:0|1:0,0:0:0:0:
176,208,169109,2,0,L|176:128,1,80,8|0,0:0|1:0,0:0:0:0:
337,25,169398,2,0,L|344:104,1,80,8|0,0:0|1:0,0:0:0:0:
433,174,169687,1,8,0:0:0:0:
452,173,169759,1,0,1:0:0:0:
472,171,169831,1,0,1:0:0:0:
492,169,169903,1,0,1:0:0:0:
512,167,169975,5,2,1:2:0:0:
256,352,170552,1,2,1:2:0:0:
0,167,171129,2,0,L|21:70,1,80,12|0,0:0|1:0,0:0:0:0:
136,30,171417,2,0,L|136:110,1,80,8|0,0:0|1:0,0:0:0:0:
272,167,171705,2,0,L|255:88,1,80,8|0,0:0|1:0,0:0:0:0:
341,21,171995,1,8,0:0:0:0:
360,22,172067,1,0,1:0:0:0:
380,24,172139,1,0,1:0:0:0:
400,26,172211,1,0,1:0:0:0:
420,28,172283,101,2,1:2:0:0:
256,352,172859,1,2,1:2:0:0:
92,28,173436,2,0,B|86:76|86:76|93:85|93:85|79:177,2,120,14|10|2,1:2|1:2|1:2,0:0:0:0:
131,219,174013,2,0,P|66:183|13:213,1,120,14|0,1:2|0:0,0:0:0:0:
18,215,174302,1,0,1:0:0:0:
23,238,174374,1,0,1:0:0:0:
28,261,174446,1,0,1:0:0:0:
