osu file format v14

[General]
AudioFilename: audio.mp3
AudioLeadIn: 0
PreviewTime: 101854
Countdown: 0
SampleSet: Soft
StackLeniency: 0.7
Mode: 0
LetterboxInBreaks: 0
WidescreenStoryboard: 1

[Editor]
DistanceSpacing: 1
BeatDivisor: 2
GridSize: 32
TimelineZoom: 2.600005

[Metadata]
Title:Kurukuru Tsukai
TitleUnicode:くるくる使い
Artist:BUTAOTOME
ArtistUnicode:豚乙女
Creator:Entry
Version:Normal
Source:東方Project
Tags:touhou th15.5 th08 reisen udongein inaba japanese pop j-pop rock swirl user daifugou daihinmin 大貧民 ranko ランコ 狂気の瞳 ~ invisible full moon lunatic eyes 永遠に続く回廊 東方憑依華 ~ antinomy of common flowers. 東方永夜抄 ~ imperishable night. corridor stretching to eternity zun video game xchorse elcheer skytuna
BeatmapID:2160224
BeatmapSetID:1032027

[Difficulty]
HPDrainRate:4
CircleSize:3.2
OverallDifficulty:4
ApproachRate:6
SliderMultiplier:0.999999999999999
SliderTickRate:1

[Events]
//Background and Video events
0,0,"65.jpg",0,0
//Break Periods
2,69618,77695
2,132963,141233
//Storyboard Layer 0 (Background)
//Storyboard Layer 1 (Fail)
//Storyboard Layer 2 (Pass)
//Storyboard Layer 3 (Foreground)
//Storyboard Layer 4 (Overlay)
//Storyboard Sound Samples

[TimingPoints]
360,288.461538461538,4,2,1,60,1,0
9590,-100,4,2,1,75,0,0
16513,-100,4,2,1,60,0,0
17667,-100,4,2,1,75,0,0
18821,-100,4,2,1,50,0,0
37283,-100,4,2,1,60,0,0
44206,-100,4,2,1,50,0,0
46513,-100,4,2,1,60,0,0
51129,-100,4,2,1,85,0,1
69013,-100,4,2,1,85,0,0
78821,-100,4,2,1,50,0,0
88052,-100,4,2,1,60,0,0
94975,-100,4,2,1,50,0,0
97283,-100,4,2,1,60,0,0
101898,-100,4,2,1,85,0,1
119783,-100,4,2,1,85,0,0
120359,-100,4,2,1,60,0,0
142283,-100,4,2,1,85,0,1
160167,-100,4,2,1,85,0,0
160744,-100,4,2,1,75,0,0
167667,-100,4,2,1,60,0,0
168821,-100,4,2,1,75,0,0
169975,-100,4,2,1,60,0,0
171129,-100,4,2,1,75,0,0
172283,-100,4,2,1,60,0,0
173436,-100,4,2,1,75,0,0

[Colours]
Combo1 : 196,0,5
Combo2 : 167,183,218
Combo3 : 233,178,158
Combo4 : 231,169,187
Combo5 : 214,103,136
Combo6 : 202,166,234
Combo7 : 158,92,218
Combo8 : 255,34,34

[HitObjects]
245,327,360,70,0,L|124:336,2,99.9999999999999,8|8|0,0:0|0:0|1:0,0:0:0:0:
295,324,1081,1,6,1:2:0:0:
327,229,1369,1,6,1:2:0:0:
327,229,1513,6,0,L|426:236,2,99.9999999999999,8|8|0,0:0|0:0|1:0,0:0:0:0:
276,224,2234,1,6,1:2:0:0:
234,133,2523,1,6,1:2:0:0:
234,133,2667,102,0,L|113:142,2,99.9999999999999,8|8|0,0:0|0:0|1:0,0:0:0:0:
283,127,3388,1,6,1:2:0:0:
380,102,3677,1,6,1:2:0:0:
380,102,3821,2,0,P|370:40|386:-8,1,99.9999999999999,14|10,0:0|0:0,0:0:0:0:
479,10,4398,2,0,P|489:58|478:107,1,99.9999999999999,10|10,0:0|0:0,0:0:0:0:
426,192,4975,6,0,P|449:247|484:285,2,99.9999999999999,8|8|0,0:0|0:0|1:0,0:0:0:0:
415,142,5696,1,6,1:2:0:0:
326,94,5984,1,6,1:2:0:0:
326,94,6129,102,0,P|354:46|404:14,2,99.9999999999999,8|8|0,0:0|0:0|1:0,0:0:0:0:
311,142,6850,1,6,1:2:0:0:
333,239,7138,1,6,1:2:0:0:
333,239,7283,6,0,P|276:255|217:252,2,99.9999999999999,8|8|0,0:0|0:0|1:0,0:0:0:0:
380,223,8004,2,0,P|418:259|443:316,1,99.9999999999999,6|6,1:2|1:2,0:0:0:0:
445,350,8436,1,2,1:2:0:0:
45,356,9590,70,0,L|152:354,1,99.9999999999999,2|2,1:2|1:2,0:0:0:0:
245,359,10167,2,0,P|236:304|249:243,1,99.9999999999999,2|2,1:2|1:2,0:0:0:0:
256,212,10600,1,10,0:0:0:0:
256,212,10744,2,0,P|262:162|253:113,1,99.9999999999999,2|2,1:2|1:2,0:0:0:0:
211,22,11321,1,2,1:2:0:0:
24,93,11898,6,0,L|42:198,1,99.9999999999999,6|2,1:2|1:2,0:0:0:0:
46,292,12475,2,0,B|95:270|95:270|144:270,1,99.9999999999999,2|2,1:2|1:2,0:0:0:0:
191,272,12908,2,0,P|239:250|272:193,1,99.9999999999999,10|10,0:0|0:0,0:0:0:0:
272,163,13340,2,0,B|317:163|317:163|367:142,1,99.9999999999999,2|2,1:2|1:2,0:0:0:0:
434,67,13917,1,8,0:0:0:0:
507,135,14206,102,0,L|490:249,1,99.9999999999999,6|2,1:2|1:2,0:0:0:0:
418,302,14783,2,0,P|363:308|306:340,1,99.9999999999999,2|2,1:2|1:2,0:0:0:0:
285,359,15215,1,10,0:0:0:0:
285,359,15359,2,0,P|226:344|178:345,1,99.9999999999999,2|2,1:2|1:2,0:0:0:0:
90,370,15936,1,2,1:2:0:0:
6,188,16513,5,2,1:2:0:0:
105,14,17090,1,2,1:2:0:0:
221,176,17667,2,0,L|342:169,1,99.9999999999999,12|8,0:0|0:0,0:0:0:0:
344,72,18244,2,0,L|223:79,1,99.9999999999999,8|8,0:0|0:0,0:0:0:0:
145,96,18821,70,0,P|108:47|62:26,2,99.9999999999999,6|8|2,0:0|0:0|0:0,0:0:0:0:
117,192,19686,1,8,0:0:0:0:
165,279,19975,2,0,P|205:329|253:350,1,99.9999999999999,0|8,1:0|0:0,0:0:0:0:
332,371,20552,2,0,L|356:265,1,99.9999999999999,2|8,0:0|0:0,0:0:0:0:
307,184,21129,6,0,L|331:78,1,99.9999999999999,0|8,1:0|0:0,0:0:0:0:
398,13,21706,2,0,P|461:17|506:44,1,99.9999999999999,2|8,0:0|0:0,0:0:0:0:
511,131,22283,2,0,P|467:152|408:154,1,99.9999999999999,2|8,1:2|0:0,0:0:0:0:
337,94,22859,1,2,0:0:0:0:
250,144,23148,1,8,0:0:0:0:
284,237,23436,102,0,P|301:304|291:355,1,99.9999999999999,2|8,1:2|0:0,0:0:0:0:
205,372,24013,2,0,L|84:367,1,99.9999999999999,2|8,0:0|0:0,0:0:0:0:
28,302,24590,2,0,L|38:191,2,99.9999999999999,2|8|0,1:2|0:0|0:0,0:0:0:0:
105,367,25456,1,8,0:0:0:0:
191,317,25744,6,0,L|201:206,1,99.9999999999999,2|8,1:2|0:0,0:0:0:0:
224,173,26177,2,0,P|240:119|227:63,1,99.9999999999999,0|0,0:0|0:0,0:0:0:0:
212,31,26609,1,8,0:0:0:0:
114,8,26898,2,0,L|14:14,1,99.9999999999999,2|8,1:2|0:0,0:0:0:0:
42,110,27475,1,2,0:0:0:0:
42,110,27619,2,0,L|91:107,2,50,8|0|0,0:0|1:0|1:0,0:0:0:0:
15,152,28052,102,0,P|10:206|29:261,1,99.9999999999999,6|8,0:0|0:0,0:0:0:0:
53,288,28484,1,0,0:0:0:0:
53,288,28629,2,0,L|156:283,1,99.9999999999999,2|8,0:0|0:0,0:0:0:0:
212,363,29206,2,0,L|323:371,1,99.9999999999999,0|8,1:0|0:0,0:0:0:0:
366,286,29783,2,0,L|469:281,1,99.9999999999999,2|8,0:0|0:0,0:0:0:0:
505,189,30359,6,0,P|501:123|474:74,1,99.9999999999999,0|8,1:0|0:0,0:0:0:0:
453,56,30792,1,0,0:0:0:0:
453,56,30936,2,0,P|400:75|348:74,1,99.9999999999999,2|8,0:0|0:0,0:0:0:0:
308,59,31369,1,0,0:0:0:0:
308,59,31513,2,0,P|250:36|194:43,1,99.9999999999999,2|8,1:2|0:0,0:0:0:0:
189,134,32090,2,0,P|247:157|303:150,1,99.9999999999999,2|8,0:0|0:0,0:0:0:0:
383,149,32667,102,0,L|368:256,1,99.9999999999999,2|8,1:2|0:0,0:0:0:0:
362,297,33100,1,0,0:0:0:0:
362,297,33244,2,0,P|284:300|244:318,1,99.9999999999999,2|8,0:0|0:0,0:0:0:0:
184,368,33821,2,0,L|71:360,2,99.9999999999999,2|8|0,1:2|0:0|0:0,0:0:0:0:
169,268,34686,1,8,0:0:0:0:
196,171,34975,6,0,P|212:138|272:97,1,99.9999999999999,2|8,1:2|0:0,0:0:0:0:
361,101,35552,2,0,P|402:128|426:171,1,99.9999999999999,2|8,0:0|0:0,0:0:0:0:
361,248,36129,2,0,B|313:236|313:236|264:247,1,99.9999999999999,2|8,1:2|0:0,0:0:0:0:
204,328,36706,2,0,B|155:339|155:339|107:327,1,99.9999999999999,0|0,1:0|1:0,0:0:0:0:
60,307,37138,1,0,1:0:0:0:
60,307,37283,6,0,L|76:199,1,99.9999999999999,14|0,0:0|1:0,0:0:0:0:
47,166,37715,2,0,L|63:58,1,99.9999999999999,10|0,0:0|1:0,0:0:0:0:
70,17,38148,1,10,0:0:0:0:
181,116,38581,2,0,L|173:165,2,50,10|0|0,0:0|1:0|1:0,0:0:0:0:
192,67,39013,2,0,P|233:63|300:87,1,99.9999999999999,10|0,0:0|1:0,0:0:0:0:
306,178,39590,6,0,P|281:218|274:275,1,99.9999999999999,14|0,0:0|1:0,0:0:0:0:
289,317,40023,2,0,P|340:304|399:318,1,99.9999999999999,10|0,0:0|1:0,0:0:0:0:
432,330,40456,1,10,0:0:0:0:
448,181,40888,2,0,L|500:189,2,50,10|0|0,0:0|1:0|1:0,0:0:0:0:
398,172,41321,2,0,L|415:61,1,99.9999999999999,10|0,0:0|1:0,0:0:0:0:
332,13,41898,102,0,P|319:55|279:99,1,99.9999999999999,14|0,0:0|1:0,0:0:0:0:
240,124,42331,2,0,L|286:222,1,99.9999999999999,10|0,0:0|1:0,0:0:0:0:
305,259,42763,1,10,0:0:0:0:
172,329,43196,2,0,L|159:385,2,50,10|0|0,0:0|1:0|1:0,0:0:0:0:
185,280,43629,2,0,P|131:276|80:251,1,99.9999999999999,10|0,0:0|1:0,0:0:0:0:
22,182,44206,86,0,B|70:141|70:141|124:137|174:165,1,150,6|0,0:0|1:0,0:0:0:0:
195,184,44783,1,8,0:0:0:0:
279,239,45071,2,0,B|339:242|339:242|366:228|366:228|425:230,1,150,2|0,0:0|0:0,0:0:0:0:
475,234,45648,1,2,0:0:0:0:
501,330,45936,2,0,L|397:326,1,99.9999999999999,8|2,0:0|1:2,0:0:0:0:
356,350,46369,1,0,1:0:0:0:
356,350,46513,22,0,L|285:354,1,50,14|2,0:0|1:2,0:0:0:0:
226,291,46946,2,0,L|117:296,1,99.9999999999999,2|0,1:2|1:0,0:0:0:0:
76,299,47379,1,8,0:0:0:0:
27,211,47667,6,0,P|28:178|39:149,1,50,14|2,0:0|1:2,0:0:0:0:
102,89,48100,2,0,P|124:142|168:182,1,99.9999999999999,2|0,1:2|1:0,0:0:0:0:
194,200,48533,1,8,0:0:0:0:
284,156,48821,101,10,0:0:0:0:
284,156,48965,2,0,L|389:162,2,99.9999999999999,2|2|2,1:2|1:2|1:2,0:0:0:0:
208,89,49831,1,6,1:2:0:0:
292,36,50119,2,0,L|441:44,1,150,8|4,0:0|1:2,0:0:0:0:
491,49,50696,1,0,1:0:0:0:
427,184,51129,22,0,L|490:188,2,50,6|0|8,1:2|1:0|0:0,0:0:0:0:
381,203,51561,2,0,P|327:209|266:193,1,99.9999999999999,2|0,1:2|1:0,0:0:0:0:
237,178,51994,1,10,0:0:0:0:
182,262,52283,2,0,L|166:378,1,99.9999999999999,2|10,1:2|0:0,0:0:0:0:
68,354,52859,2,0,L|81:254,1,99.9999999999999,2|10,0:0|0:0,0:0:0:0:
76,154,53436,6,0,L|22:147,2,50,6|0|8,1:2|1:0|0:0,0:0:0:0:
126,154,53869,2,0,P|134:90|161:46,1,99.9999999999999,2|0,1:2|1:0,0:0:0:0:
183,21,54302,1,10,0:0:0:0:
251,93,54590,2,0,P|277:145|275:199,1,99.9999999999999,2|10,1:2|0:0,0:0:0:0:
262,284,55167,2,0,B|311:295|311:295|359:286,1,99.9999999999999,2|10,0:0|0:0,0:0:0:0:
455,315,55744,102,0,L|444:379,2,50,6|0|8,1:2|1:0|0:0,0:0:0:0:
483,273,56177,2,0,P|500:229|493:169,1,99.9999999999999,2|0,1:2|1:0,0:0:0:0:
478,130,56609,1,10,0:0:0:0:
381,157,56898,2,0,L|266:149,1,99.9999999999999,2|8,1:2|0:0,0:0:0:0:
231,145,57331,2,0,P|228:93|247:36,1,99.9999999999999,2|0,1:2|1:0,0:0:0:0:
267,4,57763,1,10,0:0:0:0:
361,37,58052,22,0,B|432:67|432:67|495:29,1,150,14|10,0:0|0:0,0:0:0:0:
491,179,58917,2,0,B|428:141|428:141|357:171,1,150,14|10,0:0|0:0,0:0:0:0:
245,271,59783,2,0,L|251:159,1,99.9999999999999,14|8,0:0|0:0,0:0:0:0:
302,85,60359,86,0,L|356:62,2,50,6|0|8,1:2|1:0|0:0,0:0:0:0:
252,79,60792,2,0,P|214:42|154:17,1,99.9999999999999,2|0,1:2|1:0,0:0:0:0:
122,12,61225,1,10,0:0:0:0:
34,59,61513,2,0,L|43:173,1,99.9999999999999,2|10,1:2|0:0,0:0:0:0:
117,224,62090,2,0,L|126:338,1,99.9999999999999,2|10,0:0|0:0,0:0:0:0:
224,334,62667,6,0,L|220:284,2,50,6|0|8,1:2|1:0|0:0,0:0:0:0:
248,377,63100,2,0,L|362:371,1,99.9999999999999,2|0,1:2|1:0,0:0:0:0:
398,368,63533,1,10,0:0:0:0:
471,300,63821,2,0,P|453:233|427:196,1,99.9999999999999,2|10,1:2|0:0,0:0:0:0:
357,146,64398,2,0,P|328:90|327:36,1,99.9999999999999,2|10,0:0|0:0,0:0:0:0:
418,18,64975,102,0,P|447:68|454:129,1,99.9999999999999,6|8,1:2|0:0,0:0:0:0:
436,207,65552,2,0,P|402:252|393:314,1,99.9999999999999,2|8,0:0|0:0,0:0:0:0:
392,343,65984,1,2,1:2:0:0:
392,343,66129,2,0,B|344:361|344:361|294:353,1,99.9999999999999,2|8,1:2|0:0,0:0:0:0:
247,340,66561,1,2,1:2:0:0:
247,340,66706,2,0,P|261:286|252:224,1,99.9999999999999,2|10,0:0|0:0,0:0:0:0:
235,144,67283,22,0,L|303:126,2,50,14|0|0,0:0|1:0|1:0,0:0:0:0:
185,135,67715,1,10,0:0:0:0:
185,135,67859,2,0,L|77:168,1,99.9999999999999,0|0,1:0|1:0,0:0:0:0:
51,197,68292,2,0,P|59:262|45:318,2,99.9999999999999,10|10|10,0:0|0:0|0:0,0:0:0:0:
36,148,69013,1,10,0:0:0:0:
131,145,78821,22,0,L|115:31,2,99.9999999999999,6|8|2,0:0|0:0|0:0,0:0:0:0:
204,213,79686,1,8,0:0:0:0:
118,264,79975,2,0,P|67:256|5:270,1,99.9999999999999,0|8,1:0|0:0,0:0:0:0:
20,364,80552,2,0,P|71:372|133:358,1,99.9999999999999,2|8,0:0|0:0,0:0:0:0:
209,321,81129,6,0,L|315:331,1,99.9999999999999,0|8,1:0|0:0,0:0:0:0:
400,370,81706,2,0,P|443:346|479:295,1,99.9999999999999,2|8,0:0|0:0,0:0:0:0:
486,207,82283,2,0,P|455:167|412:143,1,99.9999999999999,2|8,1:2|0:0,0:0:0:0:
312,132,82859,1,2,0:0:0:0:
347,38,83148,1,8,0:0:0:0:
251,9,83436,102,0,P|193:0|142:6,1,99.9999999999999,2|8,1:2|0:0,0:0:0:0:
55,31,84013,2,0,L|67:135,1,99.9999999999999,2|8,0:0|0:0,0:0:0:0:
140,197,84590,2,0,L|128:301,2,99.9999999999999,2|8|0,1:2|0:0|0:0,0:0:0:0:
195,113,85456,1,8,0:0:0:0:
254,193,85744,6,0,P|294:238|345:256,1,99.9999999999999,2|8,1:2|0:0,0:0:0:0:
429,246,86321,2,0,P|456:204|464:155,1,99.9999999999999,2|8,0:0|0:0,0:0:0:0:
389,89,86898,2,0,P|339:83|292:99,1,99.9999999999999,2|8,1:2|0:0,0:0:0:0:
254,193,87475,2,0,P|243:245|213:286,1,99.9999999999999,0|0,1:0|1:0,0:0:0:0:
171,305,87908,1,0,1:0:0:0:
171,305,88052,6,0,P|112:291|52:296,1,99.9999999999999,14|0,0:0|1:0,0:0:0:0:
24,302,88484,2,0,L|30:190,1,99.9999999999999,10|0,0:0|1:0,0:0:0:0:
32,151,88917,1,10,0:0:0:0:
73,6,89350,2,0,L|10:2,2,50,10|0|0,0:0|1:0|1:0,0:0:0:0:
123,10,89783,2,0,P|116:65|129:111,1,99.9999999999999,10|0,0:0|1:0,0:0:0:0:
202,173,90359,6,0,L|322:174,1,99.9999999999999,14|0,0:0|1:0,0:0:0:0:
343,202,90792,2,0,L|463:203,1,99.9999999999999,10|0,0:0|1:0,0:0:0:0:
493,205,91225,1,10,0:0:0:0:
448,61,91658,2,0,L|497:61,2,50,10|0|0,0:0|1:0|1:0,0:0:0:0:
398,51,92090,2,0,P|363:31|287:26,1,99.9999999999999,10|0,0:0|1:0,0:0:0:0:
232,93,92667,102,0,B|143:108|143:108|86:88,2,150,14|8|8,0:0|0:0|0:0,0:0:0:0:
330,206,93965,2,0,L|380:237,2,50,8|8|8,0:0|0:0|0:0,0:0:0:0:
285,183,94398,2,0,P|239:186|182:206,1,99.9999999999999,8|8,0:0|0:0,0:0:0:0:
115,271,94975,86,0,B|89:246|55:227|55:227|30:254|10:288,1,150,6|0,0:0|1:0,0:0:0:0:
5,337,95552,1,8,0:0:0:0:
97,375,95840,2,0,B|134:373|170:362|170:362|206:373|246:371,1,150,2|0,0:0|0:0,0:0:0:0:
294,365,96417,1,2,0:0:0:0:
245,277,96706,2,0,L|254:162,1,99.9999999999999,8|2,0:0|1:2,0:0:0:0:
258,127,97138,1,0,1:0:0:0:
258,127,97283,22,0,L|321:129,1,50,14|2,0:0|1:2,0:0:0:0:
339,33,97715,2,0,L|219:29,1,99.9999999999999,2|0,1:2|1:0,0:0:0:0:
188,27,98148,1,8,0:0:0:0:
132,110,98436,6,0,L|137:170,1,50,14|2,0:0|1:2,0:0:0:0:
179,250,98869,2,0,P|178:292|144:363,1,99.9999999999999,2|0,1:2|1:0,0:0:0:0:
121,381,99302,1,8,0:0:0:0:
37,326,99590,101,10,0:0:0:0:
37,326,99734,2,0,P|41:273|66:218,2,99.9999999999999,2|2|2,1:2|1:2|1:2,0:0:0:0:
121,381,100600,1,6,1:2:0:0:
187,306,100888,2,0,L|347:320,1,150,8|4,0:0|1:2,0:0:0:0:
386,325,101465,1,0,1:0:0:0:
493,220,101898,22,0,L|499:290,2,50,6|0|8,1:2|1:0|0:0,0:0:0:0:
511,173,102331,2,0,L|502:69,1,99.9999999999999,2|0,1:2|1:0,0:0:0:0:
498,23,102763,1,10,0:0:0:0:
404,58,103052,2,0,P|357:73|297:73,1,99.9999999999999,2|10,1:2|0:0,0:0:0:0:
227,12,103629,2,0,P|169:11|110:26,1,99.9999999999999,2|10,0:0|0:0,0:0:0:0:
41,69,104206,6,0,L|20:16,2,50,6|0|8,1:2|1:0|0:0,0:0:0:0:
62,114,104638,2,0,P|32:152|28:220,1,99.9999999999999,2|0,1:2|1:0,0:0:0:0:
30,251,105071,1,10,0:0:0:0:
91,329,105359,2,0,L|199:332,1,99.9999999999999,2|10,1:2|0:0,0:0:0:0:
282,371,105936,2,0,L|390:374,1,99.9999999999999,2|10,0:0|0:0,0:0:0:0:
456,306,106513,102,0,L|505:307,2,50,6|0|8,1:2|1:0|0:0,0:0:0:0:
413,278,106946,2,0,P|368:268|301:276,1,99.9999999999999,2|0,1:2|1:0,0:0:0:0:
266,286,107379,1,10,0:0:0:0:
210,202,107667,2,0,L|219:96,1,99.9999999999999,2|8,1:2|0:0,0:0:0:0:
213,52,108100,2,0,P|166:62|101:52,1,99.9999999999999,2|0,1:2|1:0,0:0:0:0:
67,42,108533,1,10,0:0:0:0:
23,131,108821,22,0,B|59:193|59:193|34:267,1,150,14|10,0:0|0:0,0:0:0:0:
133,379,109686,2,0,B|157:304|157:304|223:277,1,150,14|10,0:0|0:0,0:0:0:0:
292,142,110552,2,0,L|172:152,1,99.9999999999999,14|8,0:0|0:0,0:0:0:0:
126,74,111129,86,0,L|57:68,2,50,6|0|8,1:2|1:0|0:0,0:0:0:0:
174,62,111561,2,0,L|273:53,1,99.9999999999999,2|0,1:2|1:0,0:0:0:0:
323,49,111994,1,10,0:0:0:0:
417,16,112283,2,0,P|420:67|454:128,1,99.9999999999999,2|10,1:2|0:0,0:0:0:0:
502,188,112859,2,0,P|499:239|465:300,1,99.9999999999999,2|10,0:0|0:0,0:0:0:0:
392,332,113436,6,0,L|412:394,2,50,6|0|8,1:2|1:0|0:0,0:0:0:0:
372,285,113869,2,0,B|326:308|326:308|273:304,1,99.9999999999999,2|0,1:2|1:0,0:0:0:0:
227,298,114302,1,10,0:0:0:0:
160,372,114590,2,0,L|47:365,1,99.9999999999999,2|10,1:2|0:0,0:0:0:0:
31,269,115167,2,0,P|83:264|134:272,1,99.9999999999999,2|10,0:0|0:0,0:0:0:0:
227,298,115744,102,0,L|247:178,1,99.9999999999999,6|8,1:2|0:0,0:0:0:0:
329,147,116321,2,0,P|343:95|334:41,1,99.9999999999999,2|8,0:0|0:0,0:0:0:0:
313,5,116754,1,2,1:2:0:0:
313,5,116898,2,0,B|214:8,1,99.9999999999999,2|8,1:2|0:0,0:0:0:0:
169,32,117331,1,2,1:2:0:0:
169,32,117475,2,0,P|163:81|177:129,1,99.9999999999999,2|10,0:0|0:0,0:0:0:0:
237,208,118052,22,0,L|299:202,2,50,14|0|0,0:0|1:0|1:0,0:0:0:0:
191,228,118484,1,10,0:0:0:0:
191,228,118629,2,0,P|152:255|95:261,1,99.9999999999999,0|0,1:0|1:0,0:0:0:0:
51,255,119061,2,0,B|46:189|46:189|26:159,2,99.9999999999999,10|10|10,0:0|0:0|0:0,0:0:0:0:
53,305,119783,1,10,0:0:0:0:
247,350,120359,86,0,L|368:359,2,99.9999999999999,8|8|0,0:0|0:0|1:0,0:0:0:0:
197,347,121080,1,6,1:2:0:0:
165,252,121368,1,6,1:2:0:0:
165,252,121513,6,0,L|66:259,2,99.9999999999999,8|8|0,0:0|0:0|1:0,0:0:0:0:
214,247,122233,1,6,1:2:0:0:
258,156,122522,1,6,1:2:0:0:
258,156,122667,102,0,L|379:165,2,99.9999999999999,8|8|0,0:0|0:0|1:0,0:0:0:0:
209,150,123387,1,6,1:2:0:0:
127,208,123677,1,6,1:2:0:0:
127,208,123821,2,0,L|26:182,1,99.9999999999999,14|10,0:0|0:0,0:0:0:0:
21,83,124398,2,0,L|117:107,1,99.9999999999999,10|10,0:0|0:0,0:0:0:0:
209,150,124975,6,0,P|228:74|255:40,2,99.9999999999999,8|8|0,0:0|0:0|1:0,0:0:0:0:
216,199,125696,1,6,1:2:0:0:
300,251,125984,1,6,1:2:0:0:
300,251,126129,102,0,L|270:358,2,99.9999999999999,8|8|0,0:0|0:0|1:0,0:0:0:0:
314,202,126850,1,6,1:2:0:0:
390,137,127138,1,6,1:2:0:0:
390,137,127283,6,0,P|435:156|503:158,2,99.9999999999999,8|8|0,0:0|0:0|1:0,0:0:0:0:
347,109,128004,2,0,P|305:98|239:98,1,99.9999999999999,6|6,1:2|1:2,0:0:0:0:
199,107,128436,1,2,1:2:0:0:
67,320,129158,6,0,L|45:212,1,99.9999999999999,2|2,1:2|1:2,0:0:0:0:
37,172,129590,1,2,1:2:0:0:
229,330,130311,6,0,P|278:351|338:360,1,99.9999999999999,2|2,1:2|1:2,0:0:0:0:
373,365,130744,1,2,1:2:0:0:
501,150,131465,102,0,L|485:257,1,99.9999999999999,2|2,1:2|1:2,0:0:0:0:
477,298,131898,2,0,P|433:279|363:274,1,99.9999999999999,14|10,1:2|1:2,0:0:0:0:
322,191,132475,2,0,P|376:162|409:123,1,99.9999999999999,10|10,1:2|1:2,0:0:0:0:
435,364,142283,86,0,L|364:363,2,50,6|0|8,1:2|1:0|0:0,0:0:0:0:
484,367,142715,2,0,P|475:312|485:255,1,99.9999999999999,2|0,1:2|1:0,0:0:0:0:
495,220,143148,1,10,0:0:0:0:
409,168,143436,2,0,L|294:176,1,99.9999999999999,2|10,1:2|0:0,0:0:0:0:
222,224,144013,2,0,L|107:232,1,99.9999999999999,2|10,0:0|0:0,0:0:0:0:
76,141,144590,6,0,L|82:75,2,50,6|0|8,1:2|1:0|0:0,0:0:0:0:
46,181,145023,2,0,P|13:221|4:284,1,99.9999999999999,2|0,1:2|1:0,0:0:0:0:
5,317,145456,1,10,0:0:0:0:
88,371,145744,2,0,P|143:362|210:373,1,99.9999999999999,2|10,1:2|0:0,0:0:0:0:
286,373,146321,2,0,B|278:325|278:325|290:274,1,99.9999999999999,2|10,0:0|0:0,0:0:0:0:
337,186,146898,102,0,L|406:192,2,50,6|0|8,1:2|1:0|0:0,0:0:0:0:
287,177,147331,2,0,P|244:147|238:74,1,99.9999999999999,2|0,1:2|1:0,0:0:0:0:
233,53,147763,1,10,0:0:0:0:
325,13,148052,6,0,L|433:17,1,99.9999999999999,2|8,1:2|0:0,0:0:0:0:
474,21,148484,2,0,P|457:75|466:137,1,99.9999999999999,2|0,1:2|1:0,0:0:0:0:
472,166,148917,1,10,0:0:0:0:
408,243,149206,6,0,B|469:287|469:287|406:329,1,150,14|10,0:0|0:0,0:0:0:0:
282,243,150071,2,0,B|221:287|221:287|284:329,1,150,14|10,0:0|0:0,0:0:0:0:
408,243,150936,2,0,L|401:135,1,99.9999999999999,14|8,0:0|0:0,0:0:0:0:
407,43,151513,86,0,L|470:20,2,50,6|0|8,1:2|1:0|0:0,0:0:0:0:
358,55,151946,2,0,P|300:25|243:23,1,99.9999999999999,2|0,1:2|1:0,0:0:0:0:
215,22,152379,1,10,0:0:0:0:
157,103,152667,2,0,P|144:150|150:215,1,99.9999999999999,2|10,1:2|0:0,0:0:0:0:
246,211,153244,2,0,P|259:164|253:99,1,99.9999999999999,2|10,0:0|0:0,0:0:0:0:
215,22,153821,6,0,L|150:19,2,50,6|0|8,1:2|1:0|0:0,0:0:0:0:
265,23,154254,2,0,P|317:45|347:99,1,99.9999999999999,2|0,1:2|1:0,0:0:0:0:
350,128,154686,1,10,0:0:0:0:
296,212,154975,2,0,P|296:265|318:339,1,99.9999999999999,2|10,1:2|0:0,0:0:0:0:
229,375,155552,2,0,P|177:366|108:371,1,99.9999999999999,2|10,0:0|0:0,0:0:0:0:
40,322,156129,102,0,P|50:273|50:223,1,99.9999999999999,6|8,1:2|0:0,0:0:0:0:
24,126,156706,2,0,L|135:121,1,99.9999999999999,2|8,0:0|0:0,0:0:0:0:
173,122,157138,1,2,1:2:0:0:
173,122,157283,2,0,P|238:134|278:171,1,99.9999999999999,2|8,1:2|0:0,0:0:0:0:
289,196,157715,1,2,1:2:0:0:
289,196,157859,2,0,P|327:248|392:264,1,99.9999999999999,2|10,0:0|0:0,0:0:0:0:
456,279,158436,22,0,L|462:349,2,50,14|0|0,0:0|1:0|1:0,0:0:0:0:
478,233,158869,1,10,0:0:0:0:
478,233,159013,2,0,L|469:133,1,99.9999999999999,0|0,1:0|1:0,0:0:0:0:
465,83,159446,2,0,P|416:106|333:103,2,99.9999999999999,10|10|10,0:0|0:0|0:0,0:0:0:0:
506,54,160167,1,10,0:0:0:0:
381,210,160744,54,0,L|397:329,1,99.9999999999999,2|2,1:2|1:2,0:0:0:0:
317,373,161321,2,0,P|291:330|239:289,1,99.9999999999999,2|2,1:2|1:2,0:0:0:0:
211,270,161754,1,10,0:0:0:0:
211,270,161898,2,0,P|165:293|103:297,1,99.9999999999999,2|2,1:2|1:2,0:0:0:0:
18,282,162475,1,2,1:2:0:0:
127,114,163052,6,0,L|141:-9,1,99.9999999999999,6|2,1:2|1:2,0:0:0:0:
238,22,163629,2,0,L|226:121,1,99.9999999999999,2|2,1:2|1:2,0:0:0:0:
222,171,164061,2,0,P|291:171|338:189,1,99.9999999999999,10|10,0:0|0:0,0:0:0:0:
362,207,164494,2,0,L|350:306,1,99.9999999999999,2|2,1:2|1:2,0:0:0:0:
416,381,165071,1,8,0:0:0:0:
498,324,165359,102,0,L|509:224,1,99.9999999999999,6|2,1:2|1:2,0:0:0:0:
499,124,165936,2,0,P|441:97|394:42,1,99.9999999999999,2|2,1:2|1:2,0:0:0:0:
371,47,166369,1,10,0:0:0:0:
371,47,166513,2,0,P|316:69|246:66,1,99.9999999999999,2|2,1:2|1:2,0:0:0:0:
191,16,167090,1,2,1:2:0:0:
250,206,167667,5,2,1:2:0:0:
67,123,168244,1,2,1:2:0:0:
40,321,168821,2,0,P|95:320|166:292,1,99.9999999999999,12|8,0:0|0:0,0:0:0:0:
227,262,169398,2,0,P|302:291|331:317,1,99.9999999999999,8|8,0:0|0:0,0:0:0:0:
376,383,169975,101,2,1:2:0:0:
491,219,170552,1,2,1:2:0:0:
415,33,171129,2,0,P|385:77|370:134,1,99.9999999999999,12|8,0:0|0:0,0:0:0:0:
352,219,171706,2,0,P|302:187|241:177,1,99.9999999999999,8|8,0:0|0:0,0:0:0:0:
162,182,172283,5,2,1:2:0:0:
72,360,172859,1,2,1:2:0:0:
28,164,173436,2,0,L|41:67,2,74.9999999999999,14|10|2,1:2|1:2|1:2,0:0:0:0:
21,213,174013,2,0,B|71:210|71:210|119:225,1,99.9999999999999,14|0,1:2|1:0,0:0:0:0:
