osu file format v14

[General]
AudioFilename: audio.mp3
AudioLeadIn: 0
PreviewTime: 211996
Countdown: 0
SampleSet: Soft
StackLeniency: 0.7
Mode: 0
LetterboxInBreaks: 0
WidescreenStoryboard: 0

[Editor]
Bookmarks: 39756,62344,86344,108932,109285,109461,109638,109814,109903,109991,110079,110167,110344,110432,110608,110697,110873,111050,111403,111755,112108,112461,112814,113167,113520,113873,114226,114579,114932,115285,115638,115991,116344,116520,116697,116785,116873,116961,117050,117138,117226,117403,117755,118108,118461,118814,119167,119520,119873,120226,131520,142814,166814,189403,213403,213755,214108,214461,214814,215167,215344,215520,215608,215785,215873,216050,216138,216226,216314,216403,216579,216667,216844,216932,217020,217197,217285,217461,217550,217638,217726,217814,217903,217991,218079,218167,218344,218432,218608,218697,218873,218961,219050,219403,219755,220108,220461,220814,221167,221520,221873,222226,222579,222932,223285,223550,223638,223726,223903,223991,224079,224167,224344,224520,224608,224697,224785,224873,224961,225050,225226,225314,225403,225491,225667,225755,226108,226461,226814,227167,227520,227873,228226,228579,228932,229285,229638,229991,230344,230697,231050,231138,231314,231403,231579,231667,231755,231844,232020,232108,232285,232461,232814,233167,258579,281167,298108
DistanceSpacing: 1.1
BeatDivisor: 4
GridSize: 32
TimelineZoom: 2.4

[Metadata]
Title:Koishi ni
TitleUnicode:恋死に
Artist:BUTAOTOME
ArtistUnicode:豚乙女
Creator:Gillstar
Version:Lunatic
Source:東方地霊殿 ~ Subterranean Animism.
Tags:touhou last remote koishi komeiji 古明地 こいし touhou ranko オリエンタル夢紀行 team shanghai alice 東方Project rock sa th11 comiket 80 c80 video game japanese
BeatmapID:2400672
BeatmapSetID:1150001

[Difficulty]
HPDrainRate:6
CircleSize:4
OverallDifficulty:8
ApproachRate:8.7
SliderMultiplier:1.4
SliderTickRate:1

[Events]
//Background and Video events
0,0,"aa9876a7-0254-430a-bee2-088adaa3db36.png",0,0
//Break Periods
2,109137,119586
2,213608,232527
//Storyboard Layer 0 (Background)
//Storyboard Layer 1 (Fail)
//Storyboard Layer 2 (Pass)
//Storyboard Layer 3 (Foreground)
//Storyboard Layer 4 (Overlay)
//Storyboard Sound Samples

[TimingPoints]
11167,352.941176470588,4,2,1,60,1,0
11519,352.941176470588,6,2,1,60,1,0
11695,-66.6666666666667,6,2,1,60,0,0
36930,346.820809248555,4,2,1,60,1,0
39761,352.941176470588,4,2,2,50,1,0
39761,-100,4,2,2,50,0,0
62349,-100,4,2,3,50,0,0
84937,-333.333333333333,4,2,1,30,0,0
86349,-58.8235294117647,4,2,2,70,0,0
107525,-50,4,2,2,70,0,0
108937,-66.6666666666667,4,2,2,70,0,0
120231,-66.6666666666667,4,2,2,40,0,0
130819,-66.6666666666667,4,2,2,50,0,0
131525,-90.9090909090909,4,2,2,50,0,0
141408,-66.6666666666667,4,2,2,50,0,0
142819,-100,4,2,3,50,0,0
165408,-100,4,2,1,30,0,0
166819,-58.8235294117647,4,2,2,70,0,0
187996,-50,4,2,2,70,0,0
189408,-142.857142857143,4,2,1,60,0,0
200172,-200,4,2,1,60,0,0
200702,-66.6666666666667,4,2,4,60,0,0
203525,-142.857142857143,4,2,4,60,0,0
205996,-200,4,2,4,60,0,0
206349,-66.6666666666667,4,2,4,60,0,0
209172,-58.8235294117647,4,2,4,60,0,0
213408,-58.8235294117647,4,2,5,40,0,0
233172,-58.8235294117647,4,2,1,40,0,0
233525,-58.8235294117647,4,2,1,30,0,0
234055,-58.8235294117647,4,2,1,40,0,0
234584,-58.8235294117647,4,2,1,50,0,0
234937,-58.8235294117647,4,2,1,60,0,0
235643,-100,4,2,1,30,0,0
235996,-58.8235294117647,4,2,2,70,0,0
258584,-52.6315789473684,4,2,1,70,0,0
279760,-47.6190476190476,4,2,1,70,0,0
281172,352.941176470588,6,2,1,60,1,0
281172,-66.6666666666667,6,2,1,60,0,0

[Colours]
Combo1 : 255,28,28
Combo2 : 0,221,55
Combo3 : 0,174,87
Combo4 : 255,255,98
Combo5 : 243,225,1
Combo6 : 47,187,255
Combo7 : 157,206,255
Combo8 : 255,81,81

[HitObjects]
160,352,11167,5,8,0:3:0:0:
160,352,11519,5,4,1:0:0:0:
85,371,11695,2,0,P|76:322|87:242,1,105.000004005432,2|8,1:2|1:3,0:0:0:0:
176,200,12048,1,10,0:0:0:0:
45,138,12224,1,10,0:2:0:0:
45,138,12313,1,8,0:3:0:0:
45,138,12401,1,4,0:3:0:0:
183,86,12577,102,0,P|228:76|299:74,1,105.000004005432,2|10,1:2|0:0,0:0:0:0:
432,55,12930,1,8,0:0:0:0:
353,127,13107,1,2,1:2:0:0:
441,47,13283,2,0,P|448:98|456:150,1,105.000004005432,10|2,0:0|1:2,0:0:0:0:
313,272,13636,6,0,P|405:244|434:239,1,105.000004005432,4|2,1:2|1:2,0:0:0:0:
413,242,13901,1,0,1:0:0:0:
413,242,13989,2,0,P|408:300|407:354,1,105.000004005432,8|2,0:0|1:2,0:0:0:0:
219,319,14342,2,0,P|205:267|217:209,1,105.000004005432,10|0,0:0|1:0,0:0:0:0:
250,45,14695,101,8,1:3:0:0:
303,128,14871,1,2,1:2:0:0:
161,101,15048,2,0,L|54:131,1,105.000004005432,8|2,0:0|1:2,0:0:0:0:
20,310,15401,2,0,L|127:340,1,105.000004005432,10|0,0:0|1:0,0:0:0:0:
227,360,15754,6,0,P|226:282|137:240,1,157.500006008148,4|0,1:0|0:0,0:0:0:0:
154,237,16107,2,0,P|210:225|263:198,1,105.000004005432,8|10,1:3|0:0,0:0:0:0:
356,58,16460,2,0,P|300:70|247:97,1,105.000004005432,2|8,1:2|0:3,0:0:0:0:
315,277,16813,101,2,1:2:0:0:
408,151,16989,1,8,0:0:0:0:
247,95,17166,1,10,0:0:0:0:
160,218,17342,1,0,1:0:0:0:
322,281,17518,2,0,P|395:288|444:294,1,105.000004005432,10|0,0:0|1:0,0:0:0:0:
256,377,17871,6,0,P|232:279|263:159,1,210.000008010865,4|8,1:2|0:0,0:0:0:0:
463,37,18401,1,2,1:2:0:0:
463,37,18489,1,0,1:0:0:0:
463,37,18577,2,0,P|457:98|453:147,1,105.000004005432,10|0,0:0|1:0,0:0:0:0:
258,78,18930,2,0,P|302:51|382:57,1,105.000004005432,8|0,1:3|1:0,0:0:0:0:
281,266,19283,2,0,P|229:262|184:235,1,105.000004005432,8|2,0:0|1:2,0:0:0:0:
71,84,19636,101,10,0:0:0:0:
61,70,19724,1,8,0:0:0:0:
51,55,19813,1,8,0:0:0:0:
42,44,19901,1,8,0:0:0:0:
35,35,19989,6,0,P|25:88|42:165,1,105.000004005432,4|2,1:0|1:2,0:0:0:0:
149,271,20342,2,0,P|155:322|145:374,1,105.000004005432,8|10,1:3|0:0,0:0:0:0:
53,297,20695,2,0,P|66:209|175:189,1,210.000008010865,10|2,0:0|1:2,0:0:0:0:
171,187,21136,1,0,1:0:0:0:
171,187,21224,1,10,0:0:0:0:
267,275,21401,1,8,0:0:0:0:
249,88,21577,1,2,1:2:0:0:
260,284,21754,1,10,0:0:0:0:
336,163,21930,1,0,1:0:0:0:
163,107,22107,102,0,P|150:47|164:-1,1,105.000004005432,4|2,1:2|1:2,0:0:0:0:
339,54,22460,2,0,P|349:104|336:155,1,105.000004005432,8|2,0:0|1:2,0:0:0:0:
160,286,22813,2,0,P|231:254|334:281,1,157.500006008148,10|0,0:0|0:0,0:0:0:0:
315,274,23166,2,0,L|430:248,1,105.000004005432,8|2,1:3|1:2,0:0:0:0:
480,152,23518,5,10,0:0:0:0:
342,90,23695,1,2,1:2:0:0:
461,26,23871,1,10,0:0:0:0:
461,26,23960,1,8,0:0:0:0:
461,26,24048,1,10,0:0:0:0:
336,97,24224,101,4,1:0:0:0:
204,19,24401,2,0,P|199:71|204:127,1,105.000004005432,2|8,1:2|1:3,0:0:0:0:
226,318,24754,1,10,0:0:0:0:
47,344,24930,2,0,P|44:285|52:229,1,105.000004005432,10|8,0:0|1:3,0:0:0:0:
133,197,25283,5,2,1:2:0:0:
133,197,25371,1,0,1:0:0:0:
133,197,25460,1,10,0:0:0:0:
41,144,25636,1,8,0:0:0:0:
140,288,25813,1,2,1:2:0:0:
187,117,25989,1,10,0:0:0:0:
42,238,26166,1,0,1:0:0:0:
233,215,26342,102,0,L|357:190,1,105.000004005432,4|2,1:2|1:2,0:0:0:0:
434,107,26695,2,0,P|387:86|309:91,1,105.000004005432,8|2,0:0|1:2,0:0:0:0:
345,319,27048,2,0,P|397:317|444:296,1,105.000004005432,10|0,0:0|1:0,0:0:0:0:
485,190,27401,5,8,1:3:0:0:
412,21,27577,1,2,1:2:0:0:
304,195,27754,101,10,0:0:0:0:
339,93,27930,1,2,1:2:0:0:
214,38,28107,5,8,0:0:0:0:
217,55,28195,1,8,0:0:0:0:
220,71,28283,1,8,0:0:0:0:
222,85,28371,1,8,0:0:0:0:
225,100,28460,102,0,P|159:118|103:140,1,105.000004005432,4|0,3:1|1:0,0:0:0:0:
18,127,28813,1,2,3:0:0:0:
93,32,28989,1,0,1:0:0:0:
167,249,29166,1,2,3:0:0:0:
47,231,29342,1,0,1:0:0:0:
207,52,29518,6,0,P|224:100|244:159,1,105.000004005432,2|0,3:0|1:0,0:0:0:0:
280,361,29871,2,0,P|296:311|314:261,1,105.000004005432,2|0,3:0|1:0,0:0:0:0:
483,214,30224,2,0,P|416:210|336:137,1,157.500006008148,2|0,3:0|0:0,0:0:0:0:
342,145,30577,101,4,3:1:0:0:
466,78,30754,1,0,1:0:0:0:
281,22,30930,1,2,3:0:0:0:
246,193,31107,1,0,1:0:0:0:
359,66,31283,1,2,3:0:0:0:
195,116,31460,1,0,1:0:0:0:
186,23,31636,5,2,3:0:0:0:
331,146,31813,1,0,1:0:0:0:
140,217,31989,2,0,P|195:208|256:204,1,105.000004005432,2|0,3:0|1:0,0:0:0:0:
468,329,32342,2,0,P|415:333|363:341,1,105.000004005432,2|0,3:0|1:0,0:0:0:0:
273,370,32695,102,0,P|275:290|345:245,1,157.500006008148,4|0,3:1|0:0,0:0:0:0:
344,248,33048,2,0,P|370:202|357:143,1,105.000004005432,2|0,3:0|1:0,0:0:0:0:
204,8,33401,2,0,P|196:59|222:103,1,105.000004005432,2|0,3:0|1:0,0:0:0:0:
317,80,33754,5,2,3:0:0:0:
461,65,33930,1,0,1:0:0:0:
474,202,34107,1,2,3:0:0:0:
454,51,34283,1,0,1:0:0:0:
339,186,34460,1,2,3:0:0:0:
457,301,34636,1,0,1:0:0:0:
333,72,34813,102,0,L|195:107,1,105.000004005432,4|0,3:1|1:0,0:0:0:0:
89,241,35166,2,0,P|142:248|199:208,1,105.000004005432,2|0,3:0|1:0,0:0:0:0:
145,21,35518,2,0,P|92:14|35:54,1,105.000004005432,2|0,3:0|1:0,0:0:0:0:
118,150,35871,5,2,3:0:0:0:
269,27,36048,1,0,1:0:0:0:
322,188,36224,101,2,3:0:0:0:
224,122,36401,1,0,1:0:0:0:
320,195,36577,1,2,3:0:0:0:
200,295,36754,1,0,1:0:0:0:
357,365,36930,5,4,1:0:0:0:
469,246,37103,1,10,0:0:0:0:
469,246,37190,1,10,0:0:0:0:
469,246,37276,1,10,0:0:0:0:
312,102,37450,101,10,0:0:0:0:
312,102,37797,1,8,1:3:0:0:
312,102,38143,1,2,1:3:0:0:
382,47,38490,5,2,1:2:0:0:
224,140,38837,1,10,0:0:0:0:
365,174,39184,101,8,1:3:0:0:
250,28,39357,1,2,1:3:0:0:
245,32,39761,54,0,P|202:41|165:50,1,70,4|0,1:2|0:0,0:0:0:0:
97,41,40113,2,0,P|89:88|85:195,1,140,8|2,0:0|0:0,0:0:0:0:
84,180,40555,1,0,1:0:0:0:
84,180,40643,1,2,0:3:0:0:
144,250,40819,2,0,P|186:235|230:223,1,70,8|0,0:0|0:0,0:0:0:0:
35,328,41172,5,2,1:2:0:0:
3,225,41349,1,0,1:0:0:0:
26,318,41525,2,0,L|129:332,1,70,8|2,0:0|1:3,0:0:0:0:
194,359,41878,1,2,0:0:0:0:
194,359,41966,1,0,1:0:0:0:
194,359,42055,1,0,1:0:0:0:
287,259,42231,102,0,L|305:347,1,70,10|2,0:0|1:2,0:0:0:0:
402,362,42584,2,0,L|424:210,1,140,2|8,1:2|0:0,0:0:0:0:
363,149,43113,1,0,1:0:0:0:
458,108,43290,1,2,0:0:0:0:
458,108,43378,1,0,1:0:0:0:
458,108,43466,1,2,1:3:0:0:
366,0,43643,2,0,P|359:38|375:88,1,70,8|2,0:0|0:0,0:0:0:0:
500,181,43996,6,0,P|443:146|361:152,1,140,2|8,1:2|0:0,0:0:0:0:
249,247,44525,2,0,P|214:242|181:230,1,70,2|2,1:3|0:0,0:0:0:0:
181,230,44790,1,0,1:0:0:0:
181,230,44878,1,0,1:0:0:0:
72,145,45055,1,10,0:0:0:0:
131,29,45231,1,10,0:0:0:0:
266,22,45408,102,0,P|252:92|237:179,1,140,2|8,1:2|0:0,0:0:0:0:
40,261,45937,2,0,P|86:271|180:233,1,140,2|2,1:2|1:3,0:0:0:0:
355,289,46466,2,0,P|305:283|265:230,1,105,10|0,0:0|0:0,0:0:0:0:
268,238,46819,6,0,L|363:207,1,70,2|0,1:2|1:0,0:0:0:0:
151,159,47172,2,0,L|56:128,1,70,10|2,0:0|1:3,0:0:0:0:
270,66,47525,1,2,0:0:0:0:
270,66,47613,1,0,1:0:0:0:
270,66,47702,1,0,1:0:0:0:
433,25,47878,2,0,P|439:76|445:146,1,105,10|0,0:0|0:0,0:0:0:0:
444,147,48231,102,0,P|418:179|313:181,1,140,2|8,1:2|0:0,0:0:0:0:
201,264,48760,2,0,P|251:268|291:275,1,70,0|2,1:0|0:0,0:0:0:0:
270,271,49025,1,0,1:0:0:0:
270,271,49113,1,2,1:3:0:0:
439,343,49290,2,0,P|389:347|349:354,1,70,8|0,0:0|0:0,0:0:0:0:
373,264,49643,5,0,1:0:0:0:
373,264,49819,1,0,1:0:0:0:
266,362,49996,1,8,0:0:0:0:
117,310,50172,1,0,1:0:0:0:
0,199,50349,101,8,0:0:0:0:
149,147,50525,1,0,1:0:0:0:
149,147,50613,1,0,1:0:0:0:
149,147,50702,1,10,0:0:0:0:
256,245,50878,1,10,0:0:0:0:
108,314,51055,6,0,P|59:321|24:326,1,70,4|0,1:2|1:0,0:0:0:0:
0,206,51408,2,0,P|49:213|84:218,1,70,8|0,0:0|0:0,0:0:0:0:
179,375,51760,2,0,P|194:322|150:239,1,140,2|8,1:2|0:0,0:0:0:0:
24,97,52290,101,2,0:0:0:0:
24,97,52378,1,0,1:0:0:0:
24,97,52466,2,0,P|100:80|175:74,1,140,2|8,1:2|0:0,0:0:0:0:
233,155,52996,2,0,P|270:132|318:114,1,70,2|2,1:3|0:0,0:0:0:0:
294,121,53260,1,0,1:0:0:0:
294,121,53349,2,0,P|337:164|433:157,1,140,2|2,1:2|1:2,0:0:0:0:
500,32,53878,6,0,P|431:32|381:78,1,140,0|8,1:0|0:0,0:0:0:0:
493,218,54408,2,0,P|500:183|495:136,1,70,2|2,1:2|0:0,0:0:0:0:
497,148,54672,1,0,1:0:0:0:
497,148,54760,1,2,1:3:0:0:
372,253,54937,1,10,0:0:0:0:
499,314,55113,1,2,1:2:0:0:
400,158,55290,102,0,L|307:181,1,70,2|0,1:2|1:0,0:0:0:0:
126,279,55643,2,0,L|219:302,1,70,10|0,0:0|1:3,0:0:0:0:
332,356,55996,1,2,1:2:0:0:
324,351,56349,5,10,0:0:0:0:
221,223,56525,1,10,0:0:0:0:
59,346,56702,1,2,1:2:0:0:
59,346,56878,1,0,1:2:0:0:
94,167,57055,2,0,L|109:255,1,70,10|2,0:0|0:0,0:0:0:0:
137,375,57408,2,0,P|174:327|267:318,1,140,2|8,1:2|0:0,0:0:0:0:
471,217,57937,102,0,P|434:169|341:160,1,140,2|2,1:2|1:2,0:0:0:0:
297,226,58466,2,0,P|330:247|383:252,1,70,10|2,0:0|1:3,0:0:0:0:
359,253,58731,1,0,1:0:0:0:
359,253,58819,2,0,L|375:346,1,70,2|0,1:2|1:0,0:0:0:0:
212,250,59172,2,0,P|205:210|224:160,1,70,10|2,0:0|1:2,0:0:0:0:
278,11,59525,2,0,P|294:69|287:158,1,140,2|8,1:2|0:0,0:0:0:0:
134,101,60055,6,0,P|171:93|219:88,1,70,0|2,1:0|0:0,0:0:0:0:
202,89,60319,1,0,1:0:0:0:
202,89,60408,1,2,1:3:0:0:
310,222,60584,2,0,P|344:226|378:233,1,70,8|0,0:0|0:0,0:0:0:0:
479,360,60937,101,2,1:2:0:0:
497,230,61113,1,2,1:2:0:0:
497,230,61202,1,2,1:2:0:0:
497,230,61290,1,10,0:0:0:0:
341,313,61466,1,2,1:2:0:0:
306,147,61643,5,8,0:0:0:0:
399,234,61819,1,2,1:2:0:0:
262,356,61996,1,10,0:0:0:0:
255,338,62084,1,8,0:3:0:0:
250,313,62172,1,4,0:3:0:0:
251,293,62260,1,4,0:3:0:0:
258,277,62349,70,0,P|186:291|108:247,1,140,4|8,1:0|0:0,0:0:0:0:
70,175,62878,1,8,0:3:0:0:
139,90,63055,2,0,P|177:80|216:83,1,70,0|8,1:0|0:0,0:0:0:0:
249,188,63408,2,0,L|168:178,1,70,2|0,1:3|1:0,0:0:0:0:
24,112,63760,6,0,L|47:277,1,140,2|2,1:2|1:3,0:0:0:0:
129,348,64290,2,0,L|42:366,1,70,8|2,0:3|1:2,0:0:0:0:
195,270,64643,1,8,0:0:0:0:
272,340,64819,2,0,P|326:353|376:309,1,105,2|0,1:3|0:0,0:0:0:0:
374,321,65172,102,0,P|378:271|381:239,1,70,2|0,1:2|0:0,0:0:0:0:
319,45,65525,2,0,P|298:99|307:145,1,105,10|0,0:0|0:0,0:0:0:0:
314,157,65878,2,0,P|356:145|399:140,1,70,2|8,1:3|0:0,0:0:0:0:
477,173,66231,1,2,1:3:0:0:
492,279,66408,1,0,1:0:0:0:
475,164,66584,6,0,P|471:122|466:83,1,70,2|10,1:2|0:0,0:0:0:0:
389,22,66937,1,2,1:3:0:0:
282,81,67113,2,0,P|217:88|134:102,1,140,2|8,1:2|0:0,0:0:0:0:
23,95,67643,1,2,1:3:0:0:
103,176,67819,1,2,1:2:0:0:
7,224,67996,102,0,P|72:231|155:245,1,140,4|8,1:0|0:0,0:0:0:0:
154,354,68525,2,0,P|201:331|242:318,1,70,0|2,1:0|0:0,0:0:0:0:
331,291,68878,1,8,0:0:0:0:
226,170,69055,2,0,P|242:207|254:244,1,70,2|0,1:3|1:0,0:0:0:0:
304,372,69408,6,0,P|372:367|415:281,1,140,2|2,1:2|1:3,0:0:0:0:
371,125,69937,2,0,P|364:169|370:213,1,70,8|2,0:3|1:2,0:0:0:0:
478,246,70290,1,8,0:0:0:0:
492,128,70466,2,0,P|493:93|486:58,1,70,2|8,1:3|0:3,0:0:0:0:
311,25,70819,102,0,P|247:34|157:73,1,140,2|8,1:3|0:0,0:0:0:0:
20,138,71349,1,8,0:3:0:0:
20,138,71702,5,8,0:0:0:0:
107,13,71878,1,2,1:3:0:0:
179,175,72055,1,0,1:0:0:0:
111,119,72231,101,2,1:2:0:0:
111,119,72408,1,10,0:0:0:0:
62,244,72584,5,2,1:3:0:0:
192,288,72760,1,10,0:0:0:0:
311,134,72937,101,0,1:0:0:0:
188,188,73113,1,8,0:0:0:0:
188,188,73202,1,8,0:0:0:0:
188,188,73290,1,10,0:0:0:0:
321,241,73466,1,2,1:2:0:0:
129,371,73643,6,0,P|111:310|133:226,1,140,4|8,1:0|0:0,0:0:0:0:
192,31,74172,2,0,P|204:81|205:129,1,70,8|2,0:3|1:2,0:0:0:0:
202,185,74525,1,8,0:0:0:0:
118,101,74702,1,2,1:3:0:0:
118,101,74878,1,8,0:3:0:0:
285,70,75055,102,0,P|336:60|442:49,1,140,0|2,1:2|1:3,0:0:0:0:
493,127,75584,1,8,0:3:0:0:
385,195,75760,2,0,P|419:202|461:215,1,70,2|8,1:2|0:0,0:0:0:0:
497,339,76113,2,0,P|430:317|370:303,1,105,2|0,1:3|0:0,0:0:0:0:
386,307,76466,6,0,P|334:340|237:333,1,140,2|8,1:2|0:0,0:0:0:0:
137,282,76996,1,8,0:3:0:0:
223,162,77172,2,0,P|227:197|235:253,1,70,2|8,1:2|0:0,0:0:0:0:
128,361,77525,2,0,P|132:326|137:291,1,70,2|0,1:3|1:0,0:0:0:0:
29,256,77878,102,0,P|98:261|136:188,1,140,2|8,1:2|0:0,0:0:0:0:
65,32,78408,2,0,P|56:72|55:112,1,70,0|2,1:0|0:0,0:0:0:0:
54,100,78672,1,0,1:0:0:0:
54,100,78760,1,0,1:0:0:0:
211,82,78937,1,8,0:0:0:0:
221,85,79025,1,8,0:0:0:0:
234,89,79113,1,8,0:3:0:0:
244,93,79202,1,4,0:3:0:0:
253,98,79290,6,0,P|313:81|403:70,1,140,4|10,1:0|0:0,0:0:0:0:
479,157,79819,1,2,1:2:0:0:
354,205,79996,1,2,0:0:0:0:
354,205,80084,1,0,1:0:0:0:
354,205,80172,1,2,1:2:0:0:
483,141,80349,1,8,0:0:0:0:
505,306,80525,102,0,P|465:299|423:292,1,70,2|0,1:2|1:0,0:0:0:0:
219,357,80878,2,0,P|259:350|301:343,1,70,2|8,1:2|0:0,0:0:0:0:
383,354,81231,1,0,1:2:0:0:
200,268,81408,2,0,P|151:286|125:355,1,105,2|0,1:2|0:0,0:0:0:0:
118,344,81760,2,0,P|103:291|93:255,1,70,10|0,0:0|1:0,0:0:0:0:
291,269,82113,6,0,P|301:206|314:116,1,140,4|8,1:0|0:0,0:0:0:0:
216,19,82643,1,2,1:2:0:0:
80,195,82819,2,0,P|69:125|59:56,1,140,2|8,1:2|0:0,0:0:0:0:
59,56,83260,1,8,0:0:0:0:
59,56,83349,1,0,1:0:0:0:
194,161,83525,101,2,1:2:0:0:
194,161,83790,1,2,1:2:0:0:
330,35,84055,5,2,1:2:0:0:
467,150,84231,1,2,1:2:0:0:
388,321,84937,22,0,P|428:327|469:341,1,83.9999974365235,2|2,0:0|0:0,0:0:0:0:
482,348,86349,38,0,P|423:333|351:325,1,119.000002269745,4|8,3:1|0:0,0:0:0:0:
207,363,86702,2,0,P|207:300|269:253,1,119.000002269745,0|8,3:0|0:0,0:0:0:0:
428,147,87055,2,0,P|369:154|311:169,1,119.000002269745,2|8,3:2|0:0,0:0:0:0:
311,169,87319,1,10,0:0:0:0:
311,169,87408,1,0,3:0:0:0:
337,16,87584,1,10,0:0:0:0:
512,124,87760,6,0,P|510:178|432:225,1,119.000002269745,2|8,3:2|0:0,0:0:0:0:
215,194,88113,2,0,P|218:136|261:97,1,119.000002269745,2|8,3:2|0:0,0:0:0:0:
362,334,88466,2,0,P|299:319|237:312,1,119.000002269745,2|8,3:2|0:0,0:0:0:0:
48,318,88819,1,0,3:0:0:0:
48,318,88908,1,0,3:0:0:0:
48,318,88996,1,8,0:0:0:0:
23,63,89172,102,0,P|37:120|47:204,1,119.000002269745,2|8,3:2|0:0,0:0:0:0:
131,382,89525,2,0,P|139:323|153:265,1,119.000002269745,0|8,3:0|0:0,0:0:0:0:
215,159,89878,2,0,P|289:131|360:125,1,119.000002269745,2|8,3:2|0:0,0:0:0:0:
328,125,90143,1,10,0:0:0:0:
328,125,90231,1,0,3:0:0:0:
405,269,90408,1,10,0:0:0:0:
462,63,90584,6,0,P|388:35|317:29,1,119.000002269745,2|8,3:2|0:0,0:0:0:0:
409,274,90937,2,0,P|470:223|510:165,1,119.000002269745,2|8,3:2|0:0,0:0:0:0:
247,121,91290,2,0,P|259:199|290:263,1,119.000002269745,2|8,3:2|0:0,0:0:0:0:
338,357,91643,1,10,0:0:0:0:
299,337,91731,1,8,0:0:0:0:
253,332,91819,1,8,0:0:0:0:
212,337,91908,1,8,0:0:0:0:
167,353,91996,102,0,L|45:327,1,119.000002269745,4|8,3:2|0:0,0:0:0:0:
162,182,92349,1,0,3:0:0:0:
41,62,92525,2,0,P|19:128|42:198,1,119.000002269745,10|0,0:0|3:0,0:0:0:0:
92,252,92878,1,10,0:0:0:0:
263,189,93055,1,2,3:2:0:0:
263,189,93143,1,0,3:0:0:0:
263,189,93231,1,10,0:0:0:0:
130,91,93408,5,2,3:2:0:0:
294,21,93584,2,0,P|368:30|418:56,1,119.000002269745,10|0,0:0|3:0,0:0:0:0:
420,281,93937,2,0,P|365:304|306:308,1,119.000002269745,10|0,0:0|3:0,0:0:0:0:
356,162,94290,2,0,L|493:151,1,119.000002269745,10|0,0:0|3:0,0:0:0:0:
474,152,94555,1,0,3:0:0:0:
474,152,94643,1,10,0:0:0:0:
274,90,94819,102,0,P|255:150|274:221,1,119.000002269745,2|8,3:2|0:0,0:0:0:0:
415,373,95172,2,0,P|424:314|405:259,1,119.000002269745,0|8,3:0|0:0,0:0:0:0:
148,252,95525,2,0,P|129:307|138:365,1,119.000002269745,0|8,3:0|0:0,0:0:0:0:
265,203,95878,1,0,3:0:0:0:
269,304,96055,5,10,0:0:0:0:
161,128,96231,1,0,3:0:0:0:
379,133,96408,1,10,0:0:0:0:
162,240,96584,1,2,3:2:0:0:
271,77,96760,1,10,0:0:0:0:
374,248,96937,1,2,3:2:0:0:
374,248,97290,101,10,0:0:0:0:
374,248,97378,1,8,0:0:0:0:
374,248,97466,1,10,0:0:0:0:
154,120,97643,6,0,L|28:98,1,119.000002269745,4|8,3:1|0:0,0:0:0:0:
231,22,97996,2,0,P|267:73|259:141,1,119.000002269745,0|8,3:0|0:0,0:0:0:0:
82,319,98349,2,0,P|47:272|47:213,1,119.000002269745,2|8,3:2|0:0,0:0:0:0:
47,213,98613,1,10,0:0:0:0:
47,213,98702,1,0,3:0:0:0:
237,244,98878,1,10,0:0:0:0:
337,359,99055,102,0,P|404:364|462:301,1,119.000002269745,2|8,3:2|0:0,0:0:0:0:
396,95,99408,2,0,P|328:89|270:152,1,119.000002269745,2|8,3:2|0:0,0:0:0:0:
389,220,99760,2,0,L|517:194,1,119.000002269745,2|8,3:2|0:0,0:0:0:0:
277,248,100113,1,0,3:0:0:0:
277,248,100202,1,0,3:0:0:0:
277,248,100290,1,8,0:0:0:0:
210,24,100466,6,0,P|197:77|181:153,1,119.000002269745,2|8,3:2|0:0,0:0:0:0:
62,359,100819,2,0,P|49:300|35:243,1,119.000002269745,0|8,3:0|0:0,0:0:0:0:
204,301,101172,2,0,P|263:336|327:319,1,119.000002269745,2|8,3:2|0:0,0:0:0:0:
310,329,101437,1,10,0:0:0:0:
310,329,101525,1,0,3:0:0:0:
275,152,101702,1,10,0:0:0:0:
110,81,101878,102,0,P|51:76|3:109,1,119.000002269745,2|8,3:2|0:0,0:0:0:0:
106,278,102231,2,0,P|141:225|201:203,1,119.000002269745,2|8,3:2|0:0,0:0:0:0:
348,255,102584,2,0,P|322:307|330:366,1,119.000002269745,2|8,3:2|0:0,0:0:0:0:
473,219,102937,1,10,0:0:0:0:
493,185,103025,1,8,0:0:0:0:
500,146,103113,1,8,0:0:0:0:
491,108,103202,1,8,0:0:0:0:
472,77,103290,6,0,P|419:64|341:55,1,119.000002269745,4|8,3:2|0:0,0:0:0:0:
276,205,103643,1,0,3:0:0:0:
106,121,103819,2,0,L|138:7,1,119.000002269745,10|0,0:0|3:0,0:0:0:0:
170,194,104172,1,8,0:0:0:0:
170,194,104260,1,8,0:0:0:0:
170,194,104349,1,2,3:2:0:0:
220,56,104525,1,10,0:0:0:0:
30,75,104702,102,0,P|12:144|56:216,1,119.000002269745,2|10,3:2|0:0,0:0:0:0:
123,315,105055,1,2,3:2:0:0:
292,253,105231,2,0,P|370:260|423:283,1,119.000002269745,10|0,0:0|3:0,0:0:0:0:
178,98,105584,2,0,P|234:79|293:76,1,119.000002269745,10|0,0:0|3:0,0:0:0:0:
501,137,105937,1,10,0:0:0:0:
417,9,106113,6,0,P|400:69|382:148,1,119.000002269745,2|8,3:0|0:0,0:0:0:0:
444,351,106466,2,0,P|480:312|477:227,1,119.000002269745,2|8,3:0|0:0,0:0:0:0:
277,168,106819,2,0,P|241:207|244:292,1,119.000002269745,2|8,3:0|0:0,0:0:0:0:
352,372,107172,2,0,P|338:314|321:256,1,119.000002269745,2|8,3:0|0:0,0:0:0:0:
80,102,107525,102,0,P|152:63|224:53,1,140,12|0,0:0|3:0,0:0:0:0:
488,215,107878,2,0,P|416:176|344:166,1,140,12|0,0:0|3:0,0:0:0:0:
74,328,108231,2,0,P|146:289|218:279,1,140,12|0,0:0|3:0,0:0:0:0:
384,361,108584,5,8,0:0:0:0:
384,361,108672,1,8,0:0:0:0:
384,361,108760,1,8,0:0:0:0:
256,146,108937,101,4,1:0:0:0:
498,341,120231,69,4,1:2:0:0:
498,341,120496,1,0,1:0:0:0:
456,271,121643,69,0,1:0:0:0:
456,271,121908,1,0,1:0:0:0:
398,201,123055,37,0,1:0:0:0:
398,201,123319,1,0,1:0:0:0:
321,150,124466,69,0,1:0:0:0:
321,150,124731,1,0,1:0:0:0:
247,110,125878,37,0,1:0:0:0:
247,110,126143,1,0,1:0:0:0:
167,85,127290,69,0,1:0:0:0:
167,85,127555,1,0,1:0:0:0:
86,70,128702,37,0,1:0:0:0:
86,70,128966,1,0,1:0:0:0:
2,68,130113,69,0,1:0:0:0:
2,68,130378,1,0,1:0:0:0:
50,145,130819,37,0,1:0:0:0:
50,145,130908,1,8,0:0:0:0:
50,145,130996,1,8,0:0:0:0:
121,37,131172,1,8,0:3:0:0:
198,30,131349,1,4,0:3:0:0:
245,92,131525,102,0,P|291:111|386:70,1,154.000004699707,4|8,1:2|0:0,0:0:0:0:
479,174,132055,2,0,P|435:181|382:197,1,77.0000023498536,0|2,1:0|1:2,0:0:0:0:
403,189,132319,1,0,1:0:0:0:
403,189,132408,1,2,1:3:0:0:
306,237,132584,1,8,0:0:0:0:
397,303,132760,1,2,1:2:0:0:
260,349,132937,6,0,P|318:327|433:307,1,154.000004699707,2|8,1:2|0:0,0:0:0:0:
209,262,133466,2,0,L|111:239,1,77.0000023498536,2|2,1:3|0:0,0:0:0:0:
134,244,133731,1,0,1:0:0:0:
134,244,133819,2,0,P|118:282|121:332,1,77.0000023498536,2|8,1:2|0:0,0:0:0:0:
275,354,134172,102,0,P|291:295|268:189,1,154.000004699707,2|0,1:2|1:0,0:0:0:0:
126,48,134702,2,0,P|165:54|216:59,1,77.0000023498536,8|2,0:0|1:2,0:0:0:0:
295,81,135055,1,2,0:0:0:0:
295,81,135143,1,0,1:0:0:0:
295,81,135231,1,2,1:3:0:0:
227,139,135408,1,10,0:0:0:0:
260,0,135584,1,2,1:2:0:0:
440,39,135760,6,0,L|516:11,1,77.0000023498536,2|0,1:2|1:0,0:0:0:0:
372,216,136113,2,0,P|359:169|366:125,1,77.0000023498536,10|2,0:0|0:3,0:0:0:0:
489,340,136466,2,0,L|413:312,1,77.0000023498536,2|0,1:2|1:0,0:0:0:0:
289,253,136819,1,10,0:0:0:0:
449,158,136996,1,10,0:0:0:0:
316,50,137172,101,2,1:2:0:0:
316,50,137349,1,0,1:2:0:0:
98,134,137525,2,0,L|12:110,1,77.0000023498536,10|2,0:0|0:0,0:0:0:0:
96,39,137878,2,0,P|175:28|220:92,1,154.000004699707,2|8,1:2|0:0,0:0:0:0:
162,254,138408,6,0,P|83:265|38:201,1,154.000004699707,2|2,1:2|1:2,0:0:0:0:
209,169,138937,1,10,0:0:0:0:
209,169,139025,1,2,1:2:0:0:
209,169,139113,1,2,1:3:0:0:
303,140,139290,1,2,1:2:0:0:
399,117,139466,1,2,1:2:0:0:
313,246,139643,102,0,P|301:291|315:344,1,77.0000023498536,10|2,0:0|1:2,0:0:0:0:
475,368,139996,2,0,P|491:298|449:208,1,154.000004699707,2|8,1:2|0:0,0:0:0:0:
408,43,140525,2,0,L|390:126,1,77.0000023498536,0|2,1:0|0:0,0:0:0:0:
391,118,140790,1,0,1:0:0:0:
391,118,140878,1,2,1:3:0:0:
370,209,141055,1,8,0:0:0:0:
485,130,141231,1,0,1:0:0:0:
311,51,141408,6,0,P|265:61|188:80,1,105.000004005432,4|8,1:0|0:0,0:0:0:0:
189,86,141672,1,8,0:0:0:0:
169,95,141760,1,0,1:0:0:0:
40,320,141937,2,0,P|11:275|25:213,1,105.000004005432,0|8,1:0|0:3,0:0:0:0:
31,210,142202,1,8,0:3:0:0:
50,200,142290,1,4,0:3:0:0:
231,272,142466,1,8,0:0:0:0:
244,284,142555,1,8,0:0:0:0:
258,296,142643,1,8,0:0:0:0:
269,306,142731,1,8,0:0:0:0:
279,314,142819,70,0,P|337:341|414:305,1,140,4|8,1:0|0:0,0:0:0:0:
355,149,143349,2,0,P|362:183|370:221,1,70,8|0,0:3|1:0,0:0:0:0:
485,213,143702,1,8,0:0:0:0:
468,97,143878,2,0,P|475:62|482:28,1,70,2|0,1:3|1:0,0:0:0:0:
329,30,144231,6,0,P|260:39|185:63,1,140,2|2,1:2|1:3,0:0:0:0:
50,127,144760,2,0,P|82:133|131:145,1,70,8|2,0:3|1:2,0:0:0:0:
209,165,145113,1,8,0:0:0:0:
78,287,145290,2,0,P|126:264|197:243,1,105,2|0,1:3|0:0,0:0:0:0:
175,247,145643,102,0,L|162:332,1,70,2|0,1:2|1:0,0:0:0:0:
385,381,145996,2,0,P|337:358|266:337,1,105,10|0,0:0|0:0,0:0:0:0:
287,341,146349,2,0,L|276:271,1,70,2|8,1:3|0:0,0:0:0:0:
261,166,146702,1,2,1:3:0:0:
372,183,146878,1,0,1:0:0:0:
390,78,147055,6,0,L|406:4,1,70,2|10,1:2|0:0,0:0:0:0:
301,51,147408,1,2,1:3:0:0:
301,51,147584,1,2,1:2:0:0:
123,121,147760,102,0,L|107:47,1,70,2|8,1:2|0:0,0:0:0:0:
212,94,148113,1,2,1:3:0:0:
212,94,148290,1,2,1:2:0:0:
149,216,148466,6,0,P|78:198|8:180,1,140,4|8,1:0|0:0,0:0:0:0:
36,345,148996,2,0,L|121:321,1,70,0|2,1:0|0:0,0:0:0:0:
230,294,149349,1,8,0:0:0:0:
146,207,149525,2,0,L|124:134,1,70,2|0,1:3|1:0,0:0:0:0:
300,229,149878,102,0,P|325:293|288:375,1,140,2|2,1:2|1:3,0:0:0:0:
144,358,150408,2,0,P|133:321|145:274,1,70,8|2,0:3|1:2,0:0:0:0:
225,184,150760,1,8,0:0:0:0:
114,106,150937,2,0,P|124:151|136:196,1,70,2|8,1:3|0:3,0:0:0:0:
191,47,151290,6,0,P|148:18|43:45,1,140,2|8,1:3|0:0,0:0:0:0:
269,100,151819,2,0,P|309:85|349:74,1,70,8|2,0:3|1:3,0:0:0:0:
452,60,152172,1,8,0:0:0:0:
452,60,152525,101,0,1:0:0:0:
503,184,152702,1,2,1:2:0:0:
352,167,152878,1,10,0:0:0:0:
435,137,153055,5,2,1:3:0:0:
390,269,153231,1,10,0:0:0:0:
248,234,153408,1,0,1:0:0:0:
301,333,153584,101,8,0:0:0:0:
301,333,153672,1,8,0:0:0:0:
301,333,153760,1,10,0:0:0:0:
264,146,153937,1,2,1:2:0:0:
209,342,154113,6,0,L|373:359,1,140,4|8,1:0|0:0,0:0:0:0:
479,215,154643,2,0,P|469:260|461:292,1,70,8|2,0:3|1:2,0:0:0:0:
442,364,154996,1,8,0:0:0:0:
359,223,155172,1,2,1:3:0:0:
359,223,155349,1,8,0:3:0:0:
504,123,155525,102,0,P|431:129|376:67,1,140,0|2,1:2|1:3,0:0:0:0:
282,18,156055,1,8,0:3:0:0:
182,98,156231,2,0,P|176:63|170:29,1,70,2|8,1:2|0:0,0:0:0:0:
61,129,156584,2,0,P|40:179|41:254,1,105,2|0,1:3|0:0,0:0:0:0:
37,230,156937,6,0,P|98:208|176:207,1,140,2|8,1:2|0:0,0:0:0:0:
302,351,157466,2,0,P|269:363|234:362,1,70,8|2,0:3|1:2,0:0:0:0:
168,298,157819,1,8,0:0:0:0:
251,150,157996,2,0,P|260:187|261:224,1,70,2|0,1:3|1:0,0:0:0:0:
394,381,158349,102,0,P|397:334|379:238,1,140,2|8,1:2|0:0,0:0:0:0:
345,30,158878,2,0,P|375:52|400:80,1,70,0|2,1:0|0:0,0:0:0:0:
397,76,159143,1,0,1:0:0:0:
397,76,159231,1,0,1:0:0:0:
483,122,159408,1,8,0:0:0:0:
459,147,159496,1,8,0:0:0:0:
428,163,159584,1,8,0:3:0:0:
393,167,159672,1,4,0:3:0:0:
359,159,159760,6,0,P|306:143|213:128,1,140,4|10,1:0|0:0,0:0:0:0:
27,145,160290,1,2,1:2:0:0:
145,58,160466,1,2,0:0:0:0:
145,58,160555,1,0,1:0:0:0:
145,58,160643,1,2,1:2:0:0:
170,196,160819,1,8,0:0:0:0:
20,148,160996,102,0,P|15:102|25:63,1,70,2|0,1:2|1:0,0:0:0:0:
170,196,161349,2,0,P|131:243|35:229,1,140,2|0,1:2|1:2,0:0:0:0:
175,329,161878,2,0,P|216:337|260:348,1,70,2|0,1:2|0:0,0:0:0:0:
362,364,162231,2,0,P|390:341|471:327,1,105,10|0,0:0|0:0,0:0:0:0:
462,333,162584,6,0,P|497:271|462:183,1,140,4|8,1:0|0:0,0:0:0:0:
344,63,163113,2,0,P|336:102|350:152,1,70,2|2,1:2|1:2,0:0:0:0:
393,210,163466,1,2,1:2:0:0:
457,96,163643,1,8,0:0:0:0:
457,96,163731,1,8,0:0:0:0:
457,96,163819,1,0,1:0:0:0:
250,27,163996,101,2,1:2:0:0:
250,27,164260,1,2,1:2:0:0:
61,135,164525,5,2,1:2:0:0:
259,224,164702,1,2,1:2:0:0:
35,346,165408,21,2,0:0:0:0:
35,346,166113,1,2,0:0:0:0:
35,346,166819,38,0,L|176:321,1,119.000002269745,4|8,3:1|0:0,0:0:0:0:
331,128,167172,2,0,L|197:102,1,119.000002269745,0|8,3:0|0:0,0:0:0:0:
46,198,167525,2,0,P|103:227|175:198,1,119.000002269745,2|8,3:2|0:0,0:0:0:0:
154,215,167790,1,10,0:0:0:0:
154,215,167878,1,0,3:0:0:0:
116,43,168055,1,10,0:0:0:0:
309,18,168231,6,0,P|338:73|313:154,1,119.000002269745,2|8,3:2|0:0,0:0:0:0:
286,330,168584,2,0,P|273:253|256:187,1,119.000002269745,2|8,3:2|0:0,0:0:0:0:
450,74,168937,2,0,P|436:131|427:190,1,119.000002269745,2|8,3:2|0:0,0:0:0:0:
435,354,169290,1,0,3:0:0:0:
435,354,169378,1,0,3:0:0:0:
435,354,169466,1,8,0:0:0:0:
212,376,169643,102,0,P|168:316|179:256,1,119.000002269745,2|8,3:2|0:0,0:0:0:0:
330,87,169996,2,0,P|300:155|242:175,1,119.000002269745,0|8,3:0|0:0,0:0:0:0:
23,107,170349,2,0,P|96:98|143:138,1,119.000002269745,2|8,3:2|0:0,0:0:0:0:
131,121,170613,1,10,0:0:0:0:
131,121,170702,1,0,3:0:0:0:
54,283,170878,1,10,0:0:0:0:
212,376,171055,6,0,P|280:358|353:344,1,119.000002269745,2|8,3:2|0:0,0:0:0:0:
349,79,171408,2,0,P|325:123|341:202,1,119.000002269745,2|8,3:2|0:0,0:0:0:0:
451,371,171760,2,0,P|488:311|477:248,1,119.000002269745,2|8,3:2|0:0,0:0:0:0:
281,248,172113,1,10,0:0:0:0:
318,270,172202,1,8,0:0:0:0:
362,269,172290,1,8,0:0:0:0:
399,244,172378,1,8,0:0:0:0:
417,204,172466,102,0,L|452:70,1,119.000002269745,4|8,3:2|0:0,0:0:0:0:
246,136,172819,1,0,3:0:0:0:
311,362,172996,2,0,L|275:227,1,119.000002269745,10|0,0:0|3:0,0:0:0:0:
404,305,173349,1,10,0:0:0:0:
197,289,173525,1,2,3:2:0:0:
197,289,173613,1,0,3:0:0:0:
197,289,173702,1,10,0:0:0:0:
338,150,173878,5,2,3:2:0:0:
158,53,174055,1,10,0:0:0:0:
28,168,174231,2,0,P|43:240|57:313,1,119.000002269745,0|10,3:0|0:0,0:0:0:0:
189,158,174584,1,0,3:0:0:0:
287,347,174760,2,0,P|289:288|261:221,1,119.000002269745,10|0,0:0|3:0,0:0:0:0:
269,233,175025,1,0,3:0:0:0:
269,233,175113,1,10,0:0:0:0:
90,85,175290,102,0,P|83:146|109:217,1,119.000002269745,2|8,3:2|0:0,0:0:0:0:
351,195,175643,2,0,P|302:157|225:171,1,119.000002269745,0|8,3:0|0:0,0:0:0:0:
348,354,175996,2,0,P|416:354|459:313,1,119.000002269745,0|8,3:0|0:0,0:0:0:0:
511,142,176349,1,0,3:0:0:0:
339,31,176525,5,10,0:0:0:0:
330,241,176702,1,0,3:0:0:0:
470,29,176878,1,10,0:0:0:0:
274,125,177055,1,2,3:2:0:0:
466,232,177231,1,10,0:0:0:0:
404,137,177408,1,2,3:2:0:0:
404,137,177760,101,10,0:0:0:0:
404,137,177849,1,8,0:0:0:0:
404,137,177937,1,10,0:0:0:0:
191,46,178113,6,0,P|119:62|49:76,1,119.000002269745,4|8,3:1|0:0,0:0:0:0:
8,273,178466,2,0,P|43:317|122:313,1,119.000002269745,0|8,3:0|0:0,0:0:0:0:
223,221,178819,2,0,P|188:177|109:181,1,119.000002269745,2|8,3:2|0:0,0:0:0:0:
129,172,179084,1,10,0:0:0:0:
129,172,179172,1,0,3:0:0:0:
252,341,179349,1,10,0:0:0:0:
448,257,179525,102,0,P|461:316|409:377,1,119.000002269745,2|8,3:2|0:0,0:0:0:0:
343,180,179878,2,0,P|402:164|480:149,1,119.000002269745,2|8,3:2|0:0,0:0:0:0:
268,24,180231,2,0,P|239:74|252:131,1,119.000002269745,2|8,3:2|0:0,0:0:0:0:
351,281,180584,1,0,3:0:0:0:
351,281,180672,1,0,3:0:0:0:
351,281,180760,1,8,0:0:0:0:
162,365,180937,6,0,P|150:294|137:225,1,119.000002269745,2|8,3:2|0:0,0:0:0:0:
332,148,181290,2,0,P|299:198|209:202,1,119.000002269745,0|8,3:0|0:0,0:0:0:0:
29,79,181643,2,0,P|62:29|152:25,1,119.000002269745,2|8,3:2|0:0,0:0:0:0:
117,14,181908,1,10,0:0:0:0:
117,14,181996,1,0,3:0:0:0:
220,107,182172,1,10,0:0:0:0:
60,288,182349,102,0,P|50:215|90:156,1,119.000002269745,2|8,3:2|0:0,0:0:0:0:
287,316,182702,2,0,P|234:357|168:353,1,119.000002269745,2|8,3:2|0:0,0:0:0:0:
214,105,183055,2,0,P|282:130|313:184,1,119.000002269745,2|8,3:2|0:0,0:0:0:0:
430,363,183408,1,10,0:0:0:0:
437,324,183496,1,8,0:0:0:0:
444,286,183584,1,8,0:0:0:0:
452,248,183672,1,8,0:0:0:0:
459,210,183760,6,0,L|488:55,1,119.000002269745,4|8,3:2|0:0,0:0:0:0:
313,170,184113,1,0,3:0:0:0:
151,62,184290,2,0,P|204:18|267:26,1,119.000002269745,10|0,0:0|3:0,0:0:0:0:
376,101,184643,1,8,0:0:0:0:
376,101,184731,1,8,0:0:0:0:
376,101,184819,1,2,3:2:0:0:
216,167,184996,1,10,0:0:0:0:
361,279,185172,101,2,3:2:0:0:
361,279,185349,1,10,0:0:0:0:
228,381,185525,2,0,P|210:315|239:250,1,119.000002269745,2|10,3:2|0:0,0:0:0:0:
330,160,185878,1,0,3:0:0:0:
156,87,186055,2,0,P|83:105|6:136,1,119.000002269745,10|0,0:0|3:0,0:0:0:0:
41,119,186319,1,0,3:0:0:0:
41,119,186408,1,10,0:0:0:0:
227,10,186584,6,0,P|256:65|234:135,1,119.000002269745,2|8,3:0|0:0,0:0:0:0:
50,228,186937,2,0,P|123:246|200:277,1,119.000002269745,2|8,3:0|0:0,0:0:0:0:
247,363,187290,2,0,P|303:343|361:330,1,119.000002269745,2|8,3:0|0:0,0:0:0:0:
455,168,187643,2,0,P|395:166|347:222,1,119.000002269745,2|8,3:0|0:0,0:0:0:0:
457,373,187996,102,0,P|469:306|420:244,1,140,12|0,0:0|3:0,0:0:0:0:
54,251,188349,2,0,P|106:294|184:283,1,140,12|0,0:0|3:0,0:0:0:0:
354,5,188702,2,0,P|289:28|260:101,1,140,12|0,0:0|3:0,0:0:0:0:
286,218,189055,1,8,0:0:0:0:
286,218,189143,1,8,0:0:0:0:
286,218,189231,1,8,0:0:0:0:
141,41,189408,5,14,0:1:0:0:
141,41,189584,2,0,L|74:32,1,48.9999985046387,2|0,1:0|1:0,0:0:0:0:
403,127,189937,2,0,L|464:114,1,48.9999985046387,10|0,0:1|1:0,0:0:0:0:
199,186,190290,1,0,1:0:0:0:
339,246,190466,1,10,0:1:0:0:
126,290,190643,2,0,L|77:296,1,48.9999985046387,10|0,0:1|1:0,0:0:0:0:
370,362,190996,101,0,1:0:0:0:
370,362,191172,2,0,L|437:371,1,48.9999985046387,10|0,0:1|1:0,0:0:0:0:
188,179,191525,1,0,1:0:0:0:
188,179,191702,2,0,L|121:188,1,48.9999985046387,10|0,0:1|1:0,0:0:0:0:
400,62,192055,1,0,1:0:0:0:
490,196,192231,5,14,0:1:0:0:
390,54,192408,2,0,L|399:-13,1,48.9999985046387,2|0,1:0|1:0,0:0:0:0:
319,324,192760,2,0,L|331:385,1,48.9999985046387,10|0,0:1|1:0,0:0:0:0:
260,121,193113,1,0,1:0:0:0:
200,260,193290,1,10,0:1:0:0:
156,48,193466,102,0,L|150:0,1,48.9999985046387,10|0,0:1|1:0,0:0:0:0:
84,291,193819,1,0,1:0:0:0:
84,291,193996,2,0,L|75:358,1,48.9999985046387,10|0,0:1|1:0,0:0:0:0:
267,110,194349,1,0,1:0:0:0:
267,110,194525,2,0,L|258:43,1,48.9999985046387,10|0,0:1|1:0,0:0:0:0:
400,322,194878,1,0,1:0:0:0:
394,173,195055,5,14,0:1:0:0:
124,264,195231,2,0,L|65:291,1,48.9999985046387,2|0,1:0|1:0,0:0:0:0:
395,155,195584,2,0,L|454:128,1,48.9999985046387,10|0,0:1|1:0,0:0:0:0:
173,140,195937,1,0,1:0:0:0:
338,239,196113,1,10,0:1:0:0:
156,132,196290,102,0,L|97:104,1,48.9999985046387,10|0,0:1|1:0,0:0:0:0:
249,311,196643,1,0,1:0:0:0:
249,311,196819,2,0,L|244:373,1,48.9999985046387,10|0,0:1|1:0,0:0:0:0:
263,73,197172,1,0,1:0:0:0:
263,73,197349,2,0,L|268:11,1,48.9999985046387,10|0,0:1|1:0,0:0:0:0:
383,271,197702,1,0,1:0:0:0:
244,193,197878,5,14,0:1:0:0:
411,99,198055,2,0,L|474:68,1,48.9999985046387,2|0,1:0|1:0,0:0:0:0:
267,318,198408,2,0,L|310:339,1,48.9999985046387,10|0,0:1|1:0,0:0:0:0:
110,155,198760,1,0,1:0:0:0:
166,268,198937,1,10,0:1:0:0:
199,64,199113,102,0,L|242:42,1,48.9999985046387,10|0,0:1|1:0,0:0:0:0:
35,218,199466,1,0,1:0:0:0:
35,218,199643,2,0,L|78:239,1,48.9999985046387,10|0,0:1|1:0,0:0:0:0:
39,76,199996,1,0,1:0:0:0:
39,76,200172,2,2,P|63:64|113:42,1,70,8|0,0:0|1:0,0:1:0:0:
187,11,200702,102,0,B|202:62|202:62|173:121,1,105.000004005432,6|8,3:1|0:0,0:0:0:0:
169,120,200966,1,8,0:0:0:0:
158,131,201055,1,10,0:1:0:0:
16,256,201231,2,0,L|136:272,1,105.000004005432,10|0,0:1|3:0,0:0:0:0:
303,287,201584,1,2,3:1:0:0:
199,357,201760,1,10,0:1:0:0:
248,173,201937,101,8,0:0:0:0:
253,160,202025,1,8,0:0:0:0:
256,150,202113,2,0,L|272:94,3,52.5000020027161,10|0|0|0,0:1|1:0|1:0|1:0,0:0:0:0:
166,18,202466,2,0,L|180:68,3,52.5000020027161,10|0|2|0,0:1|1:0|1:0|1:0,0:0:0:0:
307,231,202819,1,8,0:0:0:0:
274,252,202908,1,0,1:0:0:0:
235,254,202996,1,0,1:0:0:0:
200,238,203084,1,0,1:0:0:0:
177,206,203172,1,10,0:1:0:0:
268,15,203349,5,8,0:0:0:0:
268,15,203437,1,8,0:0:0:0:
268,15,203525,2,0,L|329:30,1,48.9999985046387,6|0,3:1|0:0,0:0:0:0:
483,175,203878,1,10,0:1:0:0:
287,366,204055,2,0,L|339:347,1,48.9999985046387,10|0,0:1|3:0,0:0:0:0:
492,171,204408,1,8,0:0:0:0:
288,273,204584,101,10,0:1:0:0:
261,134,204760,2,0,L|273:199,1,48.9999985046387,2|0,3:1|3:0,0:0:0:0:
499,244,205113,1,10,0:1:0:0:
475,382,205290,2,0,L|483:333,1,48.9999985046387,10|0,0:1|1:0,0:0:0:0:
444,93,205643,5,8,0:0:0:0:
412,116,205731,1,8,0:0:0:0:
396,151,205819,1,8,0:0:0:0:
398,189,205908,1,8,0:0:0:0:
419,222,205996,2,2,L|485:229,1,52.5,8|0,0:0|0:0,0:1:0:0:
486,231,206349,102,0,L|359:247,1,105.000004005432,6|0,3:1|0:0,0:0:0:0:
142,354,206702,2,0,B|188:324|188:324|255:337,1,105.000004005432,10|2,0:1|3:1,0:0:0:0:
301,384,207055,1,8,0:0:0:0:
322,351,207143,1,0,1:0:0:0:
324,312,207231,1,2,1:0:0:0:
308,277,207319,1,0,1:0:0:0:
276,254,207408,1,10,0:1:0:0:
244,231,207496,1,0,1:0:0:0:
228,196,207584,1,0,1:0:0:0:
230,157,207672,1,0,1:0:0:0:
251,124,207760,6,0,B|294:130|341:143,2,70.0000026702882,10|0|0,0:1|1:0|1:0,0:0:0:0:
90,45,208113,2,0,P|55:49|21:56,2,70.0000026702882,10|0|0,0:1|1:0|1:0,0:0:0:0:
179,0,208466,101,10,0:1:0:0:
192,47,208584,5,0,1:0:0:0:
169,95,208702,101,0,1:0:0:0:
129,129,208819,5,8,0:0:0:0:
109,177,208937,101,0,1:0:0:0:
119,224,209055,5,0,1:0:0:0:
121,230,209172,102,0,B|170:238|170:238|187:252|187:252|247:262,1,119.000002269745,6|0,3:1|3:0,0:0:0:0:
315,361,209525,2,0,B|361:353|361:353|378:339|378:339|427:331,1,119.000002269745,10|10,0:1|0:1,0:0:0:0:
428,332,209790,1,0,1:0:0:0:
428,332,209878,1,0,1:0:0:0:
323,196,210055,1,2,3:1:0:0:
474,142,210231,1,10,0:1:0:0:
319,205,210408,1,2,3:1:0:0:
363,30,210584,5,0,1:1:0:0:
434,245,210760,1,2,3:1:0:0:
201,126,210937,1,10,0:0:0:0:
190,134,211290,101,2,3:1:0:0:
465,43,211466,1,10,0:0:0:0:
256,192,213408,101,6,0:0:0:0:
257,191,233172,69,2,0:3:0:0:
263,176,233525,37,8,0:3:0:0:
240,200,233702,1,4,0:3:0:0:
272,207,233878,1,4,0:3:0:0:
191,134,234055,69,8,0:3:0:0:
346,174,234231,1,8,0:3:0:0:
234,280,234408,1,4,0:3:0:0:
288,94,234584,21,0,1:0:0:0:
229,292,234760,1,0,1:0:0:0:
292,82,234937,101,8,0:0:0:0:
133,224,235113,1,8,0:0:0:0:
354,281,235290,1,8,0:0:0:0:
363,290,235643,22,0,P|399:278|452:264,1,70,2|2,0:0|0:0,0:0:0:0:
319,372,235996,38,0,P|278:336|292:239,1,119.000002269745,4|8,3:1|0:0,0:0:0:0:
464,188,236349,2,0,P|505:224|491:321,1,119.000002269745,0|8,3:0|0:0,0:0:0:0:
323,184,236702,2,0,L|299:60,1,119.000002269745,2|8,3:2|0:0,0:0:0:0:
300,67,236966,1,10,0:0:0:0:
300,67,237055,1,0,3:0:0:0:
441,95,237231,1,10,0:0:0:0:
233,6,237408,6,0,P|209:62|228:119,1,119.000002269745,2|8,3:2|0:0,0:0:0:0:
335,291,237760,2,0,P|268:257|194:247,1,119.000002269745,2|8,3:2|0:0,0:0:0:0:
4,197,238113,2,0,P|71:163|145:153,1,119.000002269745,2|8,3:2|0:0,0:0:0:0:
319,168,238466,1,0,3:0:0:0:
319,168,238555,1,0,3:0:0:0:
319,168,238643,1,8,0:0:0:0:
153,359,238819,102,0,P|143:292|129:219,1,119.000002269745,2|8,3:2|0:0,0:0:0:0:
301,73,239172,2,0,P|365:85|400:134,1,119.000002269745,0|8,3:0|0:0,0:0:0:0:
318,263,239525,2,0,P|254:251|219:202,1,119.000002269745,2|8,3:2|0:0,0:0:0:0:
221,210,239790,1,10,0:0:0:0:
221,210,239878,1,0,3:0:0:0:
145,54,240055,1,10,0:0:0:0:
4,246,240231,6,0,P|68:264|119:282,1,119.000002269745,2|8,3:2|0:0,0:0:0:0:
266,112,240584,2,0,P|202:130|151:148,1,119.000002269745,2|8,3:2|0:0,0:0:0:0:
218,355,240937,2,0,P|274:335|331:319,1,119.000002269745,2|8,3:2|0:0,0:0:0:0:
494,257,241290,1,10,0:0:0:0:
457,242,241378,1,8,0:0:0:0:
420,231,241466,1,8,0:0:0:0:
384,220,241555,1,8,0:0:0:0:
347,210,241643,102,0,P|328:262|346:328,1,119.000002269745,4|8,3:2|0:0,0:0:0:0:
496,369,241996,1,0,3:0:0:0:
512,167,242172,2,0,L|391:127,1,119.000002269745,10|0,0:0|3:0,0:0:0:0:
238,75,242525,1,10,0:0:0:0:
355,18,242702,1,2,3:2:0:0:
355,18,242790,1,0,3:0:0:0:
355,18,242878,1,10,0:0:0:0:
289,185,243055,1,2,3:2:0:0:
438,59,243231,1,10,0:0:0:0:
224,75,243408,6,0,P|168:59|103:50,1,119.000002269745,0|10,3:0|0:0,0:0:0:0:
0,176,243760,1,0,3:0:0:0:
114,273,243937,2,0,P|146:224|134:161,1,119.000002269745,10|0,0:0|3:0,0:0:0:0:
138,166,244202,1,0,3:0:0:0:
138,166,244290,1,10,0:0:0:0:
31,319,244466,102,0,P|77:359|147:359,1,119.000002269745,2|8,3:2|0:0,0:0:0:0:
327,232,244819,2,0,P|276:202|218:207,1,119.000002269745,0|8,3:0|0:0,0:0:0:0:
365,373,245172,2,0,P|422:345|492:324,1,119.000002269745,0|8,3:0|0:0,0:0:0:0:
512,154,245525,1,0,3:0:0:0:
334,105,245702,5,10,0:0:0:0:
505,163,245878,1,0,3:0:0:0:
379,253,246055,1,10,0:0:0:0:
444,59,246231,1,2,3:2:0:0:
286,189,246408,1,10,0:0:0:0:
506,267,246584,1,2,3:2:0:0:
506,267,246937,101,10,0:0:0:0:
506,267,247025,1,8,0:0:0:0:
506,267,247113,1,10,0:0:0:0:
280,354,247290,6,0,P|224:342|156:329,1,119.000002269745,4|8,3:1|0:0,0:0:0:0:
87,148,247643,2,0,P|126:111|205:114,1,119.000002269745,0|8,3:0|0:0,0:0:0:0:
337,197,247996,2,0,P|278:208|220:220,1,119.000002269745,2|8,3:2|0:0,0:0:0:0:
220,220,248260,1,10,0:0:0:0:
220,220,248349,1,0,3:0:0:0:
14,245,248525,1,10,0:0:0:0:
97,343,248702,102,0,P|114:270|134:210,1,119.000002269745,2|8,3:2|0:0,0:0:0:0:
181,25,249055,2,0,P|198:81|211:139,1,119.000002269745,2|8,3:2|0:0,0:0:0:0:
346,353,249408,2,0,P|287:353|242:317,1,119.000002269745,2|8,3:2|0:0,0:0:0:0:
129,150,249760,1,0,3:0:0:0:
129,150,249849,1,0,3:0:0:0:
129,150,249937,1,8,0:0:0:0:
321,34,250113,6,0,P|381:43|447:60,1,119.000002269745,2|8,3:2|0:0,0:0:0:0:
511,240,250466,2,0,P|483:196|407:184,1,119.000002269745,0|8,3:0|0:0,0:0:0:0:
250,310,250819,2,0,P|278:354|354:366,1,119.000002269745,2|8,3:2|0:0,0:0:0:0:
340,369,251084,1,10,0:0:0:0:
340,369,251172,1,0,3:0:0:0:
321,203,251349,1,10,0:0:0:0:
472,89,251525,102,0,P|412:82|347:120,1,119.000002269745,2|8,3:2|0:0,0:0:0:0:
86,207,251878,2,0,P|145:200|211:238,1,119.000002269745,2|8,3:2|0:0,0:0:0:0:
490,275,252231,2,0,P|430:268|365:306,1,119.000002269745,2|8,3:2|0:0,0:0:0:0:
265,377,252584,1,10,0:0:0:0:
272,338,252672,1,8,0:0:0:0:
279,300,252760,1,8,0:0:0:0:
287,262,252849,1,8,0:0:0:0:
294,224,252937,6,0,P|348:182|423:167,1,119.000002269745,4|8,3:2|0:0,0:0:0:0:
179,101,253290,1,0,3:0:0:0:
291,6,253466,2,0,P|279:69|269:133,1,119.000002269745,10|0,0:0|3:0,0:0:0:0:
376,73,253819,1,8,0:0:0:0:
376,73,253908,1,8,0:0:0:0:
376,73,253996,1,2,3:2:0:0:
182,11,254172,1,10,0:0:0:0:
207,197,254349,101,2,3:2:0:0:
207,197,254525,1,10,0:0:0:0:
6,222,254702,2,0,P|1:164|28:106,1,119.000002269745,2|10,3:2|0:0,0:0:0:0:
163,88,255055,1,0,3:0:0:0:
312,235,255231,2,0,P|242:210|185:199,1,119.000002269745,10|0,0:0|3:0,0:0:0:0:
84,290,255584,1,10,0:0:0:0:
244,362,255760,6,0,P|299:341|357:327,1,119.000002269745,2|8,3:0|0:0,0:0:0:0:
493,104,256113,2,0,P|512:171|482:220,1,119.000002269745,2|8,3:0|0:0,0:0:0:0:
260,160,256466,2,0,P|317:173|373:194,1,119.000002269745,2|8,3:0|0:0,0:0:0:0:
431,375,256819,2,0,P|450:308|420:259,1,119.000002269745,2|8,3:0|0:0,0:0:0:0:
254,68,257172,101,12,0:0:0:0:
39,171,257349,1,0,3:0:0:0:
262,257,257525,5,12,0:0:0:0:
158,161,257702,1,0,3:0:0:0:
262,257,257878,101,12,0:0:0:0:
262,257,257966,1,8,0:0:0:0:
262,257,258055,1,8,0:0:0:0:
48,370,258231,5,8,0:0:0:0:
69,337,258319,1,8,0:0:0:0:
104,320,258408,1,8,0:0:0:0:
143,321,258496,1,8,0:0:0:0:
176,342,258584,86,0,B|229:332|229:332|252:341|252:341|310:329,1,132.999996448517,6|8,3:1|0:0,0:0:0:0:
489,144,258937,2,0,B|436:154|436:154|413:145|413:145|359:156,1,132.999996448517,0|8,3:0|0:0,0:0:0:0:
378,384,259290,2,0,B|403:329|403:329|360:253,1,132.999996448517,2|8,3:1|0:0,0:0:0:0:
367,265,259555,1,10,0:1:0:0:
367,265,259643,1,0,3:0:0:0:
219,153,259819,1,10,0:1:0:0:
335,30,259996,2,0,B|374:75|374:75|353:160,1,132.999996448517,2|8,3:1|0:0,0:0:0:0:
157,248,260349,102,0,L|302:218,1,132.999996448517,2|8,3:1|0:0,0:0:0:0:
465,56,260702,2,0,L|320:26,1,132.999996448517,2|8,3:1|0:0,0:0:0:0:
123,3,261055,1,0,3:0:0:0:
123,3,261143,1,0,3:0:0:0:
123,3,261231,1,8,0:0:0:0:
51,256,261408,6,0,B|23:193|23:193|52:118,1,132.999996448517,2|8,3:1|0:0,0:0:0:0:
224,2,261760,2,0,L|203:152,1,132.999996448517,0|8,3:0|0:0,0:0:0:0:
213,354,262113,2,0,B|150:326|150:326|75:355,1,132.999996448517,2|8,3:1|0:0,0:0:0:0:
90,349,262378,1,10,0:1:0:0:
90,349,262466,1,0,3:0:0:0:
273,227,262643,1,10,0:1:0:0:
444,369,262819,102,0,B|434:316|434:316|443:293|443:293|431:235,1,132.999996448517,2|8,3:1|0:0,0:0:0:0:
308,14,263172,2,0,B|296:67|296:67|305:90|305:90|295:143,1,132.999996448517,2|8,3:1|0:0,0:0:0:0:
180,374,263525,2,0,B|168:320|168:320|177:297|177:297|167:244,1,132.999996448517,2|8,3:1|0:0,0:0:0:0:
62,0,263878,1,10,0:1:0:0:
55,39,263966,1,8,0:0:0:0:
48,77,264055,1,8,0:0:0:0:
40,115,264143,1,8,0:0:0:0:
33,153,264231,6,0,B|100:169|100:169|162:138,1,132.999996448517,4|8,3:2|0:0,0:0:0:0:
311,27,264584,1,0,3:0:0:0:
389,220,264760,2,0,B|322:204|322:204|260:235,1,132.999996448517,10|0,0:1|3:0,0:0:0:0:
160,302,265113,1,10,0:1:0:0:
256,124,265290,1,2,3:1:0:0:
256,124,265378,1,0,3:0:0:0:
256,124,265466,1,10,0:1:0:0:
460,141,265643,102,0,B|489:79|489:79|461:15,1,132.999996448517,2|8,3:1|0:1,0:0:0:0:
361,227,265996,2,0,L|398:368,1,132.999996448517,2|8,3:1|0:0,0:0:0:0:
485,252,266349,1,0,3:0:0:0:
267,345,266525,2,0,B|238:283|238:283|266:219,1,132.999996448517,10|0,0:1|3:0,0:0:0:0:
355,88,266878,1,10,0:1:0:0:
200,10,267055,6,0,L|163:151,1,132.999996448517,2|8,3:1|0:0,0:0:0:0:
72,363,267408,2,0,L|38:234,1,132.999996448517,0|8,3:0|0:0,0:0:0:0:
253,198,267760,2,0,B|200:237|200:237|118:225,1,132.999996448517,0|8,3:0|0:0,0:0:0:0:
52,95,268113,1,0,3:0:0:0:
269,0,268290,101,10,0:1:0:0:
249,220,268466,1,0,3:0:0:0:
376,55,268643,1,10,0:1:0:0:
137,157,268819,1,2,3:1:0:0:
360,178,268996,1,10,0:1:0:0:
150,33,269172,1,2,3:1:0:0:
150,40,269525,5,10,0:1:0:0:
171,73,269613,1,8,0:0:0:0:
206,90,269702,1,8,0:1:0:0:
245,89,269790,1,8,0:0:0:0:
278,68,269878,102,0,B|331:78|331:78|354:69|354:69|412:81,1,132.999996448517,6|8,3:1|0:0,0:0:0:0:
296,331,270231,2,0,B|262:282|262:282|286:196,1,132.999996448517,0|8,3:0|0:0,0:0:0:0:
490,251,270584,2,0,B|437:261|437:261|414:252|414:252|356:264,1,132.999996448517,2|8,3:1|0:0,0:0:0:0:
360,263,270849,1,10,0:1:0:0:
360,263,270937,1,0,3:0:0:0:
341,130,271113,1,10,0:1:0:0:
188,140,271290,6,0,B|154:189|154:189|178:275,1,132.999996448517,2|8,3:1|0:0,0:0:0:0:
239,357,271643,2,0,L|274:228,1,132.999996448517,2|8,3:1|0:0,0:0:0:0:
43,119,271996,2,0,L|80:253,1,132.999996448517,2|8,3:1|0:0,0:0:0:0:
126,369,272349,1,0,3:0:0:0:
126,369,272437,1,0,3:0:0:0:
126,369,272525,1,8,0:0:0:0:
381,344,272702,102,0,B|371:291|371:291|380:268|380:268|368:214,1,132.999996448517,2|8,3:1|0:0,0:0:0:0:
181,44,273055,2,0,L|324:85,1,132.999996448517,0|8,3:0|0:0,0:0:0:0:
512,94,273408,2,0,L|369:135,1,132.999996448517,2|8,3:1|0:0,0:0:0:0:
384,130,273672,1,10,0:1:0:0:
384,130,273760,1,0,3:0:0:0:
260,239,273937,1,10,0:1:0:0:
462,327,274113,6,0,B|488:264|488:264|459:187,1,132.999996448517,2|8,3:1|0:0,0:0:0:0:
299,36,274466,2,0,B|276:96|276:96|302:159,1,132.999996448517,2|8,3:1|0:0,0:0:0:0:
327,347,274819,2,0,L|168:308,1,132.999996448517,2|8,3:1|0:0,0:0:0:0:
0,143,275172,1,10,0:1:0:0:
42,122,275260,1,8,0:0:0:0:
89,130,275349,1,8,0:0:0:0:
123,163,275437,1,8,0:0:0:0:
133,209,275525,102,0,B|86:360,1,132.999996448517,4|8,3:2|0:0,0:0:0:0:
45,206,275878,1,0,3:0:0:0:
180,79,276055,2,0,B|233:69|233:69|256:78|256:78|314:66,1,132.999996448517,10|0,0:1|3:0,0:0:0:0:
470,43,276408,1,8,0:1:0:0:
501,202,276584,1,2,3:1:0:0:
501,202,276672,1,0,3:0:0:0:
501,202,276760,1,10,0:1:0:0:
475,35,276937,5,2,3:1:0:0:
369,159,277113,1,8,0:0:0:0:
510,306,277290,2,0,B|450:276|450:276|382:292,1,132.999996448517,2|8,3:1|0:0,0:0:0:0:
186,322,277643,1,0,3:0:0:0:
50,181,277819,2,0,B|110:151|110:151|178:167,1,132.999996448517,10|0,0:1|3:0,0:0:0:0:
174,166,278084,1,0,3:0:0:0:
174,166,278172,1,10,0:1:0:0:
261,384,278349,102,0,B|292:333|292:333|269:248,1,132.999996448517,2|8,3:0|0:0,0:0:0:0:
133,62,278702,2,0,L|278:102,1,132.999996448517,2|8,3:0|0:0,0:0:0:0:
504,240,279055,2,0,L|359:280,1,132.999996448517,2|8,3:0|0:0,0:0:0:0:
192,256,279408,1,8,0:0:0:0:
209,212,279496,1,8,0:0:0:0:
247,184,279584,1,8,0:0:0:0:
295,184,279672,1,8,0:0:0:0:
333,211,279760,6,0,B|367:142|367:142|336:62,1,146.999995513916,12|0,0:0|3:0,0:0:0:0:
160,27,280113,1,12,0:0:0:0:
12,135,280290,1,0,3:0:0:0:
29,26,280466,101,12,0:0:0:0:
152,156,280643,1,0,3:0:0:0:
271,41,280819,1,8,0:0:0:0:
295,13,280908,1,8,0:0:0:0:
328,0,280996,1,8,0:0:0:0:
365,1,281084,1,8,0:0:0:0:
397,17,281172,22,0,P|426:64|423:141,1,105.000004005432,4|2,1:0|1:2,0:0:0:0:
430,112,281436,1,0,1:0:0:0:
430,112,281524,1,8,1:3:0:0:
337,217,281701,1,10,0:0:0:0:
500,356,281877,2,0,P|462:325|401:331,1,105.000004005432,10|4,0:0|0:3,0:0:0:0:
308,352,282230,5,2,1:2:0:0:
308,352,282319,1,0,1:0:0:0:
308,352,282407,1,10,0:0:0:0:
429,240,282583,1,8,0:0:0:0:
256,201,282760,1,2,1:2:0:0:
134,360,282936,2,0,P|60:343|55:258,1,157.500006008148,10|0,0:0|0:0,0:0:0:0:
50,257,283289,102,0,L|160:233,1,105.000004005432,4|2,1:2|1:2,0:0:0:0:
152,234,283554,1,0,1:0:0:0:
152,234,283642,1,8,0:0:0:0:
196,104,283819,1,2,1:2:0:0:
247,306,283995,2,0,P|261:244|233:189,1,105.000004005432,10|0,0:0|1:0,0:0:0:0:
99,22,284348,6,0,P|84:71|99:121,1,105.000004005432,8|2,1:3|1:2,0:0:0:0:
99,121,284613,1,0,1:0:0:0:
99,121,284701,1,8,0:0:0:0:
285,69,284877,1,2,1:2:0:0:
450,170,285054,1,10,0:0:0:0:
462,147,285142,1,8,0:0:0:0:
469,122,285230,1,8,0:0:0:0:
470,95,285319,1,8,0:0:0:0:
463,67,285407,102,0,P|404:45|363:38,1,105.000004005432,4|2,1:0|0:0,0:0:0:0:
362,37,285672,1,0,1:0:0:0:
362,37,285760,1,8,1:3:0:0:
313,173,285936,1,10,0:0:0:0:
386,287,286113,2,0,P|445:265|486:258,1,105.000004005432,10|8,0:0|0:3,0:0:0:0:
260,354,286466,1,2,1:2:0:0:
260,354,286554,1,0,1:0:0:0:
260,354,286642,1,8,0:0:0:0:
307,193,286819,5,10,0:0:0:0:
367,370,286995,1,0,1:0:0:0:
177,274,287172,2,0,P|158:319|158:381,1,105.000004005432,10|0,0:0|1:0,0:0:0:0:
310,206,287524,102,0,P|253:216|182:125,1,157.500006008148,4|0,1:2|0:0,0:0:0:0:
182,146,287877,1,8,0:0:0:0:
252,26,288054,1,2,1:2:0:0:
67,13,288230,2,0,P|79:61|89:119,1,105.000004005432,10|0,0:0|1:0,0:0:0:0:
3,270,288583,2,0,P|49:231|93:203,1,105.000004005432,8|0,1:3|1:0,0:0:0:0:
268,134,288936,1,8,0:0:0:0:
221,297,289113,1,2,1:2:0:0:
352,259,289289,5,10,0:0:0:0:
330,243,289377,1,8,0:0:0:0:
302,232,289466,1,8,0:0:0:0:
276,224,289554,1,8,0:0:0:0:
251,220,289642,102,0,P|199:218|154:250,1,105.000004005432,4|2,1:0|1:2,0:0:0:0:
190,376,289995,2,0,P|242:378|287:346,1,105.000004005432,8|10,1:3|0:0,0:0:0:0:
284,349,290260,1,0,0:0:0:0:
284,349,290348,1,10,0:0:0:0:
368,178,290524,1,2,1:2:0:0:
473,332,290701,5,2,1:2:0:0:
473,332,290789,1,0,1:0:0:0:
473,332,290877,1,10,0:0:0:0:
287,238,291054,1,10,0:0:0:0:
462,221,291230,1,2,1:2:0:0:
386,376,291407,2,0,P|380:318|373:270,1,105.000004005432,10|0,0:0|1:0,0:0:0:0:
291,147,291760,102,0,P|374:156|420:98,1,157.500006008148,4|0,1:2|0:0,0:0:0:0:
425,91,292113,1,8,0:0:0:0:
329,22,292289,1,2,1:2:0:0:
329,22,292377,1,0,1:0:0:0:
329,22,292466,1,10,0:0:0:0:
212,95,292642,1,2,1:2:0:0:
88,7,292819,6,0,P|64:42|57:105,1,105.000004005432,8|2,1:3|1:2,0:0:0:0:
161,265,293172,2,0,P|188:220|192:168,1,105.000004005432,10|2,0:0|1:2,0:0:0:0:
45,274,293524,1,10,0:0:0:0:
33,297,293613,1,8,0:0:0:0:
26,322,293701,1,10,0:0:0:0:
25,349,293789,1,8,0:0:0:0:
32,377,293877,102,0,P|81:362|143:354,1,105.000004005432,4|2,1:0|1:2,0:0:0:0:
134,354,294142,1,0,1:0:0:0:
134,354,294230,1,8,1:3:0:0:
279,343,294407,1,10,0:0:0:0:
164,223,294583,2,0,P|215:230|266:245,1,105.000004005432,10|8,0:0|1:3,0:0:0:0:
424,322,294936,5,2,1:2:0:0:
424,322,295024,1,0,1:0:0:0:
424,322,295113,1,10,0:0:0:0:
390,242,295289,1,8,0:0:0:0:
352,376,295466,1,2,1:2:0:0:
505,333,295642,1,10,0:0:0:0:
384,237,295819,1,0,1:0:0:0:
511,139,295995,102,0,P|460:130|401:121,1,105.000004005432,4|2,1:2|1:2,0:0:0:0:
407,121,296260,1,0,1:0:0:0:
407,121,296348,1,8,0:0:0:0:
249,191,296524,1,2,1:2:0:0:
257,14,296701,2,0,P|277:65|293:118,1,105.000004005432,10|0,0:0|1:0,0:0:0:0:
323,307,297054,2,0,P|338:256|357:208,1,105.000004005432,8|2,1:3|1:2,0:0:0:0:
357,208,297319,1,0,1:0:0:0:
357,208,297407,1,10,0:0:0:0:
460,37,297583,5,2,1:2:0:0:
279,126,297760,1,10,0:0:0:0:
475,242,297936,1,10,0:0:0:0:
