osu file format v14

[General]
AudioFilename: audio.mp3
AudioLeadIn: 0
PreviewTime: 59306
Countdown: 0
SampleSet: Soft
StackLeniency: 0.7
Mode: 0
LetterboxInBreaks: 0
WidescreenStoryboard: 0

[Editor]
DistanceSpacing: 0.7
BeatDivisor: 4
GridSize: 16
TimelineZoom: 1.7

[Metadata]
Title:Kasanaru Kage
TitleUnicode:かさなる影
Artist:BUTAOTOME
ArtistUnicode:豚乙女
Creator:nanoya
Version:Lunatic
Source:東方紅魔郷 ~ the Embodiment of Scarlet Devil.
Tags:コンプ ランコ comp ranko ツェペシュの幼き末裔 the young descendant of tepes 亡き王女の為のセプテット septette for a dead princess final stage boss theme レミリア・スカーレット remilia scarlet 縁 en video game videogame rock japanese touhou 東方project ZUN th6 eosd
BeatmapID:4319737
BeatmapSetID:2065149

[Difficulty]
HPDrainRate:5
CircleSize:4
OverallDifficulty:8
ApproachRate:8
SliderMultiplier:1.7
SliderTickRate:1

[Events]
//Background and Video events
0,0,"remi.jpg",0,0
//Break Periods
2,104882,109729
2,200505,210344
//Storyboard Layer 0 (Background)
//Storyboard Layer 1 (Fail)
//Storyboard Layer 2 (Pass)
//Storyboard Layer 3 (Foreground)
//Storyboard Layer 4 (Overlay)
//Storyboard Sound Samples

[TimingPoints]
806,461.538461538462,4,2,1,70,1,0
806,-100,4,2,1,70,0,0
15575,-125,4,2,1,50,0,0
45113,-111.111111111111,4,2,1,55,0,0
59882,-100,4,2,1,70,0,1
60113,-100,4,2,1,70,0,0
89421,-125,4,2,1,45,0,0
96113,-125,4,2,1,50,0,0
96806,-125,4,2,1,55,0,0
110882,-125,4,2,1,75,0,0
111575,-111.111111111111,4,2,1,60,0,0
140652,-166.666666666666,4,2,1,40,0,0
141113,-100,4,2,1,70,0,0
170652,-100,4,2,1,75,0,0
200190,-100,4,2,1,45,0,1
200306,-100,4,2,1,5,0,0
211267,-142.857142857143,4,2,1,40,0,0
212190,-142.857142857143,4,2,1,50,0,0
212652,-142.857142857143,4,2,1,60,0,0
213113,-142.857142857143,4,2,1,70,0,0
213575,-142.857142857143,4,2,1,80,0,0
214959,-100,4,2,1,80,0,1
215190,-100,4,2,1,80,0,0
229729,-100,4,2,1,90,0,1
244036,-100,4,2,1,90,0,0
244498,-100,4,2,1,90,0,1
259267,-142.857142857143,4,2,1,50,0,0
259382,-142.857142857143,4,2,1,5,0,0

[Colours]
Combo1 : 128,0,64
Combo2 : 203,50,188
Combo3 : 96,62,134
Combo4 : 64,58,173

[HitObjects]
21,208,806,6,0,P|99:180|187:195,1,170,4|8,1:2|0:0,0:0:0:0:
328,275,1498,1,0,0:0:0:0:
330,129,1729,1,0,1:0:0:0:
330,129,1844,1,8,0:0:0:0:
330,129,1959,1,0,1:0:0:0:
443,187,2190,1,8,0:0:0:0:
445,316,2421,1,0,1:0:0:0:
190,360,2652,6,0,B|210:257|162:291|183:191,1,170,0|8,1:0|0:0,0:0:0:0:
34,57,3344,2,0,P|41:107|67:152,1,85,0|0,0:0|1:0,0:0:0:0:
56,137,3690,1,8,0:0:0:0:
56,137,3806,1,0,1:0:0:0:
251,85,4036,2,0,L|152:73,1,85,8|0,0:0|1:0,0:0:0:0:
166,74,4498,5,0,1:0:0:0:
291,186,4729,2,0,P|340:200|377:202,1,85,0|8,0:0|0:0,0:0:0:0:
146,263,5190,2,0,P|108:280|69:319,1,85,0|0,0:0|1:0,0:0:0:0:
268,382,5652,2,0,P|266:331|247:285,1,85,0|8,1:0|0:0,0:0:0:0:
156,102,6113,1,0,0:0:0:0:
262,140,6344,2,0,P|210:191|84:183,1,170,0|8,1:0|0:0,0:0:0:0:
28,232,7036,5,0,1:0:0:0:
19,217,7152,1,8,0:0:0:0:
14,200,7267,1,0,1:0:0:0:
14,183,7382,1,8,0:0:0:0:
20,167,7498,1,0,1:0:0:0:
175,44,7729,1,8,0:0:0:0:
175,44,7959,1,8,0:0:0:0:
303,290,8190,6,0,P|294:221|292:107,1,170,4|8,1:2|0:0,0:0:0:0:
399,214,8882,1,0,0:0:0:0:
203,216,9113,1,0,1:0:0:0:
203,216,9229,1,8,0:0:0:0:
203,216,9344,1,0,1:0:0:0:
136,137,9575,1,8,0:0:0:0:
197,62,9806,1,0,0:0:0:0:
8,303,10036,6,0,B|104:280|78:331|180:309,1,170,0|8,1:0|0:0,0:0:0:0:
325,358,10729,1,0,1:0:0:0:
333,334,10844,1,8,0:0:0:0:
336,309,10959,1,0,1:0:0:0:
333,283,11075,1,8,0:0:0:0:
323,260,11190,1,0,1:0:0:0:
191,42,11421,2,0,P|181:84|176:129,1,85,8|0,0:0|1:0,0:0:0:0:
80,164,11882,6,0,P|159:161|242:223,1,170,0|8,1:0|0:0,0:0:0:0:
323,260,12575,1,0,0:0:0:0:
402,204,12806,1,0,1:0:0:0:
402,204,12921,1,8,0:0:0:0:
402,204,13036,1,0,1:0:0:0:
364,75,13267,1,8,0:0:0:0:
176,125,13498,2,0,L|141:137,3,28.3333333333333,2|0|0|0,3:0|0:0|1:0|1:0,0:0:0:0:
58,91,13959,5,8,0:0:0:0:
119,231,14190,1,8,0:0:0:0:
197,4,14421,1,8,0:0:0:0:
288,242,14652,1,8,0:0:0:0:
494,308,15575,6,0,P|425:283|335:291,1,136,6|2,1:2|1:2,0:0:0:0:
276,345,16498,1,2,1:2:0:0:
276,345,16613,1,0,0:0:0:0:
276,345,16729,1,0,0:0:0:0:
203,277,16959,1,2,1:2:0:0:
261,211,17190,2,0,P|269:173|269:139,1,68,2|0,0:0|1:0,0:0:0:0:
200,8,17652,5,2,0:0:0:0:
184,100,17882,1,0,1:0:0:0:
114,51,18113,1,2,0:0:0:0:
273,56,18344,2,0,P|319:53|396:48,1,102,2|2,1:2|0:0,0:0:0:0:
352,180,19036,1,2,0:0:0:0:
485,186,19267,6,0,P|423:170|331:191,1,136,2|0,1:2|1:0,0:0:0:0:
247,226,19959,1,0,0:0:0:0:
174,164,20190,1,0,1:0:0:0:
261,140,20421,1,0,0:0:0:0:
261,140,20652,1,0,1:0:0:0:
3,228,20882,5,8,0:0:0:0:
83,339,21113,2,0,P|79:305|89:257,1,68,0|0,1:0|0:0,0:0:0:0:
183,306,21575,2,0,P|198:259|222:227,1,68,0|0,1:0|0:0,0:0:0:0:
286,187,22036,1,0,1:0:0:0:
382,242,22267,1,8,0:0:0:0:
283,75,22498,1,0,1:0:0:0:
472,43,22729,1,8,0:0:0:0:
472,43,22844,1,8,0:0:0:0:
472,43,22959,1,10,0:0:0:0:
510,153,23421,6,0,P|468:141|372:135,1,136,2|2,1:2|1:2,0:0:0:0:
227,137,24229,2,0,P|235:187|244:258,1,102,2|2,0:0|0:0,0:0:0:0:
332,203,25036,5,2,0:0:0:0:
350,291,25267,1,0,1:0:0:0:
252,332,25498,1,2,0:0:0:0:
85,282,25729,6,0,P|131:287|174:295,1,68,2|0,1:2|0:0,0:0:0:0:
152,290,26075,1,2,0:0:0:0:
152,290,26190,1,0,1:0:0:0:
130,195,26421,1,2,0:0:0:0:
193,87,26652,2,0,P|138:104|46:95,1,136,2|0,1:2|1:0,0:0:0:0:
60,99,27344,5,0,0:0:0:0:
15,30,27575,1,0,1:0:0:0:
15,30,27690,1,0,0:0:0:0:
15,30,27806,1,0,0:0:0:0:
0,170,28036,1,0,1:0:0:0:
193,87,28267,5,8,0:0:0:0:
181,189,28498,2,0,P|207:230|215:266,1,68,0|0,1:0|0:0,0:0:0:0:
313,289,28959,2,0,P|349:261|384:246,1,68,0|0,1:0|0:0,0:0:0:0:
287,90,29421,5,0,1:0:0:0:
288,181,29652,1,8,0:0:0:0:
373,132,29882,1,8,0:0:0:0:
100,327,30113,5,0,1:0:0:0:
170,293,30344,2,0,B|218:288|259:302|259:302|281:280|319:270,1,136,6|8,1:2|0:0,0:0:0:0:
385,119,31267,2,0,P|391:168|392:224,1,102,2|2,1:2|0:0,0:0:0:0:
384,251,31729,1,8,0:0:0:0:
250,179,31959,2,0,P|211:174|165:171,1,68,2|0,0:0|1:0,0:0:0:0:
146,80,32421,5,0,0:0:0:0:
233,57,32652,1,10,0:0:0:0:
318,31,32882,1,2,0:0:0:0:
437,107,33113,6,0,P|450:151|449:236,1,102,2|2,1:2|0:0,0:0:0:0:
451,241,33575,2,0,P|403:246|369:255,1,68,8|2,0:0|0:0,0:0:0:0:
229,331,34036,1,2,1:2:0:0:
210,234,34267,1,0,0:0:0:0:
304,219,34498,1,8,0:0:0:0:
319,310,34729,1,0,0:0:0:0:
116,196,34959,5,0,1:0:0:0:
142,297,35190,1,0,1:0:0:0:
210,234,35421,1,8,0:0:0:0:
47,267,35652,1,0,0:0:0:0:
21,136,35882,6,0,P|76:125|105:115,1,68,0|0,1:0|0:0,0:0:0:0:
167,11,36344,2,0,P|117:21|82:37,1,68,8|0,0:0|0:0,0:0:0:0:
216,90,36806,1,0,1:0:0:0:
276,153,37036,1,0,1:0:0:0:
264,244,37267,1,8,0:0:0:0:
264,244,37382,1,0,0:0:0:0:
264,244,37498,1,0,0:0:0:0:
97,327,37729,6,0,P|134:321|187:316,1,68,2|0,1:2|0:0,0:0:0:0:
275,378,38190,2,0,P|278:336|260:234,1,136,10|2,0:0|1:2,0:0:0:0:
104,161,38998,1,2,0:0:0:0:
104,161,39113,1,8,0:0:0:0:
173,232,39344,1,2,0:0:0:0:
284,160,39575,6,0,L|408:148,2,102,2|2|2,1:2|0:0|0:0,0:0:0:0:
187,104,40498,2,0,P|170:68|162:-6,2,102,2|2|2,1:2|0:0|0:0,0:0:0:0:
431,75,41421,6,0,P|468:131|465:205,1,136,2|8,1:2|0:0,0:0:0:0:
282,318,42344,1,0,1:0:0:0:
388,259,42575,1,0,1:0:0:0:
303,236,42806,1,8,0:0:0:0:
370,339,43036,1,0,0:0:0:0:
192,342,43267,5,0,1:0:0:0:
140,271,43498,1,0,0:0:0:0:
187,187,43729,2,0,P|192:144|191:96,2,68,8|0|0,0:0|0:0|1:0,0:0:0:0:
30,174,44421,5,8,0:0:0:0:
192,119,44652,1,8,0:0:0:0:
353,72,44882,1,8,0:0:0:0:
353,72,44998,1,8,0:0:0:0:
353,72,45113,6,0,P|387:130|385:226,1,152.999995330811,6|8,1:2|0:0,0:0:0:0:
322,298,45806,1,2,0:0:0:0:
215,300,46036,2,0,P|197:261|192:215,1,76.4999976654053,2|0,1:2|0:0,0:0:0:0:
191,228,46382,1,2,0:0:0:0:
191,228,46498,1,8,0:0:0:0:
242,146,46729,1,2,1:2:0:0:
0,148,46959,6,0,B|86:131|74:168|161:149,1,152.999995330811,0|8,1:0|0:0,0:0:0:0:
188,61,47652,1,2,0:0:0:0:
351,88,47882,2,0,L|484:98,2,114.749996498108,2|2|2,1:2|0:0|0:0,0:0:0:0:
284,191,48806,6,0,P|303:249|277:338,1,152.999995330811,0|8,1:0|0:0,0:0:0:0:
172,330,49498,1,0,0:0:0:0:
107,253,49729,2,0,P|113:212|114:175,1,76.4999976654053,0|0,1:0|0:0,0:0:0:0:
38,41,50190,2,0,P|31:89|28:124,1,76.4999976654053,8|0,0:0|0:0,0:0:0:0:
132,156,50652,5,0,1:0:0:0:
225,132,50882,1,0,1:0:0:0:
314,111,51113,1,8,0:0:0:0:
314,111,51344,1,0,0:0:0:0:
159,54,51575,5,0,1:0:0:0:
308,199,51806,1,0,1:0:0:0:
187,245,52036,1,8,0:0:0:0:
277,10,52267,1,8,0:0:0:0:
436,129,52498,6,0,P|428:200|426:298,1,152.999995330811,2|8,1:2|0:0,0:0:0:0:
473,367,53190,1,2,0:0:0:0:
324,323,53421,2,0,P|283:319|209:330,2,114.749996498108,2|2|2,1:2|0:0|0:2,0:0:0:0:
266,219,54344,6,0,P|270:177|269:134,1,76.4999976654053,0|0,1:0|0:0,0:0:0:0:
201,45,54806,1,8,0:0:0:0:
75,87,55036,1,2,0:0:0:0:
75,87,55152,1,0,0:0:0:0:
75,87,55267,2,0,P|87:141|90:175,1,76.4999976654053,2|0,1:2|0:0,0:0:0:0:
89,162,55613,1,2,0:0:0:0:
89,162,55729,1,8,0:0:0:0:
182,137,55959,1,2,3:0:0:0:
396,265,56190,6,0,B|434:213|426:161|426:161|389:132,1,152.999995330811,4|8,1:2|0:0,0:0:0:0:
411,37,56882,1,0,1:0:0:0:
383,51,56998,1,8,0:0:0:0:
353,58,57113,1,0,1:0:0:0:
322,59,57229,1,8,0:0:0:0:
291,57,57344,1,0,1:0:0:0:
484,174,57575,1,8,0:0:0:0:
280,253,57806,2,0,P|236:241|181:236,1,76.4999976654053,2|2,3:0|1:2,0:0:0:0:
97,139,58267,5,8,0:0:0:0:
170,375,58498,1,8,0:0:0:0:
325,85,58729,1,8,0:0:0:0:
400,336,58959,1,8,0:0:0:0:
479,183,59882,6,0,P|406:206|310:211,1,170,6|8,1:2|0:0,0:0:0:0:
135,192,60575,1,2,0:0:0:0:
199,354,60806,1,2,1:2:0:0:
199,354,60921,1,8,0:0:0:0:
199,354,61036,1,0,1:0:0:0:
30,317,61267,1,10,0:0:0:0:
124,280,61498,1,2,0:0:0:0:
33,90,61729,6,0,P|38:141|142:190,1,170,0|8,1:0|0:0,0:0:0:0:
326,217,62421,2,0,P|329:167|315:105,1,85,0|0,1:0|1:0,0:0:0:0:
323,132,62767,1,8,0:0:0:0:
323,132,62882,1,0,1:0:0:0:
178,16,63113,1,10,0:0:0:0:
216,123,63344,1,2,1:2:0:0:
454,29,63575,6,0,B|366:13|378:57|286:39,1,170,2|8,1:2|0:2,0:2:0:0:
446,144,64267,1,2,0:0:0:0:
233,233,64498,1,2,1:2:0:0:
335,143,64729,1,0,1:0:0:0:
335,143,64844,1,2,0:0:0:0:
335,143,64959,2,0,P|343:191|341:230,1,85,8|2,0:0|0:0,0:0:0:0:
483,314,65421,6,0,P|398:313|326:353,1,170,0|8,1:0|0:0,0:0:0:0:
173,239,66113,1,0,1:0:0:0:
115,361,66344,1,0,1:0:0:0:
115,361,66459,1,8,0:0:0:0:
115,361,66575,1,0,1:0:0:0:
279,272,66806,1,10,0:0:0:0:
190,115,67036,1,10,0:0:0:0:
469,177,67267,6,0,B|421:164|383:181|383:181|354:154|303:147,1,170,6|8,1:2|0:0,0:0:0:0:
173,50,67959,1,2,1:2:0:0:
183,82,68075,1,8,0:0:0:0:
190,115,68190,1,2,1:2:0:0:
195,148,68306,1,8,0:0:0:0:
197,181,68421,1,0,1:0:0:0:
132,265,68652,2,0,P|89:257|31:253,1,85,8|2,0:0|0:0,0:0:0:0:
286,374,69113,6,0,P|269:328|299:226,1,127.5,0|0,1:0|0:0,0:0:0:0:
310,237,69575,1,8,0:0:0:0:
490,142,69806,1,0,1:0:0:0:
490,142,69921,1,8,0:0:0:0:
364,132,70152,1,8,0:0:0:0:
364,132,70267,1,0,1:0:0:0:
299,28,70498,1,8,0:0:0:0:
299,28,70729,1,2,1:2:0:0:
2,101,70959,5,2,1:2:0:0:
187,136,71190,1,2,1:2:0:0:
79,211,71421,1,8,0:2:0:0:
105,50,71652,1,2,0:0:0:0:
274,107,71882,2,0,P|286:162|264:238,1,127.5,2|0,1:2|0:0,0:0:0:0:
280,264,72344,2,0,P|229:248|183:245,1,85,8|2,0:0|0:0,0:0:0:0:
444,99,72806,5,14,0:0:0:0:
444,99,72921,1,8,0:0:0:0:
403,186,73152,1,0,1:0:0:0:
403,186,73267,1,10,0:0:0:0:
471,262,73498,2,0,L|515:255,1,42.5,8|8,3:0|0:0,0:0:0:0:
320,343,73729,5,6,0:0:0:0:
320,343,73844,2,0,P|266:333|214:332,1,85,8|0,0:0|0:0,0:0:0:0:
205,346,74190,1,8,0:0:0:0:
180,321,74306,1,8,0:0:0:0:
172,287,74421,1,4,3:0:0:0:
23,157,74652,6,0,P|105:166|184:129,1,170,6|8,1:2|0:0,0:0:0:0:
255,195,75344,1,2,0:0:0:0:
425,137,75575,2,0,P|431:92|424:48,1,85,2|0,0:0|1:0,0:0:0:0:
388,17,75921,1,0,3:0:0:0:
335,20,76036,2,0,P|333:79|339:118,1,85,10|2,0:0|0:0,0:0:0:0:
493,254,76498,6,0,P|434:243|358:240,1,127.5,0|0,1:0|0:0,0:0:0:0:
341,258,76959,1,8,0:0:0:0:
192,331,77190,1,0,1:0:0:0:
177,299,77306,1,8,0:0:0:0:
172,264,77421,1,0,1:0:0:0:
179,232,77536,1,8,0:0:0:0:
201,206,77652,1,0,1:0:0:0:
286,162,77882,5,10,0:0:0:0:
286,162,78113,1,2,1:2:0:0:
65,78,78344,2,0,B|162:59|147:100|243:80,1,170,2|8,1:2|0:0,0:0:0:0:
360,11,79036,1,2,1:2:0:0:
360,11,79152,1,8,0:0:0:0:
360,11,79267,1,2,1:2:0:0:
449,142,79498,1,0,1:0:0:0:
449,142,79613,1,2,0:0:0:0:
449,142,79729,2,0,P|391:136|334:134,1,85,8|2,0:0|0:0,0:0:0:0:
103,274,80190,6,0,P|177:317|281:298,1,170,0|8,1:0|0:0,0:0:0:0:
229,111,80882,1,0,1:0:0:0:
229,111,80998,1,8,0:0:0:0:
229,111,81113,1,0,1:0:0:0:
196,225,81344,1,0,1:0:0:0:
21,173,81575,1,10,0:0:0:0:
48,66,81806,1,10,0:0:0:0:
202,22,82036,6,0,P|163:54|39:62,1,170,6|8,1:2|0:0,0:0:0:0:
124,152,82729,1,2,0:0:0:0:
280,115,82959,2,0,P|332:109|414:98,2,127.5,2|2|2,1:2|0:0|0:0,0:0:0:0:
43,210,83882,6,0,P|49:257|72:298,1,85,0|0,1:0|0:0,0:0:0:0:
9,369,84344,2,0,P|70:329|181:329,1,170,8|0,0:0|1:0,0:0:0:0:
361,246,85036,1,0,1:0:0:0:
277,363,85267,2,0,P|271:313|272:274,1,85,8|2,0:0|1:2,0:0:0:0:
208,24,85729,6,0,P|226:83|235:165,1,127.5,6|0,1:2|0:0,0:0:0:0:
227,182,86190,2,0,P|286:171|334:169,1,85,8|0,0:0|0:0,0:0:0:0:
512,116,86652,1,6,1:2:0:0:
487,284,86882,1,0,1:0:0:0:
397,249,87113,2,0,P|396:209|407:155,1,85,8|0,0:0|1:0,0:0:0:0:
136,242,87575,5,14,0:0:0:0:
136,242,87690,1,8,0:0:0:0:
310,169,87921,1,0,1:0:0:0:
310,169,88036,1,8,0:0:0:0:
230,17,88267,2,0,L|175:25,1,42.5,8|8,3:0|0:0,0:0:0:0:
105,71,88498,5,6,1:2:0:0:
387,156,88729,1,8,0:0:0:0:
215,362,88959,1,8,0:0:0:0:
213,327,89075,1,8,0:0:0:0:
211,293,89190,1,8,0:0:0:0:
136,242,89421,6,0,P|198:250|269:221,1,136,4|0,1:2|1:0,0:0:0:0:
333,134,92882,5,8,0:0:0:0:
333,134,93113,1,0,1:0:0:0:
378,109,95190,5,8,0:0:0:0:
168,137,95421,2,0,P|220:133|267:134,1,68,0|8,1:0|0:0,0:0:0:0:
488,335,96113,5,8,0:0:0:0:
409,276,96344,1,8,0:0:0:0:
406,367,96575,1,8,0:0:0:0:
458,128,96806,6,0,B|380:115|394:155|313:139,1,136,6|2,1:2|1:2,0:0:0:0:
179,67,97729,2,0,P|226:64|289:58,1,102,2|2,1:2|0:0,0:0:0:0:
231,196,98421,1,2,0:0:0:0:
231,196,98882,5,2,0:0:0:0:
190,313,99113,2,0,P|227:306|261:307,1,68,2|0,1:2|0:0,0:0:0:0:
190,313,99575,1,2,1:2:0:0:
89,371,99806,2,0,P|72:322|78:250,1,102,2|0,0:0|0:0,0:0:0:0:
93,247,100267,1,2,0:0:0:0:
176,120,100498,6,0,P|187:164|190:196,1,68,2|0,1:2|0:0,0:0:0:0:
279,25,100959,2,0,P|291:67|301:133,2,102,0|0|0,1:0|3:0|0:0,0:0:0:0:
22,155,102113,5,8,0:0:0:0:
38,71,102344,1,0,1:0:0:0:
89,144,102575,2,0,P|52:151|4:158,1,68,0|0,3:0|1:0,0:0:0:0:
196,202,103036,2,0,P|242:195|281:191,1,68,0|0,3:0|1:0,0:0:0:0:
214,102,103498,5,8,0:0:0:0:
248,278,103729,1,8,0:0:0:0:
109,230,103959,5,4,0:3:0:0:
349,197,104190,2,0,P|364:254|347:336,1,136,2|0,3:0|0:0,0:0:0:0:
241,71,110882,5,8,0:0:0:0:
270,330,111113,1,8,0:0:0:0:
255,193,111343,1,8,0:0:0:0:
486,254,111575,6,0,P|494:174|459:95,1,152.999995330811,6|8,1:2|0:0,0:0:0:0:
371,33,112382,1,8,0:0:0:0:
371,33,112498,1,2,1:2:0:0:
347,131,112729,2,0,P|354:179|358:222,1,76.4999976654053,2|0,1:2|0:0,0:0:0:0:
236,170,113190,2,0,P|191:177|155:183,1,76.4999976654053,10|0,0:0|0:0,0:0:0:0:
14,58,113652,5,2,1:2:0:0:
3,145,113882,2,0,P|46:144|98:128,1,76.4999976654053,10|2,0:0|0:0,0:0:0:0:
78,136,114229,1,8,0:0:0:0:
78,136,114344,1,2,1:2:0:0:
164,271,114575,1,0,1:0:0:0:
68,324,114806,2,0,P|60:284|62:237,1,76.4999976654053,10|2,0:0|1:2,0:0:0:0:
194,169,115267,6,0,B|279:149|265:192|361:167,1,152.999995330811,2|8,1:2|0:0,0:0:0:0:
476,83,116075,1,8,0:0:0:0:
476,83,116190,1,0,1:0:0:0:
421,12,116421,1,0,1:0:0:0:
341,35,116652,1,0,3:0:0:0:
449,245,116882,6,0,P|445:199|429:153,1,76.4999976654053,8|0,0:0|0:0,0:0:0:0:
265,174,117344,1,0,1:0:0:0:
334,306,117575,2,0,P|342:264|343:219,1,76.4999976654053,8|0,0:0|0:0,0:0:0:0:
343,230,117921,1,8,0:0:0:0:
300,77,118152,1,8,0:0:0:0:
300,77,118267,1,0,1:0:0:0:
408,145,118498,1,8,0:0:0:0:
207,202,118729,5,0,3:0:0:0:
207,202,118844,1,0,3:0:0:0:
207,202,118959,2,0,P|151:196|44:187,1,152.999995330811,2|10,1:2|0:0,0:0:0:0:
193,302,119767,1,8,0:0:0:0:
193,302,119882,2,0,L|240:296,2,38.2499988327027,2|8|0,1:0|0:0|1:0,0:0:0:0:
313,243,120344,1,2,0:0:0:0:
201,321,120575,1,10,0:0:0:0:
94,276,120806,6,0,P|80:237|78:184,1,76.4999976654053,2|0,0:0|1:2,0:0:0:0:
110,99,121267,1,10,0:0:0:0:
40,31,121498,1,2,1:2:0:0:
40,31,121613,1,8,0:0:0:0:
40,31,121729,1,2,1:2:0:0:
9,123,121959,1,0,1:0:0:0:
203,101,122190,2,0,P|248:93|299:84,1,76.4999976654053,10|2,0:0|1:2,0:0:0:0:
352,188,122652,6,0,P|275:181|202:220,1,152.999995330811,2|8,1:2|0:0,0:0:0:0:
110,304,123459,1,8,0:0:0:0:
110,304,123574,1,0,1:0:0:0:
11,233,123806,2,0,P|1:200|3:138,1,76.4999976654053,8|0,0:0|0:0,0:0:0:0:
118,14,124267,6,0,P|132:61|131:159,1,114.749996498108,8|0,0:0|0:0,0:0:0:0:
123,163,124729,1,0,1:0:0:0:
326,124,124959,1,8,0:0:0:0:
251,331,125190,1,0,1:0:0:0:
251,331,125306,1,8,0:0:0:0:
251,331,125421,2,0,P|241:280|240:240,1,76.4999976654053,0|0,1:0|1:0,0:0:0:0:
247,225,125767,2,0,L|270:212,2,19.1249994163513,8|8|8,0:0|0:0|0:0,0:0:0:0:
221,140,125998,1,8,0:0:0:0:
232,120,126113,1,8,3:0:0:0:
0,210,126344,6,0,L|166:196,1,152.999995330811,6|8,1:2|0:0,0:0:0:0:
343,154,127036,1,2,0:0:0:0:
232,120,127267,2,0,P|226:74|231:36,1,76.4999976654053,2|0,0:2|1:0,0:0:0:0:
229,44,127613,1,0,0:0:0:0:
229,44,127729,1,10,0:0:0:0:
453,94,127959,6,0,P|467:163|444:248,1,152.999995330811,2|0,0:0|0:0,0:0:0:0:
338,289,128652,1,8,0:0:0:0:
438,369,128882,1,2,1:2:0:0:
225,384,129113,6,0,P|231:340|226:293,1,76.4999976654053,2|0,0:0|1:0,0:0:0:0:
279,221,129575,2,0,P|265:176|240:139,1,76.4999976654053,10|2,0:0|0:0,0:0:0:0:
249,151,129921,1,8,0:0:0:0:
249,151,130036,6,0,B|164:134|192:179|91:160,1,152.999995330811,0|8,1:0|0:0,0:0:0:0:
16,237,130729,1,0,1:0:0:0:
16,237,130844,1,8,0:0:0:0:
16,237,130959,1,0,1:0:0:0:
46,340,131190,1,0,1:0:0:0:
107,268,131421,1,8,0:0:0:0:
138,359,131652,1,0,0:0:0:0:
277,299,131882,6,0,P|235:291|191:290,1,76.4999976654053,0|0,1:0|0:0,0:0:0:0:
308,177,132344,1,8,0:0:0:0:
383,259,132575,1,0,1:0:0:0:
383,259,132690,2,0,P|392:316|373:374,1,114.749996498108,8|0,0:0|1:0,0:0:0:0:
244,380,133267,1,8,0:0:0:0:
221,376,133382,1,8,0:0:0:0:
197,373,133498,1,8,3:0:0:0:
0,201,133729,6,0,B|42:208|68:234|68:234|101:214|151:215,1,152.999995330811,6|8,1:2|0:0,0:0:0:0:
288,130,134421,1,2,0:0:0:0:
363,211,134652,2,0,P|405:220|450:225,1,76.4999976654053,2|0,0:0|1:0,0:0:0:0:
438,224,134998,1,2,0:2:0:0:
438,224,135113,1,8,0:0:0:0:
417,128,135344,1,2,1:2:0:0:
496,45,135575,2,0,P|437:44|373:14,1,114.749996498108,0|0,1:0|0:0,0:0:0:0:
370,1,136036,5,8,0:0:0:0:
224,47,136267,1,2,0:0:0:0:
322,173,136498,2,0,P|323:129|317:91,1,76.4999976654053,2|0,1:2|1:0,0:0:0:0:
318,96,136844,1,2,0:0:0:0:
318,96,136959,1,8,0:0:0:0:
237,217,137190,1,2,0:0:0:0:
417,291,137421,6,0,P|338:287|270:332,1,152.999995330811,0|8,1:0|0:0,0:0:0:0:
123,355,138113,1,0,1:0:0:0:
103,331,138229,1,8,0:0:0:0:
91,302,138344,1,0,1:0:0:0:
89,271,138459,1,8,0:0:0:0:
98,241,138575,1,0,1:0:0:0:
326,95,138806,1,8,0:0:0:0:
108,29,139036,2,0,L|65:26,3,25.4999992218018,2|0|0|2,3:0|3:0|3:0|0:0,0:0:0:0:
19,130,139498,5,8,0:0:0:0:
231,23,139729,1,8,0:0:0:0:
450,113,139959,1,8,0:0:0:0:
235,192,140190,1,8,0:0:0:0:
235,192,140652,6,0,P|231:156|234:120,1,50.9999984436036,2|2,0:0|0:0,0:0:0:0:
0,14,141113,6,0,P|-16:84|13:179,1,170,6|8,1:2|0:0,0:0:0:0:
198,285,141806,1,2,0:0:0:0:
318,179,142036,2,0,P|268:181|224:196,1,85,2|0,1:2|1:0,0:0:0:0:
234,191,142382,1,2,0:0:0:0:
234,191,142498,1,8,0:0:0:0:
307,270,142729,1,2,0:0:0:0:
97,356,142959,6,0,L|111:167,1,170,0|8,1:0|0:0,0:0:0:0:
183,79,143652,1,0,1:0:0:0:
151,92,143767,1,8,0:0:0:0:
117,96,143882,1,0,1:0:0:0:
82,92,143998,1,8,0:0:0:0:
53,74,144113,1,0,1:0:0:0:
260,2,144344,2,0,P|271:54|268:107,1,85,10|2,0:0|0:0,0:0:0:0:
465,206,144806,6,0,B|412:199|378:219|378:219|352:186|309:180,1,170,2|8,1:2|0:0,0:0:0:0:
398,117,145498,1,2,0:0:0:0:
367,300,145729,1,2,1:2:0:0:
206,194,145959,1,0,1:0:0:0:
206,194,146075,1,2,0:0:0:0:
206,194,146190,1,8,0:0:0:0:
309,180,146421,1,2,0:0:0:0:
111,71,146652,6,0,B|207:56|193:97|290:76,1,170,0|8,1:0|0:0,0:0:0:0:
490,4,147344,1,0,1:0:0:0:
490,4,147459,1,8,0:0:0:0:
408,162,147690,1,8,0:0:0:0:
408,162,147806,1,0,1:0:0:0:
378,55,148036,1,10,0:0:0:0:
512,186,148267,1,10,0:0:0:0:
250,366,148498,6,0,P|236:280|263:186,1,170,6|8,1:2|0:0,0:0:0:0:
323,125,149190,1,2,0:0:0:0:
185,15,149421,2,0,P|133:25|39:33,1,127.5,2|0,0:0|0:0,0:0:0:0:
30,18,149882,1,10,0:0:0:0:
96,217,150113,1,2,1:2:0:0:
96,217,150229,1,8,0:0:0:0:
96,217,150344,6,0,P|92:160|78:116,1,85,0|0,1:0|0:0,0:0:0:0:
268,149,150806,2,0,P|314:151|434:122,1,170,8|0,0:0|1:0,0:0:0:0:
440,275,151498,1,0,1:0:0:0:
440,275,151613,1,0,1:0:0:0:
440,275,151729,1,8,0:0:0:0:
312,239,151959,1,2,1:2:0:0:
109,317,152190,5,2,1:2:0:0:
223,274,152421,1,2,0:0:0:0:
128,209,152652,1,8,0:0:0:0:
205,377,152882,1,2,1:2:0:0:
316,338,153113,2,0,L|374:333,2,42.5,2|8|2,1:2|0:0|1:2,0:0:0:0:
223,274,153575,2,0,P|209:223|210:171,1,85,8|0,0:0|0:0,0:0:0:0:
450,33,154036,5,14,0:0:0:0:
450,33,154152,1,8,0:0:0:0:
365,115,154382,1,0,1:0:0:0:
344,119,154498,1,10,0:2:0:0:
322,117,154613,1,0,1:0:0:0:
302,109,154729,1,0,1:0:0:0:
76,16,154959,5,2,1:2:0:0:
76,16,155075,1,8,0:0:0:0:
184,130,155306,2,0,L|180:97,2,21.25,0|0|10,3:0|3:0|0:0,0:0:0:0:
117,188,155536,2,0,L|122:240,1,42.5,8|8,0:0|3:0,0:0:0:0:
39,332,155767,5,4,3:0:0:0:
39,332,155883,2,0,B|130:308|111:350|215:324,1,170,6|8,1:2|0:0,0:0:0:0:
375,252,156575,1,2,0:0:0:0:
477,326,156806,2,0,P|482:281|485:237,1,85,2|0,1:2|1:0,0:0:0:0:
484,241,157152,1,2,0:0:0:0:
484,241,157267,1,8,0:0:0:0:
498,85,157498,6,0,P|457:139|342:128,1,170,2|0,1:2|0:0,0:0:0:0:
143,182,158190,2,0,P|133:138|136:92,1,85,8|0,0:0|1:0,0:0:0:0:
128,64,158536,1,8,0:0:0:0:
158,47,158652,1,0,1:0:0:0:
191,47,158767,1,8,0:0:0:0:
221,59,158882,1,0,1:0:0:0:
242,332,159113,5,10,0:0:0:0:
265,199,159344,1,2,1:2:0:0:
30,284,159575,2,0,B|-18:231|9:160|9:160|71:141,1,170,2|8,1:2|0:0,0:0:0:0:
277,91,160267,1,2,1:2:0:0:
277,91,160382,1,8,0:0:0:0:
277,91,160498,1,2,1:2:0:0:
190,20,160729,1,0,1:0:0:0:
186,128,160959,1,10,0:0:0:0:
274,183,161190,1,2,0:0:0:0:
181,332,161421,6,0,P|229:291|350:310,2,170,0|8|0,1:0|0:0|1:0,0:0:0:0:
181,332,162575,1,0,1:0:0:0:
40,161,162806,2,0,P|49:204|53:263,1,85,10|10,0:0|0:0,0:0:0:0:
338,160,163267,6,0,P|334:92|295:21,1,127.5,6|0,1:2|0:0,0:0:0:0:
277,24,163729,1,8,0:0:0:0:
155,92,163959,1,2,1:2:0:0:
155,92,164075,1,0,0:0:0:0:
155,92,164190,2,0,P|166:144|169:183,1,85,2|0,1:2|1:0,0:0:0:0:
168,175,164536,1,2,1:2:0:0:
168,175,164652,1,8,0:0:0:0:
21,105,164882,1,2,0:0:0:0:
114,271,165113,6,0,P|160:233|276:243,1,170,0|8,1:0|0:0,0:0:0:0:
424,167,165806,1,0,1:0:0:0:
441,196,165921,1,8,0:0:0:0:
450,228,166036,1,0,1:0:0:0:
453,261,166152,1,8,0:0:0:0:
448,294,166267,1,0,1:0:0:0:
315,361,166498,1,8,0:0:0:0:
228,178,166729,5,2,1:2:0:0:
228,178,166844,1,0,0:0:0:0:
228,178,166959,2,0,P|233:232|231:284,1,85,6|0,1:2|0:0,0:0:0:0:
424,167,167421,2,0,P|480:160|532:162,1,85,8|0,0:0|0:0,0:0:0:0:
508,160,167882,1,6,1:2:0:0:
337,212,168113,1,0,1:0:0:0:
259,74,168344,2,0,P|212:84|164:84,1,85,8|0,0:0|0:0,0:0:0:0:
18,152,168806,5,14,0:0:0:0:
18,152,168921,1,8,0:0:0:0:
132,328,169152,1,0,1:0:0:0:
132,328,169267,2,0,L|126:239,1,85,8|8,0:0|3:0,0:0:0:0:
117,217,169613,1,8,0:0:0:0:
17,288,169844,1,0,1:0:0:0:
17,288,169959,1,8,0:0:0:0:
247,226,170190,5,8,0:0:0:0:
257,202,170306,1,8,0:0:0:0:
249,177,170421,1,8,3:0:0:0:
259,153,170536,1,4,3:0:0:0:
253,126,170652,6,0,P|300:125|343:104,1,85,4|0,1:2|0:0,0:0:0:0:
334,110,171113,1,8,0:0:0:0:
246,311,171344,2,0,P|296:280|412:293,1,170,0|0,1:0|1:0,0:0:0:0:
299,201,172036,1,8,0:0:0:0:
153,254,172267,1,0,3:0:0:0:
21,178,172498,5,0,1:0:0:0:
180,122,172729,1,0,0:0:0:0:
0,168,172959,1,8,0:0:0:0:
81,49,173190,2,0,P|91:99|95:141,1,85,8|0,0:0|1:0,0:0:0:0:
94,132,173536,1,8,0:0:0:0:
94,132,173652,1,0,1:0:0:0:
331,286,173882,2,0,P|284:278|232:278,1,85,8|0,0:0|0:0,0:0:0:0:
246,277,174229,5,0,1:0:0:0:
246,277,174344,2,0,B|265:174|220:202|240:93,1,170,0|8,1:0|0:0,0:0:0:0:
447,4,175036,2,0,P|460:59|449:149,1,127.5,0|8,1:0|0:0,0:0:0:0:
466,164,175498,1,0,1:0:0:0:
316,206,175729,2,0,P|274:198|221:195,1,85,8|2,0:0|3:0,0:0:0:0:
231,195,176075,1,0,3:0:0:0:
231,195,176190,1,0,1:0:0:0:
115,103,176421,5,2,3:0:0:0:
90,109,176536,1,0,3:0:0:0:
64,115,176652,1,8,0:0:0:0:
282,31,176882,5,2,3:0:0:0:
298,35,176998,1,0,3:0:0:0:
314,39,177113,1,0,1:0:0:0:
180,5,177344,5,2,1:3:0:0:
180,5,177459,1,0,3:0:0:0:
180,5,177575,1,8,0:0:0:0:
240,204,177806,1,8,0:0:0:0:
379,108,178036,2,0,B|278:81|305:127|207:102,1,170,4|8,1:2|0:0,0:0:0:0:
56,40,178729,2,0,P|40:93|39:141,1,85,0|0,3:0|1:0,0:0:0:0:
153,178,179190,1,0,1:0:0:0:
68,318,179421,2,0,P|56:271|61:223,1,85,8|0,0:0|1:0,0:0:0:0:
76,214,179767,1,8,0:0:0:0:
108,203,179882,6,0,P|156:200|191:187,1,85,0|0,1:0|1:0,0:0:0:0:
261,261,180344,5,8,0:0:0:0:
351,292,180575,1,8,0:0:0:0:
494,200,180806,5,0,1:0:0:0:
464,195,180921,1,8,0:0:0:0:
434,191,181036,1,0,1:0:0:0:
404,186,181152,1,0,1:0:0:0:
374,181,181267,1,8,0:0:0:0:
410,96,181498,1,0,1:0:0:0:
189,16,181729,6,0,P|181:59|184:107,1,85,0|0,1:0|3:0,0:0:0:0:
182,100,182075,1,0,3:0:0:0:
182,100,182190,1,8,0:0:0:0:
119,291,182421,1,0,3:0:0:0:
296,239,182652,1,0,1:0:0:0:
182,208,182882,1,0,1:0:0:0:
387,127,183113,6,0,L|453:138,1,42.5,8|0,0:0|0:0,0:0:0:0:
249,44,183344,2,0,L|211:50,2,28.3333333333333,0|0|0,3:0|3:0|3:0,0:0:0:0:
274,58,183575,1,8,0:0:0:0:
290,70,183690,2,0,P|297:119|289:173,1,85,8|0,0:0|1:0,0:0:0:0:
291,189,184036,2,0,L|198:204,1,85,8|8,0:0|3:0,0:0:0:0:
172,192,184382,1,8,0:0:0:0:
9,144,184613,1,8,0:0:0:0:
9,144,184729,1,4,3:0:0:0:
183,349,184959,5,4,3:0:0:0:
202,326,185075,1,8,0:0:0:0:
229,314,185190,1,8,0:0:0:0:
258,313,185306,1,0,1:0:0:0:
285,324,185421,5,4,1:2:0:0:
434,370,185652,2,0,P|435:327|442:282,1,85,0|8,1:0|0:0,0:0:0:0:
339,92,186113,1,0,1:0:0:0:
288,168,186344,1,0,3:0:0:0:
353,239,186575,1,0,1:0:0:0:
203,169,186806,2,0,P|160:164|103:165,1,85,8|0,0:0|0:0,0:0:0:0:
355,9,187267,6,0,P|340:64|339:107,1,85,0|0,1:0|1:0,0:0:0:0:
338,91,187613,1,0,0:0:0:0:
338,91,187729,1,8,0:0:0:0:
493,310,187959,2,0,P|517:233|475:132,1,170,0|8,3:0|0:0,0:0:0:0:
245,271,188882,1,0,1:0:0:0:
87,199,189113,6,0,B|132:193|169:210|169:210|193:179|254:168,1,170,0|8,1:0|0:0,0:0:0:0:
390,30,189806,1,0,1:0:0:0:
390,30,189921,1,8,0:0:0:0:
390,30,190036,1,0,1:0:0:0:
434,177,190267,1,0,1:0:0:0:
324,113,190498,1,8,0:0:0:0:
324,113,190613,1,0,3:0:0:0:
324,113,190729,1,0,3:0:0:0:
85,57,190959,5,0,1:0:0:0:
34,157,191190,1,0,3:0:0:0:
86,270,191421,1,8,0:0:0:0:
221,285,191652,1,8,0:0:0:0:
341,344,191882,6,0,P|362:289|356:210,1,127.5,0|0,1:0|0:0,0:0:0:0:
367,190,192344,2,0,P|303:204|271:207,1,85,8|0,0:0|1:0,0:0:0:0:
36,26,192806,5,4,1:2:0:0:
64,130,193036,1,0,3:0:0:0:
64,130,193152,1,0,1:0:0:0:
64,130,193267,1,8,0:0:0:0:
88,223,193498,1,2,3:0:0:0:
231,122,193729,2,0,P|280:110|342:109,1,85,0|0,1:0|1:0,0:0:0:0:
280,367,194190,2,0,P|278:302|265:230,1,127.5,8|8,0:0|0:0,0:0:0:0:
247,215,194652,5,0,1:0:0:0:
377,284,194882,1,2,3:0:0:0:
377,284,194998,1,0,1:0:0:0:
377,284,195113,2,0,P|425:289|465:307,1,85,8|0,0:0|1:0,0:0:0:0:
511,192,195575,6,0,P|422:201|354:146,1,170,0|8,3:0|0:0,0:0:0:0:
360,155,196267,1,0,1:0:0:0:
95,177,196498,2,0,P|83:130|90:48,1,127.5,4|0,1:2|0:0,0:0:0:0:
112,27,196959,1,8,0:0:0:0:
234,191,197190,2,0,P|259:255|236:356,1,170,0|0,3:0|0:0,0:0:0:0:
26,317,197882,2,0,P|75:298|128:297,1,85,8|0,0:0|0:0,0:0:0:0:
128,274,198190,6,0,L|170:291,2,28.3333333333333,0|8|8,0:0|0:0|0:0,0:0:0:0:
147,202,198459,1,8,0:0:0:0:
0,190,198690,5,0,1:0:0:0:
0,190,198806,1,8,0:0:0:0:
64,31,199036,1,0,1:0:0:0:
323,87,199267,5,8,3:0:0:0:
191,115,199498,1,0,1:0:0:0:
164,224,199729,1,4,3:0:0:0:
214,303,199959,1,4,3:0:0:0:
261,316,200190,6,0,L|332:306,1,42.5,6|0,0:0|0:0,0:0:0:0:
107,68,211267,6,0,L|119:176,1,89.2499972763062,2|0,0:3|0:0,0:0:0:0:
109,184,211729,5,10,0:2:0:0:
154,274,211959,1,2,1:2:0:0:
272,91,212190,5,2,1:2:0:0:
207,189,212421,1,0,1:0:0:0:
459,208,212652,5,0,1:0:0:0:
316,174,212882,1,2,1:2:0:0:
353,366,213113,5,2,1:2:0:0:
383,268,213344,1,10,0:0:0:0:
341,147,213575,1,10,0:0:0:0:
212,88,213806,1,8,0:0:0:0:
46,125,214036,5,10,0:0:0:0:
46,125,214152,1,8,0:0:0:0:
46,125,214267,1,8,0:0:0:0:
125,340,214498,1,10,0:0:0:0:
277,227,214729,1,2,1:2:0:0:
277,227,214844,1,8,0:0:0:0:
277,227,214959,6,0,L|149:211,1,127.5,6|0,1:2|0:0,0:0:0:0:
117,222,215421,1,8,0:0:0:0:
33,42,215652,1,2,0:0:0:0:
33,42,215882,2,0,P|83:78|191:56,1,170,2|10,1:2|0:0,0:0:0:0:
413,16,216575,1,2,0:0:0:0:
413,16,216690,1,0,0:0:0:0:
413,16,216806,5,0,1:0:0:0:
384,208,217036,1,0,1:0:0:0:
482,120,217267,1,8,0:0:0:0:
328,84,217498,1,0,0:0:0:0:
257,206,217729,1,0,1:0:0:0:
257,206,217844,1,8,0:0:0:0:
257,206,217959,1,0,1:0:0:0:
98,153,218190,6,0,P|54:151|5:144,1,85,10|2,0:0|1:2,0:0:0:0:
97,347,218652,2,0,P|153:307|263:314,1,170,2|8,1:2|0:0,0:0:0:0:
463,204,219344,1,2,1:2:0:0:
439,221,219459,1,8,0:0:0:0:
409,227,219575,1,2,1:2:0:0:
379,226,219690,1,8,0:0:0:0:
350,215,219806,1,0,1:0:0:0:
211,108,220036,2,0,P|207:66|211:18,1,85,10|2,0:0|0:0,0:0:0:0:
238,219,220498,5,0,1:0:0:0:
323,96,220729,1,0,1:0:0:0:
152,168,220959,1,8,0:0:0:0:
42,140,221190,1,0,0:0:0:0:
41,50,221421,1,0,1:0:0:0:
128,4,221652,1,0,1:0:0:0:
198,76,221882,1,10,0:0:0:0:
198,76,222113,1,10,0:0:0:0:
90,301,222344,6,0,P|88:253|74:195,1,85,6|0,1:2|0:0,0:0:0:0:
20,371,222806,2,0,P|85:337|210:355,1,170,8|2,0:0|0:0,0:0:0:0:
264,202,223498,1,0,1:0:0:0:
264,202,223613,1,2,0:0:0:0:
264,202,223729,1,8,0:0:0:0:
153,84,223959,2,0,P|160:138|156:189,1,85,2|0,0:0|1:0,0:0:0:0:
405,33,224421,5,0,1:0:0:0:
405,33,224536,1,0,0:0:0:0:
405,33,224652,1,8,0:0:0:0:
253,57,224882,1,0,1:0:0:0:
287,200,225113,1,0,1:0:0:0:
287,200,225229,1,8,0:0:0:0:
287,200,225344,1,0,1:0:0:0:
434,170,225575,1,8,0:0:0:0:
156,169,225806,5,2,1:2:0:0:
156,169,225921,1,0,0:0:0:0:
156,169,226036,2,0,L|27:158,1,127.5,6|0,1:2|0:0,0:0:0:0:
7,152,226498,2,0,P|15:212|11:253,1,85,8|0,0:0|0:0,0:0:0:0:
167,342,226959,1,6,1:2:0:0:
167,342,227075,1,8,0:0:0:0:
267,326,227306,1,8,0:0:0:0:
267,326,227421,1,0,1:0:0:0:
358,303,227652,1,8,0:0:0:0:
262,117,227882,5,14,0:0:0:0:
278,151,227998,1,8,0:0:0:0:
308,173,228113,1,0,1:0:0:0:
344,185,228229,1,0,1:0:0:0:
382,183,228344,1,12,0:0:0:0:
382,183,228575,2,0,L|389:123,1,42.5,4|8,1:2|0:0,0:0:0:0:
406,9,228921,1,8,0:0:0:0:
406,9,229036,1,12,0:0:0:0:
71,85,229267,5,12,0:0:0:0:
65,114,229382,1,8,0:0:0:0:
68,143,229498,1,8,3:0:0:0:
76,171,229613,1,4,3:0:0:0:
94,194,229729,6,0,P|136:191|186:174,1,85,4|0,1:2|0:0,0:0:0:0:
216,58,230190,1,8,0:0:0:0:
220,338,230420,2,0,P|255:291|268:242,1,85,8|0,0:0|0:0,0:0:0:0:
292,160,230882,5,0,1:0:0:0:
408,294,231113,2,0,P|396:238|370:204,1,85,8|0,0:0|0:0,0:0:0:0:
432,72,231575,5,0,1:0:0:0:
350,87,231806,2,0,P|399:72|464:81,1,85,0|8,1:0|0:0,0:0:0:0:
200,150,232267,1,0,1:0:0:0:
200,150,232382,1,8,0:0:0:0:
200,150,232498,1,0,1:0:0:0:
182,19,232729,1,0,1:0:0:0:
211,160,232959,2,0,P|151:171|117:183,1,85,8|0,0:0|0:0,0:0:0:0:
11,88,233421,6,0,P|44:156|38:266,1,170,0|8,1:0|0:0,0:0:0:0:
219,366,234113,2,0,P|213:324|222:275,1,85,8|0,0:0|0:0,0:0:0:0:
301,329,234575,1,0,1:0:0:0:
122,295,234806,1,8,0:0:0:0:
286,201,235036,1,0,3:0:0:0:
143,53,235267,5,0,1:0:0:0:
180,171,235498,1,0,1:0:0:0:
226,88,235729,1,8,0:0:0:0:
330,107,235959,5,0,1:0:0:0:
330,107,236075,1,8,0:0:0:0:
330,107,236190,1,0,1:0:0:0:
464,84,236421,1,0,1:0:0:0:
335,281,236652,2,0,P|274:271|238:270,1,85,8|0,0:0|1:0,0:0:0:0:
180,171,237113,6,0,P|137:206|23:210,1,170,4|8,1:2|0:0,0:0:0:0:
88,119,237806,2,0,P|83:81|67:34,1,85,8|0,0:0|0:0,0:0:0:0:
274,92,238267,2,0,P|285:141|300:193,1,85,0|8,1:0|0:0,0:0:0:0:
274,92,238729,1,0,3:0:0:0:
390,185,238959,5,0,1:0:0:0:
231,234,239190,1,0,1:0:0:0:
285,365,239421,1,8,0:0:0:0:
337,276,239652,1,0,1:0:0:0:
337,276,239767,1,8,0:0:0:0:
337,276,239882,1,0,1:0:0:0:
178,337,240113,1,0,1:0:0:0:
83,209,240344,1,12,0:0:0:0:
83,209,240806,6,0,B|181:190|160:236|258:213,1,170,4|8,1:2|0:0,0:0:0:0:
481,120,241498,2,0,P|482:172|490:220,1,85,0|0,1:0|0:0,0:0:0:0:
295,125,241959,1,0,1:0:0:0:
386,49,242190,2,0,P|392:97|391:137,1,85,8|0,0:0|3:0,0:0:0:0:
380,161,242536,1,8,0:0:0:0:
360,183,242652,6,0,L|302:173,2,42.5,12|8|0,0:0|0:0|0:0,0:0:0:0:
435,268,242998,1,0,1:0:0:0:
435,268,243113,2,0,P|445:316|435:364,1,85,8|4,0:0|1:2,0:0:0:0:
417,377,243459,1,8,0:0:0:0:
191,280,243690,1,8,0:0:0:0:
191,280,243806,1,4,1:2:0:0:
27,187,244036,5,12,0:0:0:0:
65,192,244152,1,8,0:0:0:0:
102,184,244267,1,8,0:0:0:0:
128,157,244382,1,8,3:0:0:0:
141,121,244498,5,4,1:2:0:0:
180,25,244729,1,0,1:0:0:0:
87,0,244959,1,8,0:0:0:0:
57,87,245190,1,0,1:0:0:0:
362,149,245421,5,0,1:0:0:0:
234,109,245652,1,0,1:0:0:0:
328,253,245882,1,8,0:0:0:0:
196,210,246113,1,0,3:0:0:0:
196,210,246229,1,0,3:0:0:0:
196,210,246344,6,0,P|136:219|90:218,1,85,0|0,1:0|0:0,0:0:0:0:
111,219,246690,1,0,1:0:0:0:
111,219,246806,2,0,P|121:279|118:319,1,85,8|0,0:0|0:0,0:0:0:0:
419,211,247267,5,0,1:0:0:0:
419,211,247382,1,8,0:0:0:0:
266,270,247613,1,8,0:0:0:0:
266,270,247729,1,8,0:0:0:0:
297,112,247959,1,8,0:0:0:0:
91,64,248190,6,0,P|80:122|88:186,1,85,0|0,1:0|0:0,0:0:0:0:
185,127,248652,1,8,0:0:0:0:
47,251,248882,1,0,1:0:0:0:
73,238,248998,1,8,0:0:0:0:
101,228,249113,1,0,1:0:0:0:
130,224,249229,1,8,0:0:0:0:
159,225,249344,1,0,1:0:0:0:
341,260,249575,2,0,P|334:313|332:359,1,85,8|0,0:0|0:0,0:0:0:0:
332,344,249921,1,0,3:0:0:0:
332,344,250036,6,0,P|375:347|436:359,1,85,0|0,1:0|1:0,0:0:0:0:
159,225,250498,2,0,P|116:222|55:210,1,85,8|0,0:0|0:0,0:0:0:0:
74,215,250844,1,0,3:0:0:0:
74,215,250959,2,0,P|73:159|108:88,1,127.5,0|0,3:0|0:0,0:0:0:0:
133,88,251421,1,8,0:0:0:0:
311,9,251652,2,0,L|305:71,1,42.5,2|0,3:0|3:0,0:0:0:0:
374,207,251882,6,0,P|284:224|215:175,1,170,4|8,1:2|0:0,0:0:0:0:
118,250,252575,2,0,P|119:301|127:347,1,85,0|0,3:0|1:0,0:0:0:0:
124,334,252921,1,0,3:0:0:0:
124,334,253036,1,0,1:0:0:0:
271,372,253267,2,0,P|316:362|364:361,1,85,8|0,0:0|0:0,0:0:0:0:
354,360,253613,1,0,3:0:0:0:
354,360,253729,5,0,1:0:0:0:
504,260,253959,1,0,3:0:0:0:
504,260,254075,1,0,3:0:0:0:
504,260,254190,1,8,0:0:0:0:
396,117,254536,1,8,0:0:0:0:
396,117,254652,1,0,1:0:0:0:
270,159,254882,1,0,1:0:0:0:
285,272,255113,2,0,P|332:267|375:248,1,85,8|0,0:0|1:0,0:0:0:0:
494,283,255575,6,0,P|485:233|491:188,1,85,0|0,1:0|1:0,0:0:0:0:
488,199,255921,1,0,3:0:0:0:
488,199,256036,1,8,0:0:0:0:
473,94,256267,1,8,0:0:0:0:
359,108,256498,2,0,P|353:63|360:19,1,85,0|0,1:0|1:0,0:0:0:0:
251,148,256959,2,0,P|252:202|244:246,1,85,8|0,0:0|0:0,0:0:0:0:
13,138,257421,5,12,0:0:0:0:
13,138,257536,1,8,0:0:0:0:
140,86,257767,1,4,0:0:0:0:
140,86,257882,1,8,0:0:0:0:
0,307,258113,5,8,0:0:0:0:
0,307,258229,1,12,0:0:0:0:
274,156,258459,1,8,0:0:0:0:
274,156,258575,1,12,0:0:0:0:
207,363,258806,5,12,0:0:0:0:
207,363,258921,1,8,3:0:0:0:
207,363,259036,1,8,0:0:0:0:
127,312,259267,6,0,L|132:268,1,29.7499990921021,6|0,0:0|0:0,0:0:0:0:
