osu file format v14

[General]
AudioFilename: audio.mp3
AudioLeadIn: 0
PreviewTime: 37771
Countdown: 0
SampleSet: Normal
StackLeniency: 0.7
Mode: 1
LetterboxInBreaks: 0
WidescreenStoryboard: 1

[Editor]
DistanceSpacing: 0.1
BeatDivisor: 4
GridSize: 32
TimelineZoom: 4.599998

[Metadata]
Title:In the Black
TitleUnicode:イン・ザ・ブラック
Artist:BUTAOTOME
ArtistUnicode:豚乙女
Creator:Nwolf
Version:Oni
Source:東方憑依華 ~ Antinomy of Common Flowers.
Tags:Japanese Pop Rock 東方project toho project buta otome Akiyama Uni U2 あきやまうに video game videogame in za burakku touhou 15.5 二ッ岩 マミゾウ futatsuiwa mamizou comp コンプ ranko ランコ in the deep green youkai tanuki tanooki forest
BeatmapID:4444839
BeatmapSetID:1068835

[Difficulty]
HPDrainRate:6
CircleSize:4
OverallDifficulty:6
ApproachRate:10
SliderMultiplier:1.4
SliderTickRate:1

[Events]
//Background and Video events
0,0,"34923004.jpg",0,70
//Break Periods
//Storyboard Layer 0 (Background)
//Storyboard Layer 1 (Fail)
//Storyboard Layer 2 (Pass)
//Storyboard Layer 3 (Foreground)
//Storyboard Layer 4 (Overlay)
//Storyboard Sound Samples

[TimingPoints]
410,267.857142857143,4,1,0,80,1,0
10119,-114.942528735632,4,1,0,70,0,0
27195,-107.52688172043,4,1,0,75,0,0
28401,-105.263157894737,4,1,0,75,0,0
29472,-102.564102564103,4,1,0,75,0,0
30543,-100,4,1,0,75,0,0
31615,-97.5609756097561,4,1,0,75,0,0
35767,-80,4,1,0,75,0,0
36637,-88.8888888888889,4,1,0,80,0,0
37910,-100,4,1,0,90,0,1
55052,-100,4,1,0,80,0,0
63758,-114.942528735632,4,1,0,70,0,0
80767,-107.52688172043,4,1,0,75,0,0
81972,-105.263157894737,4,1,0,75,0,0
83043,-102.564102564103,4,1,0,75,0,0
84115,-100,4,1,0,75,0,0
85186,-97.5609756097561,4,1,0,75,0,0
89338,-80,4,1,0,75,0,0
89472,-88.8888888888889,4,1,0,80,0,0
91481,-100,4,1,0,90,0,1
108624,-100,4,1,0,80,0,0
125633,-133.333333333333,4,1,0,30,0,0
134003,-133.333333333333,4,1,0,60,0,0
134338,-95.2380952380952,4,1,0,90,0,1
169695,-95.2380952380952,4,1,0,90,0,0

[HitObjects]
224,224,410,5,4,0:0:0:0:
224,160,543,1,0,0:0:0:0:
224,160,610,1,0,0:0:0:0:
288,160,677,1,8,0:0:0:0:
224,160,811,1,0,0:0:0:0:
288,160,945,1,8,0:0:0:0:
288,160,1012,1,8,0:0:0:0:
224,160,1079,1,0,0:0:0:0:
288,160,1213,1,8,0:0:0:0:
288,160,1347,1,8,0:0:0:0:
224,160,1481,1,0,0:0:0:0:
224,160,1548,1,0,0:0:0:0:
288,160,1615,1,8,0:0:0:0:
288,160,1682,1,8,0:0:0:0:
224,160,1749,1,0,0:0:0:0:
288,160,1883,1,8,0:0:0:0:
288,160,2151,1,8,0:0:0:0:
288,160,2285,1,8,0:0:0:0:
224,160,2418,1,0,0:0:0:0:
224,160,2485,1,0,0:0:0:0:
288,160,2552,1,8,0:0:0:0:
288,160,2619,1,8,0:0:0:0:
224,160,2686,1,0,0:0:0:0:
288,160,2820,1,8,0:0:0:0:
224,160,2954,1,0,0:0:0:0:
288,160,3222,1,8,0:0:0:0:
288,160,3356,1,8,0:0:0:0:
224,160,3490,1,0,0:0:0:0:
224,160,3557,1,0,0:0:0:0:
288,160,3624,1,8,0:0:0:0:
288,160,3691,1,8,0:0:0:0:
224,160,3758,1,0,0:0:0:0:
288,160,3892,1,8,0:0:0:0:
288,160,4026,1,8,0:0:0:0:
224,160,4293,1,0,0:0:0:0:
288,160,4427,1,8,0:0:0:0:
224,160,4561,1,0,0:0:0:0:
224,160,4695,1,0,0:0:0:0:
224,160,4829,1,0,0:0:0:0:
224,160,4896,1,0,0:0:0:0:
288,160,4963,1,8,0:0:0:0:
224,160,5097,1,0,0:0:0:0:
288,160,5231,1,8,0:0:0:0:
288,160,5298,1,8,0:0:0:0:
224,160,5365,1,0,0:0:0:0:
288,160,5499,1,8,0:0:0:0:
288,160,5633,1,8,0:0:0:0:
224,160,5767,1,0,0:0:0:0:
224,160,5834,1,0,0:0:0:0:
288,160,5901,1,8,0:0:0:0:
288,160,5968,1,8,0:0:0:0:
224,160,6035,1,0,0:0:0:0:
288,160,6168,1,8,0:0:0:0:
288,160,6436,1,8,0:0:0:0:
288,160,6570,1,8,0:0:0:0:
224,160,6704,1,0,0:0:0:0:
224,160,6771,1,0,0:0:0:0:
288,160,6838,1,8,0:0:0:0:
224,160,6905,1,0,0:0:0:0:
288,160,6972,1,8,0:0:0:0:
224,160,7106,1,0,0:0:0:0:
224,160,7240,1,0,0:0:0:0:
224,160,7307,1,0,0:0:0:0:
288,160,7374,1,8,0:0:0:0:
288,160,7508,1,8,0:0:0:0:
288,160,7642,1,8,0:0:0:0:
288,160,7776,1,8,0:0:0:0:
224,160,7910,1,0,0:0:0:0:
288,160,8177,1,8,0:0:0:0:
224,160,8311,1,0,0:0:0:0:
224,160,8579,1,0,0:0:0:0:
288,160,8713,1,8,0:0:0:0:
224,160,8847,1,0,0:0:0:0:
224,160,8981,1,0,0:0:0:0:
288,224,9115,1,12,0:0:0:0:
288,224,9383,1,12,0:0:0:0:
288,224,9651,1,12,0:0:0:0:
288,224,9785,1,12,0:0:0:0:
224,224,10052,5,4,0:0:0:0:
288,160,10320,1,8,0:0:0:0:
288,160,10454,1,8,0:0:0:0:
224,160,10588,1,0,0:0:0:0:
288,160,10856,1,8,0:0:0:0:
288,160,10990,1,8,0:0:0:0:
224,160,11124,1,0,0:0:0:0:
224,160,11258,1,0,0:0:0:0:
224,160,11325,1,0,0:0:0:0:
288,160,11392,1,8,0:0:0:0:
288,160,11660,1,8,0:0:0:0:
224,160,11793,1,0,0:0:0:0:
288,160,11927,1,8,0:0:0:0:
224,160,12195,1,0,0:0:0:0:
224,160,12329,1,0,0:0:0:0:
288,160,12463,1,8,0:0:0:0:
288,160,12597,1,8,0:0:0:0:
224,160,12731,1,0,0:0:0:0:
288,160,12999,1,8,0:0:0:0:
224,160,13133,1,0,0:0:0:0:
224,160,13200,1,0,0:0:0:0:
224,160,13267,1,0,0:0:0:0:
288,160,13535,1,8,0:0:0:0:
224,160,13668,1,0,0:0:0:0:
224,160,13936,1,0,0:0:0:0:
288,160,14070,1,8,0:0:0:0:
224,160,14204,1,0,0:0:0:0:
224,160,14338,1,0,0:0:0:0:
288,160,14606,1,8,0:0:0:0:
224,160,14740,1,0,0:0:0:0:
224,160,14874,1,0,0:0:0:0:
288,160,15142,1,8,0:0:0:0:
224,160,15276,1,0,0:0:0:0:
224,160,15410,1,0,0:0:0:0:
288,160,15677,1,8,0:0:0:0:
288,160,15744,1,8,0:0:0:0:
224,160,15811,1,0,0:0:0:0:
288,160,15945,1,8,0:0:0:0:
224,160,16079,1,0,0:0:0:0:
288,160,16213,1,8,0:0:0:0:
224,160,16481,1,0,0:0:0:0:
224,160,16615,1,0,0:0:0:0:
288,160,16749,1,8,0:0:0:0:
224,160,16883,1,0,0:0:0:0:
288,160,17017,1,8,0:0:0:0:
288,160,17285,1,8,0:0:0:0:
224,160,17418,1,0,0:0:0:0:
224,160,17485,1,0,0:0:0:0:
288,160,17552,1,8,0:0:0:0:
224,160,17686,1,0,0:0:0:0:
288,160,17820,1,8,0:0:0:0:
224,160,17954,1,0,0:0:0:0:
288,160,18021,1,8,0:0:0:0:
224,160,18088,1,0,0:0:0:0:
224,160,18222,1,0,0:0:0:0:
288,160,18356,1,8,0:0:0:0:
288,160,18490,1,8,0:0:0:0:
224,160,18624,1,0,0:0:0:0:
288,160,18892,1,8,0:0:0:0:
288,160,19026,1,8,0:0:0:0:
224,160,19160,1,0,0:0:0:0:
288,160,19427,1,8,0:0:0:0:
288,160,19561,1,8,0:0:0:0:
224,160,19695,1,0,0:0:0:0:
224,160,19829,1,0,0:0:0:0:
224,160,19896,1,0,0:0:0:0:
288,160,19963,1,8,0:0:0:0:
288,160,20231,1,8,0:0:0:0:
224,160,20365,1,0,0:0:0:0:
288,160,20499,1,8,0:0:0:0:
224,160,20767,1,0,0:0:0:0:
224,160,20901,1,0,0:0:0:0:
288,160,21035,1,8,0:0:0:0:
288,160,21168,1,8,0:0:0:0:
224,160,21302,1,0,0:0:0:0:
288,160,21570,1,8,0:0:0:0:
224,160,21838,1,0,0:0:0:0:
224,160,21972,1,0,0:0:0:0:
224,160,22039,1,0,0:0:0:0:
288,160,22106,1,8,0:0:0:0:
224,160,22240,1,0,0:0:0:0:
224,160,22508,1,0,0:0:0:0:
288,160,22642,1,8,0:0:0:0:
224,160,22776,1,0,0:0:0:0:
224,160,22910,1,0,0:0:0:0:
288,160,23177,1,8,0:0:0:0:
224,160,23311,1,0,0:0:0:0:
224,160,23445,1,0,0:0:0:0:
288,160,23713,1,8,0:0:0:0:
224,160,23847,1,0,0:0:0:0:
224,160,23981,1,0,0:0:0:0:
288,160,24249,1,8,0:0:0:0:
288,160,24316,1,8,0:0:0:0:
224,160,24383,1,0,0:0:0:0:
288,160,24517,1,8,0:0:0:0:
224,160,24651,1,0,0:0:0:0:
288,160,24785,1,8,0:0:0:0:
224,160,25052,1,0,0:0:0:0:
288,160,25320,1,8,0:0:0:0:
288,160,25454,1,8,0:0:0:0:
224,160,25588,1,0,0:0:0:0:
288,160,25856,1,8,0:0:0:0:
224,160,26124,1,0,0:0:0:0:
224,160,26258,1,0,0:0:0:0:
288,160,26392,1,8,0:0:0:0:
224,160,26526,1,0,0:0:0:0:
288,160,26660,1,8,0:0:0:0:
288,160,26726,1,8,0:0:0:0:
224,160,26793,1,0,0:0:0:0:
288,160,26927,1,8,0:0:0:0:
288,160,27061,1,8,0:0:0:0:
224,224,27195,5,4,0:0:0:0:
288,160,27329,1,8,0:0:0:0:
288,160,27396,1,8,0:0:0:0:
224,160,27463,1,0,0:0:0:0:
288,160,27597,1,8,0:0:0:0:
224,160,27731,1,0,0:0:0:0:
288,160,27865,1,8,0:0:0:0:
288,160,27932,1,8,0:0:0:0:
224,160,27999,1,0,0:0:0:0:
288,160,28133,1,8,0:0:0:0:
224,160,28267,1,0,0:0:0:0:
224,160,28535,1,0,0:0:0:0:
288,160,28668,1,8,0:0:0:0:
224,160,28802,1,0,0:0:0:0:
288,160,28936,1,8,0:0:0:0:
224,160,29003,1,0,0:0:0:0:
224,160,29070,1,0,0:0:0:0:
288,160,29204,1,8,0:0:0:0:
224,160,29338,1,0,0:0:0:0:
288,160,29472,1,8,0:0:0:0:
288,160,29539,1,8,0:0:0:0:
224,160,29606,1,0,0:0:0:0:
288,160,29740,1,8,0:0:0:0:
224,160,29874,1,0,0:0:0:0:
288,160,30008,1,8,0:0:0:0:
288,160,30075,1,8,0:0:0:0:
224,160,30142,1,0,0:0:0:0:
288,160,30276,1,8,0:0:0:0:
224,160,30410,1,0,0:0:0:0:
224,160,30677,1,0,0:0:0:0:
288,160,30811,1,8,0:0:0:0:
224,160,30945,1,0,0:0:0:0:
288,160,31079,1,8,0:0:0:0:
224,160,31146,1,0,0:0:0:0:
224,160,31213,1,0,0:0:0:0:
288,160,31347,1,8,0:0:0:0:
224,160,31481,1,0,0:0:0:0:
224,160,31749,1,0,0:0:0:0:
224,160,31883,1,0,0:0:0:0:
224,160,31950,1,0,0:0:0:0:
288,160,32017,1,8,0:0:0:0:
288,160,32151,1,8,0:0:0:0:
288,160,32218,1,8,0:0:0:0:
224,160,32285,1,0,0:0:0:0:
224,160,32418,1,0,0:0:0:0:
288,160,32552,1,8,0:0:0:0:
288,160,32686,1,8,0:0:0:0:
224,160,32820,1,0,0:0:0:0:
224,160,32954,1,0,0:0:0:0:
224,160,33021,1,0,0:0:0:0:
288,160,33088,1,8,0:0:0:0:
288,160,33222,1,8,0:0:0:0:
288,160,33289,1,8,0:0:0:0:
224,160,33356,1,0,0:0:0:0:
224,160,33490,1,0,0:0:0:0:
288,160,33624,1,8,0:0:0:0:
288,160,33892,1,8,0:0:0:0:
224,160,34026,1,0,0:0:0:0:
224,160,34093,1,0,0:0:0:0:
288,160,34160,1,8,0:0:0:0:
224,160,34293,1,0,0:0:0:0:
224,160,34360,1,0,0:0:0:0:
288,160,34427,1,8,0:0:0:0:
224,160,34561,1,0,0:0:0:0:
288,160,34695,1,8,0:0:0:0:
288,160,34829,1,8,0:0:0:0:
224,160,34963,1,0,0:0:0:0:
288,160,35097,1,8,0:0:0:0:
288,160,35164,1,8,0:0:0:0:
288,160,35231,1,8,0:0:0:0:
288,160,35365,1,8,0:0:0:0:
224,160,35499,1,0,0:0:0:0:
288,160,35633,1,8,0:0:0:0:
224,224,35767,1,4,0:0:0:0:
224,160,37508,5,0,0:0:0:0:
288,160,37642,1,8,0:0:0:0:
224,224,37910,5,4,0:0:0:0:
288,224,38177,1,12,0:0:0:0:
288,160,38311,1,8,0:0:0:0:
224,224,38445,1,4,0:0:0:0:
288,224,38713,1,12,0:0:0:0:
224,224,38981,1,4,0:0:0:0:
288,160,39249,1,8,0:0:0:0:
224,160,39383,1,0,0:0:0:0:
224,160,39450,1,0,0:0:0:0:
224,160,39517,1,0,0:0:0:0:
288,160,39651,1,8,0:0:0:0:
224,160,39785,1,0,0:0:0:0:
224,160,39851,1,0,0:0:0:0:
288,160,39918,1,8,0:0:0:0:
224,160,40052,1,0,0:0:0:0:
288,160,40320,1,8,0:0:0:0:
288,160,40387,1,8,0:0:0:0:
224,160,40454,1,0,0:0:0:0:
224,160,40521,1,0,0:0:0:0:
288,160,40588,1,8,0:0:0:0:
224,160,40722,1,0,0:0:0:0:
288,160,40856,1,8,0:0:0:0:
288,160,40923,1,8,0:0:0:0:
288,160,40990,1,8,0:0:0:0:
224,224,41124,1,4,0:0:0:0:
224,224,41392,1,4,0:0:0:0:
288,224,41660,1,12,0:0:0:0:
288,224,41793,1,12,0:0:0:0:
288,224,41927,1,12,0:0:0:0:
224,224,42195,1,4,0:0:0:0:
288,224,42463,1,12,0:0:0:0:
288,160,42597,1,8,0:0:0:0:
224,224,42731,1,4,0:0:0:0:
288,224,42999,1,12,0:0:0:0:
224,224,43267,1,4,0:0:0:0:
288,160,43535,1,8,0:0:0:0:
224,160,43668,1,0,0:0:0:0:
224,160,43735,1,0,0:0:0:0:
224,160,43802,1,0,0:0:0:0:
288,160,43936,1,8,0:0:0:0:
224,160,44070,1,0,0:0:0:0:
224,160,44137,1,0,0:0:0:0:
288,160,44204,1,8,0:0:0:0:
224,160,44338,1,0,0:0:0:0:
288,160,44606,1,8,0:0:0:0:
288,160,44673,1,8,0:0:0:0:
224,160,44740,1,0,0:0:0:0:
224,160,44807,1,0,0:0:0:0:
288,160,44874,1,8,0:0:0:0:
224,160,45008,1,0,0:0:0:0:
288,160,45142,1,8,0:0:0:0:
224,160,45276,1,0,0:0:0:0:
288,160,45410,1,8,0:0:0:0:
224,160,45543,1,0,0:0:0:0:
224,160,45610,1,0,0:0:0:0:
288,160,45677,1,8,0:0:0:0:
224,160,45811,1,0,0:0:0:0:
288,160,45945,1,8,0:0:0:0:
288,160,46213,1,8,0:0:0:0:
288,160,46347,1,8,0:0:0:0:
224,224,46481,1,4,0:0:0:0:
288,160,46749,1,8,0:0:0:0:
288,160,46883,1,8,0:0:0:0:
224,224,47017,1,4,0:0:0:0:
288,160,47285,1,8,0:0:0:0:
288,160,47351,1,8,0:0:0:0:
288,160,47418,1,8,0:0:0:0:
224,224,47552,1,4,0:0:0:0:
288,160,47820,1,8,0:0:0:0:
288,160,47887,1,8,0:0:0:0:
288,160,47954,1,8,0:0:0:0:
224,224,48088,1,4,0:0:0:0:
288,160,48356,1,8,0:0:0:0:
224,160,48423,1,0,0:0:0:0:
288,160,48490,1,8,0:0:0:0:
224,224,48624,1,4,0:0:0:0:
288,160,48892,1,8,0:0:0:0:
224,160,48959,1,0,0:0:0:0:
288,160,49026,1,8,0:0:0:0:
224,224,49160,1,4,0:0:0:0:
288,160,49427,1,8,0:0:0:0:
224,160,49494,1,0,0:0:0:0:
224,160,49561,1,0,0:0:0:0:
288,224,49695,1,12,0:0:0:0:
224,224,49963,1,4,0:0:0:0:
288,224,50231,1,12,0:0:0:0:
224,160,50365,1,0,0:0:0:0:
288,224,50499,1,12,0:0:0:0:
224,224,50767,1,4,0:0:0:0:
288,160,51035,1,8,0:0:0:0:
224,160,51168,1,0,0:0:0:0:
224,160,51302,1,0,0:0:0:0:
224,160,51369,1,0,0:0:0:0:
224,160,51503,1,0,0:0:0:0:
288,160,51570,1,8,0:0:0:0:
224,160,51704,1,0,0:0:0:0:
288,160,51838,1,8,0:0:0:0:
288,160,51905,1,8,0:0:0:0:
224,160,52039,1,0,0:0:0:0:
288,160,52106,1,8,0:0:0:0:
288,160,52240,1,8,0:0:0:0:
224,160,52374,1,0,0:0:0:0:
224,160,52508,1,0,0:0:0:0:
288,160,52642,1,8,0:0:0:0:
224,160,52776,1,0,0:0:0:0:
224,160,52843,1,0,0:0:0:0:
224,160,52910,1,0,0:0:0:0:
288,160,53177,1,8,0:0:0:0:
224,160,53311,1,0,0:0:0:0:
224,160,53378,1,0,0:0:0:0:
224,160,53445,1,0,0:0:0:0:
224,160,53579,1,0,0:0:0:0:
288,160,53713,1,8,0:0:0:0:
224,160,53981,1,0,0:0:0:0:
288,224,54115,1,12,0:0:0:0:
288,224,54383,1,12,0:0:0:0:
288,224,54651,1,12,0:0:0:0:
288,224,54785,1,12,0:0:0:0:
224,224,55052,5,4,0:0:0:0:
224,160,55186,1,0,0:0:0:0:
224,160,55253,1,0,0:0:0:0:
288,160,55320,1,8,0:0:0:0:
224,160,55454,1,0,0:0:0:0:
288,160,55588,1,8,0:0:0:0:
288,160,55655,1,8,0:0:0:0:
224,160,55722,1,0,0:0:0:0:
288,160,55856,1,8,0:0:0:0:
288,160,55990,1,8,0:0:0:0:
224,160,56124,1,0,0:0:0:0:
224,160,56191,1,0,0:0:0:0:
288,160,56258,1,8,0:0:0:0:
288,160,56325,1,8,0:0:0:0:
224,160,56392,1,0,0:0:0:0:
288,160,56526,1,8,0:0:0:0:
288,160,56793,1,8,0:0:0:0:
288,160,56927,1,8,0:0:0:0:
224,160,57061,1,0,0:0:0:0:
224,160,57128,1,0,0:0:0:0:
288,160,57195,1,8,0:0:0:0:
288,160,57262,1,8,0:0:0:0:
224,160,57329,1,0,0:0:0:0:
288,160,57463,1,8,0:0:0:0:
224,160,57597,1,0,0:0:0:0:
288,160,57865,1,8,0:0:0:0:
288,160,57999,1,8,0:0:0:0:
224,160,58133,1,0,0:0:0:0:
224,160,58200,1,0,0:0:0:0:
288,160,58267,1,8,0:0:0:0:
288,160,58334,1,8,0:0:0:0:
224,160,58401,1,0,0:0:0:0:
288,160,58535,1,8,0:0:0:0:
224,160,58668,1,0,0:0:0:0:
224,160,58735,1,0,0:0:0:0:
224,160,58802,1,0,0:0:0:0:
288,160,58936,1,8,0:0:0:0:
288,160,59070,1,8,0:0:0:0:
288,160,59204,1,8,0:0:0:0:
224,160,59338,1,0,0:0:0:0:
224,160,59472,1,0,0:0:0:0:
224,160,59539,1,0,0:0:0:0:
288,160,59606,1,8,0:0:0:0:
224,160,59740,1,0,0:0:0:0:
288,160,59874,1,8,0:0:0:0:
288,160,59941,1,8,0:0:0:0:
224,160,60008,1,0,0:0:0:0:
288,160,60142,1,8,0:0:0:0:
288,160,60276,1,8,0:0:0:0:
224,160,60410,1,0,0:0:0:0:
224,160,60476,1,0,0:0:0:0:
288,160,60543,1,8,0:0:0:0:
288,160,60610,1,8,0:0:0:0:
224,160,60677,1,0,0:0:0:0:
288,160,60811,1,8,0:0:0:0:
288,160,61079,1,8,0:0:0:0:
288,160,61213,1,8,0:0:0:0:
224,160,61347,1,0,0:0:0:0:
224,160,61414,1,0,0:0:0:0:
288,160,61481,1,8,0:0:0:0:
288,160,61548,1,8,0:0:0:0:
224,160,61615,1,0,0:0:0:0:
288,160,61749,1,8,0:0:0:0:
224,160,61883,1,0,0:0:0:0:
224,160,61950,1,0,0:0:0:0:
288,160,62017,1,8,0:0:0:0:
288,160,62151,1,8,0:0:0:0:
288,160,62285,1,8,0:0:0:0:
288,160,62418,1,8,0:0:0:0:
224,160,62552,1,0,0:0:0:0:
288,224,62686,1,12,0:0:0:0:
288,224,62954,1,12,0:0:0:0:
288,224,63222,1,12,0:0:0:0:
288,224,63356,1,12,0:0:0:0:
224,224,63624,5,4,0:0:0:0:
288,160,63892,1,8,0:0:0:0:
288,160,64026,1,8,0:0:0:0:
224,160,64160,1,0,0:0:0:0:
288,160,64427,1,8,0:0:0:0:
288,160,64561,1,8,0:0:0:0:
224,160,64695,1,0,0:0:0:0:
288,160,64963,1,8,0:0:0:0:
224,160,65231,1,0,0:0:0:0:
224,160,65365,1,0,0:0:0:0:
288,160,65499,1,8,0:0:0:0:
224,160,65767,1,0,0:0:0:0:
288,160,66035,1,8,0:0:0:0:
224,160,66168,1,0,0:0:0:0:
288,160,66302,1,8,0:0:0:0:
288,160,66570,1,8,0:0:0:0:
224,160,66838,1,0,0:0:0:0:
288,160,67106,1,8,0:0:0:0:
224,160,67508,1,0,0:0:0:0:
288,160,67642,1,8,0:0:0:0:
224,160,67776,1,0,0:0:0:0:
224,160,67910,1,0,0:0:0:0:
288,160,68177,1,8,0:0:0:0:
224,160,68311,1,0,0:0:0:0:
224,160,68445,1,0,0:0:0:0:
288,160,68713,1,8,0:0:0:0:
224,160,68847,1,0,0:0:0:0:
224,160,68981,1,0,0:0:0:0:
288,160,69249,1,8,0:0:0:0:
224,160,69517,1,0,0:0:0:0:
224,160,69651,1,0,0:0:0:0:
288,160,69785,1,8,0:0:0:0:
224,160,70052,1,0,0:0:0:0:
288,160,70320,1,8,0:0:0:0:
224,160,70454,1,0,0:0:0:0:
288,160,70588,1,8,0:0:0:0:
288,160,70856,1,8,0:0:0:0:
224,160,71124,1,0,0:0:0:0:
288,160,71258,1,8,0:0:0:0:
288,160,71325,1,8,0:0:0:0:
288,160,71392,1,8,0:0:0:0:
224,160,71526,1,0,0:0:0:0:
288,160,71660,1,8,0:0:0:0:
224,160,71793,1,0,0:0:0:0:
288,160,71927,1,8,0:0:0:0:
288,160,72061,1,8,0:0:0:0:
224,160,72195,1,0,0:0:0:0:
288,160,72463,1,8,0:0:0:0:
288,160,72597,1,8,0:0:0:0:
224,160,72731,1,0,0:0:0:0:
288,160,72999,1,8,0:0:0:0:
288,160,73133,1,8,0:0:0:0:
224,160,73267,1,0,0:0:0:0:
288,160,73535,1,8,0:0:0:0:
224,160,73802,1,0,0:0:0:0:
224,160,73936,1,0,0:0:0:0:
288,160,74070,1,8,0:0:0:0:
224,160,74338,1,0,0:0:0:0:
288,160,74606,1,8,0:0:0:0:
224,160,74740,1,0,0:0:0:0:
288,160,74874,1,8,0:0:0:0:
288,160,75142,1,8,0:0:0:0:
224,160,75410,1,0,0:0:0:0:
288,160,75677,1,8,0:0:0:0:
224,160,76079,1,0,0:0:0:0:
288,160,76213,1,8,0:0:0:0:
224,160,76347,1,0,0:0:0:0:
288,160,76481,1,8,0:0:0:0:
288,160,76749,1,8,0:0:0:0:
224,160,76883,1,0,0:0:0:0:
288,160,77017,1,8,0:0:0:0:
288,160,77285,1,8,0:0:0:0:
224,160,77418,1,0,0:0:0:0:
288,160,77552,1,8,0:0:0:0:
288,160,77820,1,8,0:0:0:0:
224,160,78088,1,0,0:0:0:0:
224,160,78222,1,0,0:0:0:0:
288,160,78356,1,8,0:0:0:0:
224,160,78624,1,0,0:0:0:0:
288,160,78892,1,8,0:0:0:0:
288,160,79026,1,8,0:0:0:0:
224,160,79160,1,0,0:0:0:0:
288,160,79427,1,8,0:0:0:0:
224,160,79695,1,0,0:0:0:0:
224,160,79829,1,0,0:0:0:0:
288,160,79963,1,8,0:0:0:0:
224,160,80097,1,0,0:0:0:0:
288,160,80231,1,8,0:0:0:0:
288,160,80365,1,8,0:0:0:0:
224,160,80499,1,0,0:0:0:0:
288,160,80633,1,8,0:0:0:0:
224,224,80767,5,4,0:0:0:0:
288,160,80901,1,8,0:0:0:0:
288,160,80968,1,8,0:0:0:0:
224,160,81035,1,0,0:0:0:0:
288,160,81168,1,8,0:0:0:0:
224,160,81302,1,0,0:0:0:0:
288,160,81436,1,8,0:0:0:0:
288,160,81503,1,8,0:0:0:0:
224,160,81570,1,0,0:0:0:0:
288,160,81704,1,8,0:0:0:0:
224,160,81838,1,0,0:0:0:0:
224,160,82106,1,0,0:0:0:0:
288,160,82240,1,8,0:0:0:0:
224,160,82374,1,0,0:0:0:0:
288,160,82508,1,8,0:0:0:0:
224,160,82575,1,0,0:0:0:0:
224,160,82642,1,0,0:0:0:0:
288,160,82776,1,8,0:0:0:0:
224,160,82910,1,0,0:0:0:0:
288,160,83043,1,8,0:0:0:0:
288,160,83110,1,8,0:0:0:0:
224,160,83177,1,0,0:0:0:0:
288,160,83311,1,8,0:0:0:0:
224,160,83445,1,0,0:0:0:0:
288,160,83579,1,8,0:0:0:0:
288,160,83646,1,8,0:0:0:0:
224,160,83713,1,0,0:0:0:0:
288,160,83847,1,8,0:0:0:0:
224,160,83981,1,0,0:0:0:0:
224,160,84249,1,0,0:0:0:0:
288,160,84383,1,8,0:0:0:0:
224,160,84517,1,0,0:0:0:0:
288,160,84651,1,8,0:0:0:0:
224,160,84718,1,0,0:0:0:0:
224,160,84785,1,0,0:0:0:0:
288,160,84918,1,8,0:0:0:0:
224,160,85052,1,0,0:0:0:0:
288,160,85320,1,8,0:0:0:0:
288,160,85454,1,8,0:0:0:0:
288,160,85521,1,8,0:0:0:0:
224,160,85588,1,0,0:0:0:0:
224,160,85722,1,0,0:0:0:0:
224,160,85789,1,0,0:0:0:0:
288,160,85856,1,8,0:0:0:0:
288,160,85990,1,8,0:0:0:0:
288,160,86057,1,8,0:0:0:0:
224,160,86124,1,0,0:0:0:0:
288,160,86392,1,8,0:0:0:0:
224,160,86526,1,0,0:0:0:0:
224,160,86593,1,0,0:0:0:0:
288,160,86660,1,8,0:0:0:0:
288,160,86793,1,8,0:0:0:0:
288,160,86860,1,8,0:0:0:0:
224,160,86927,1,0,0:0:0:0:
224,160,87061,1,0,0:0:0:0:
224,160,87128,1,0,0:0:0:0:
288,160,87195,1,8,0:0:0:0:
288,160,87463,1,8,0:0:0:0:
224,160,87597,1,0,0:0:0:0:
224,160,87664,1,0,0:0:0:0:
288,160,87731,1,8,0:0:0:0:
224,160,87865,1,0,0:0:0:0:
224,160,87932,1,0,0:0:0:0:
288,160,87999,1,8,0:0:0:0:
224,160,88133,1,0,0:0:0:0:
224,160,88200,1,0,0:0:0:0:
288,160,88267,1,8,0:0:0:0:
224,160,88401,1,0,0:0:0:0:
288,160,88535,1,8,0:0:0:0:
288,160,88668,1,8,0:0:0:0:
224,160,88802,1,0,0:0:0:0:
288,160,88936,1,8,0:0:0:0:
288,160,89003,1,8,0:0:0:0:
224,160,89070,1,0,0:0:0:0:
288,160,89204,1,8,0:0:0:0:
224,224,89338,1,4,0:0:0:0:
224,160,91079,1,0,0:0:0:0:
288,160,91213,1,8,0:0:0:0:
224,224,91481,5,4,0:0:0:0:
288,224,91749,1,12,0:0:0:0:
288,160,91883,1,8,0:0:0:0:
224,224,92017,1,4,0:0:0:0:
288,224,92285,1,12,0:0:0:0:
224,224,92552,1,4,0:0:0:0:
288,160,92820,1,8,0:0:0:0:
224,160,92954,1,0,0:0:0:0:
224,160,93021,1,0,0:0:0:0:
224,160,93088,1,0,0:0:0:0:
288,160,93222,1,8,0:0:0:0:
224,160,93356,1,0,0:0:0:0:
224,160,93423,1,0,0:0:0:0:
288,160,93490,1,8,0:0:0:0:
224,160,93624,1,0,0:0:0:0:
224,160,93758,1,0,0:0:0:0:
288,160,93892,1,8,0:0:0:0:
288,160,93959,1,8,0:0:0:0:
224,160,94026,1,0,0:0:0:0:
224,160,94093,1,0,0:0:0:0:
288,160,94160,1,8,0:0:0:0:
224,160,94293,1,0,0:0:0:0:
288,160,94427,1,8,0:0:0:0:
288,160,94494,1,8,0:0:0:0:
288,160,94561,1,8,0:0:0:0:
224,224,94695,1,4,0:0:0:0:
224,224,94963,1,4,0:0:0:0:
288,224,95231,1,12,0:0:0:0:
288,224,95365,1,12,0:0:0:0:
288,224,95499,1,12,0:0:0:0:
224,224,95767,1,4,0:0:0:0:
288,224,96035,1,12,0:0:0:0:
288,160,96168,1,8,0:0:0:0:
224,224,96302,1,4,0:0:0:0:
288,224,96570,1,12,0:0:0:0:
224,224,96838,1,4,0:0:0:0:
288,160,97106,1,8,0:0:0:0:
224,160,97240,1,0,0:0:0:0:
224,160,97307,1,0,0:0:0:0:
224,160,97374,1,0,0:0:0:0:
288,160,97508,1,8,0:0:0:0:
224,160,97642,1,0,0:0:0:0:
224,160,97709,1,0,0:0:0:0:
288,160,97776,1,8,0:0:0:0:
224,160,97910,1,0,0:0:0:0:
288,160,98177,1,8,0:0:0:0:
224,160,98244,1,0,0:0:0:0:
224,160,98311,1,0,0:0:0:0:
224,160,98378,1,0,0:0:0:0:
288,160,98445,1,8,0:0:0:0:
224,160,98579,1,0,0:0:0:0:
224,160,98646,1,0,0:0:0:0:
288,160,98713,1,8,0:0:0:0:
288,160,98847,1,8,0:0:0:0:
224,160,98981,1,0,0:0:0:0:
288,160,99115,1,8,0:0:0:0:
288,160,99182,1,8,0:0:0:0:
288,160,99249,1,8,0:0:0:0:
224,160,99383,1,0,0:0:0:0:
288,160,99517,1,8,0:0:0:0:
224,160,99651,1,0,0:0:0:0:
288,160,99785,1,8,0:0:0:0:
288,160,99918,1,8,0:0:0:0:
224,224,100052,1,4,0:0:0:0:
288,160,100320,1,8,0:0:0:0:
288,160,100454,1,8,0:0:0:0:
224,224,100588,1,4,0:0:0:0:
288,160,100856,1,8,0:0:0:0:
288,160,100923,1,8,0:0:0:0:
288,160,100990,1,8,0:0:0:0:
224,224,101124,1,4,0:0:0:0:
288,160,101392,1,8,0:0:0:0:
224,160,101459,1,0,0:0:0:0:
288,160,101526,1,8,0:0:0:0:
224,224,101660,1,4,0:0:0:0:
288,160,101927,1,8,0:0:0:0:
288,160,101994,1,8,0:0:0:0:
288,160,102061,1,8,0:0:0:0:
224,224,102195,1,4,0:0:0:0:
288,160,102463,1,8,0:0:0:0:
224,160,102530,1,0,0:0:0:0:
288,160,102597,1,8,0:0:0:0:
224,224,102731,1,4,0:0:0:0:
288,160,102999,1,8,0:0:0:0:
224,160,103066,1,0,0:0:0:0:
224,160,103133,1,0,0:0:0:0:
288,224,103267,1,12,0:0:0:0:
224,224,103535,1,4,0:0:0:0:
288,224,103802,1,12,0:0:0:0:
224,160,103936,1,0,0:0:0:0:
288,224,104070,1,12,0:0:0:0:
224,224,104338,1,4,0:0:0:0:
288,160,104606,1,8,0:0:0:0:
224,160,104740,1,0,0:0:0:0:
224,160,104874,1,0,0:0:0:0:
224,160,104941,1,0,0:0:0:0:
224,160,105075,1,0,0:0:0:0:
288,160,105142,1,8,0:0:0:0:
224,160,105276,1,0,0:0:0:0:
288,160,105410,1,8,0:0:0:0:
288,160,105476,1,8,0:0:0:0:
224,160,105610,1,0,0:0:0:0:
288,160,105677,1,8,0:0:0:0:
288,160,105811,1,8,0:0:0:0:
224,160,105945,1,0,0:0:0:0:
224,160,106079,1,0,0:0:0:0:
288,160,106213,1,8,0:0:0:0:
224,160,106347,1,0,0:0:0:0:
224,160,106481,1,0,0:0:0:0:
288,160,106749,1,8,0:0:0:0:
224,160,106883,1,0,0:0:0:0:
224,160,106950,1,0,0:0:0:0:
224,160,107017,1,0,0:0:0:0:
224,160,107151,1,0,0:0:0:0:
288,160,107285,1,8,0:0:0:0:
224,160,107418,1,0,0:0:0:0:
224,160,107552,1,0,0:0:0:0:
288,224,107686,1,12,0:0:0:0:
288,224,107954,1,12,0:0:0:0:
288,224,108222,1,12,0:0:0:0:
288,224,108356,1,12,0:0:0:0:
224,224,108624,5,4,0:0:0:0:
224,160,108758,1,0,0:0:0:0:
288,160,108892,1,8,0:0:0:0:
224,160,109026,1,0,0:0:0:0:
224,160,109293,1,0,0:0:0:0:
288,160,109427,1,8,0:0:0:0:
224,160,109561,1,0,0:0:0:0:
224,160,109829,1,0,0:0:0:0:
288,160,109963,1,8,0:0:0:0:
224,160,110097,1,0,0:0:0:0:
288,160,110231,1,8,0:0:0:0:
224,160,110432,1,0,0:0:0:0:
288,160,110499,1,8,0:0:0:0:
224,160,110633,1,0,0:0:0:0:
288,160,110767,1,8,0:0:0:0:
288,160,110901,1,8,0:0:0:0:
224,160,111035,1,0,0:0:0:0:
288,160,111168,1,8,0:0:0:0:
224,160,111302,1,0,0:0:0:0:
288,160,111436,1,8,0:0:0:0:
224,160,111570,1,0,0:0:0:0:
224,160,111704,1,0,0:0:0:0:
288,160,111838,1,8,0:0:0:0:
288,160,111972,1,8,0:0:0:0:
224,160,112106,1,0,0:0:0:0:
288,160,112240,1,8,0:0:0:0:
224,160,112374,1,0,0:0:0:0:
288,160,112508,1,8,0:0:0:0:
224,160,112642,1,0,0:0:0:0:
224,160,112776,1,0,0:0:0:0:
224,160,112910,1,0,0:0:0:0:
288,160,113177,1,8,0:0:0:0:
224,160,113311,1,0,0:0:0:0:
224,160,113579,1,0,0:0:0:0:
224,160,113646,1,0,0:0:0:0:
288,160,113713,1,8,0:0:0:0:
224,160,113981,1,0,0:0:0:0:
224,160,114115,1,0,0:0:0:0:
288,160,114249,1,8,0:0:0:0:
224,160,114383,1,0,0:0:0:0:
288,160,114651,1,8,0:0:0:0:
224,160,114718,1,0,0:0:0:0:
288,160,114785,1,8,0:0:0:0:
288,160,115052,1,8,0:0:0:0:
224,160,115186,1,0,0:0:0:0:
288,160,115320,1,8,0:0:0:0:
288,160,115454,1,8,0:0:0:0:
288,160,115588,1,8,0:0:0:0:
224,160,115722,1,0,0:0:0:0:
288,160,115856,1,8,0:0:0:0:
288,160,115990,1,8,0:0:0:0:
224,160,116124,1,0,0:0:0:0:
224,160,116258,1,0,0:0:0:0:
224,160,116325,1,0,0:0:0:0:
288,160,116392,1,8,0:0:0:0:
224,160,116526,1,0,0:0:0:0:
288,160,116660,1,8,0:0:0:0:
224,160,116793,1,0,0:0:0:0:
288,160,116927,1,8,0:0:0:0:
288,160,117061,1,8,0:0:0:0:
224,224,117195,1,4,0:0:0:0:
224,160,117329,1,0,0:0:0:0:
288,160,117463,1,8,0:0:0:0:
224,160,117597,1,0,0:0:0:0:
224,160,117865,1,0,0:0:0:0:
288,160,117999,1,8,0:0:0:0:
224,160,118267,1,0,0:0:0:0:
224,160,118401,1,0,0:0:0:0:
288,160,118535,1,8,0:0:0:0:
288,160,118668,1,8,0:0:0:0:
224,160,118936,1,0,0:0:0:0:
288,160,119070,1,8,0:0:0:0:
224,160,119338,1,0,0:0:0:0:
224,160,119472,1,0,0:0:0:0:
288,160,119606,1,8,0:0:0:0:
288,160,119740,1,8,0:0:0:0:
288,160,119874,1,8,0:0:0:0:
224,160,120008,1,0,0:0:0:0:
288,160,120142,1,8,0:0:0:0:
288,160,120276,1,8,0:0:0:0:
224,160,120410,1,0,0:0:0:0:
288,160,120543,1,8,0:0:0:0:
288,160,120677,1,8,0:0:0:0:
224,160,120811,1,0,0:0:0:0:
288,160,120945,1,8,0:0:0:0:
288,160,121012,1,8,0:0:0:0:
288,160,121079,1,8,0:0:0:0:
224,160,121213,1,0,0:0:0:0:
288,160,121347,1,8,0:0:0:0:
224,224,121481,1,4,0:0:0:0:
288,160,121749,1,8,0:0:0:0:
224,160,121883,1,0,0:0:0:0:
224,160,122151,1,0,0:0:0:0:
224,160,122218,1,0,0:0:0:0:
288,160,122285,1,8,0:0:0:0:
224,160,122552,1,0,0:0:0:0:
224,160,122619,1,0,0:0:0:0:
288,160,122686,1,8,0:0:0:0:
288,160,122820,1,8,0:0:0:0:
224,160,122954,1,0,0:0:0:0:
224,160,123222,1,0,0:0:0:0:
288,160,123356,1,8,0:0:0:0:
224,160,123490,1,0,0:0:0:0:
288,160,123624,1,8,0:0:0:0:
288,160,123691,1,8,0:0:0:0:
288,160,123758,1,8,0:0:0:0:
288,160,123825,1,8,0:0:0:0:
288,160,123892,1,8,0:0:0:0:
224,160,124160,1,0,0:0:0:0:
224,160,124226,1,0,0:0:0:0:
224,160,124293,1,0,0:0:0:0:
224,160,124360,1,0,0:0:0:0:
224,160,124427,1,0,0:0:0:0:
288,160,124695,1,8,0:0:0:0:
288,160,124762,1,8,0:0:0:0:
288,160,124829,1,8,0:0:0:0:
288,160,124896,1,8,0:0:0:0:
288,160,124963,1,8,0:0:0:0:
224,160,125231,1,0,0:0:0:0:
224,160,125298,1,0,0:0:0:0:
224,160,125365,1,0,0:0:0:0:
224,160,125432,1,0,0:0:0:0:
224,160,125499,1,0,0:0:0:0:
288,160,125767,5,8,0:0:0:0:
224,160,126838,1,0,0:0:0:0:
224,160,127910,1,0,0:0:0:0:
288,160,128981,1,8,0:0:0:0:
288,160,129517,1,8,0:0:0:0:
224,160,130052,1,0,0:0:0:0:
288,160,130588,1,8,0:0:0:0:
224,160,131124,1,0,0:0:0:0:
224,160,131526,1,0,0:0:0:0:
288,160,131927,1,8,0:0:0:0:
224,160,132195,1,0,0:0:0:0:
224,160,132463,1,0,0:0:0:0:
288,160,132731,1,8,0:0:0:0:
288,160,132999,1,8,0:0:0:0:
224,160,133267,1,0,0:0:0:0:
224,224,134070,1,4,0:0:0:0:
224,224,134338,5,4,0:0:0:0:
288,224,134606,1,12,0:0:0:0:
288,160,134740,1,8,0:0:0:0:
224,224,134874,1,4,0:0:0:0:
288,224,135142,1,12,0:0:0:0:
224,224,135410,1,4,0:0:0:0:
288,160,135677,1,8,0:0:0:0:
224,160,135811,1,0,0:0:0:0:
224,160,135878,1,0,0:0:0:0:
224,160,135945,1,0,0:0:0:0:
288,160,136079,1,8,0:0:0:0:
224,160,136213,1,0,0:0:0:0:
224,160,136280,1,0,0:0:0:0:
288,160,136347,1,8,0:0:0:0:
224,160,136481,1,0,0:0:0:0:
224,160,136615,1,0,0:0:0:0:
288,160,136749,1,8,0:0:0:0:
288,160,136816,1,8,0:0:0:0:
224,160,136883,1,0,0:0:0:0:
224,160,136950,1,0,0:0:0:0:
288,160,137017,1,8,0:0:0:0:
224,160,137151,1,0,0:0:0:0:
288,160,137285,1,8,0:0:0:0:
288,160,137351,1,8,0:0:0:0:
288,160,137418,1,8,0:0:0:0:
224,224,137552,1,4,0:0:0:0:
224,224,137820,1,4,0:0:0:0:
288,224,138088,1,12,0:0:0:0:
288,224,138222,1,12,0:0:0:0:
288,224,138356,1,12,0:0:0:0:
224,224,138624,1,4,0:0:0:0:
288,224,138892,1,12,0:0:0:0:
288,160,139026,1,8,0:0:0:0:
224,224,139160,1,4,0:0:0:0:
288,224,139427,1,12,0:0:0:0:
224,224,139695,1,4,0:0:0:0:
288,160,139963,1,8,0:0:0:0:
224,160,140097,1,0,0:0:0:0:
224,160,140164,1,0,0:0:0:0:
224,160,140231,1,0,0:0:0:0:
288,160,140365,1,8,0:0:0:0:
224,160,140499,1,0,0:0:0:0:
224,160,140566,1,0,0:0:0:0:
288,160,140633,1,8,0:0:0:0:
224,160,140767,1,0,0:0:0:0:
288,160,141035,1,8,0:0:0:0:
288,160,141101,1,8,0:0:0:0:
224,160,141168,1,0,0:0:0:0:
224,160,141235,1,0,0:0:0:0:
288,160,141302,1,8,0:0:0:0:
224,160,141436,1,0,0:0:0:0:
288,160,141570,1,8,0:0:0:0:
288,160,141704,1,8,0:0:0:0:
224,160,141838,1,0,0:0:0:0:
224,160,141905,1,0,0:0:0:0:
288,160,141972,1,8,0:0:0:0:
288,160,142039,1,8,0:0:0:0:
224,160,142106,1,0,0:0:0:0:
224,160,142173,1,0,0:0:0:0:
288,160,142240,1,8,0:0:0:0:
288,160,142307,1,8,0:0:0:0:
224,160,142374,1,0,0:0:0:0:
288,160,142642,1,8,0:0:0:0:
288,160,142776,1,8,0:0:0:0:
224,224,142910,1,4,0:0:0:0:
288,160,143177,1,8,0:0:0:0:
288,160,143244,1,8,0:0:0:0:
288,160,143311,1,8,0:0:0:0:
224,224,143445,1,4,0:0:0:0:
288,160,143713,1,8,0:0:0:0:
288,160,143847,1,8,0:0:0:0:
224,224,143981,1,4,0:0:0:0:
288,160,144249,1,8,0:0:0:0:
224,160,144316,1,0,0:0:0:0:
288,160,144383,1,8,0:0:0:0:
224,224,144517,1,4,0:0:0:0:
288,160,144785,1,8,0:0:0:0:
288,160,144918,1,8,0:0:0:0:
224,224,145052,1,4,0:0:0:0:
288,160,145320,1,8,0:0:0:0:
288,160,145387,1,8,0:0:0:0:
288,160,145454,1,8,0:0:0:0:
224,224,145588,1,4,0:0:0:0:
288,160,145856,1,8,0:0:0:0:
224,160,145923,1,0,0:0:0:0:
224,160,145990,1,0,0:0:0:0:
288,224,146124,1,12,0:0:0:0:
224,224,146392,1,4,0:0:0:0:
288,224,146660,1,12,0:0:0:0:
224,160,146793,1,0,0:0:0:0:
288,224,146927,1,12,0:0:0:0:
224,224,147195,1,4,0:0:0:0:
288,160,147463,1,8,0:0:0:0:
224,160,147597,1,0,0:0:0:0:
224,160,147731,1,0,0:0:0:0:
224,160,147798,1,0,0:0:0:0:
224,160,147932,1,0,0:0:0:0:
288,160,147999,1,8,0:0:0:0:
224,160,148133,1,0,0:0:0:0:
288,160,148267,1,8,0:0:0:0:
288,160,148334,1,8,0:0:0:0:
224,160,148468,1,0,0:0:0:0:
288,160,148535,1,8,0:0:0:0:
288,160,148668,1,8,0:0:0:0:
224,160,148802,1,0,0:0:0:0:
224,160,148936,1,0,0:0:0:0:
288,160,149070,1,8,0:0:0:0:
224,160,149204,1,0,0:0:0:0:
288,160,149271,1,8,0:0:0:0:
224,160,149338,1,0,0:0:0:0:
288,160,149606,1,8,0:0:0:0:
224,160,149740,1,0,0:0:0:0:
224,160,149807,1,0,0:0:0:0:
224,160,149874,1,0,0:0:0:0:
224,160,150008,1,0,0:0:0:0:
288,160,150142,1,8,0:0:0:0:
224,160,150276,1,0,0:0:0:0:
224,160,150343,1,0,0:0:0:0:
224,160,150410,1,0,0:0:0:0:
288,224,150543,1,12,0:0:0:0:
288,224,150811,1,12,0:0:0:0:
288,224,151079,1,12,0:0:0:0:
288,224,151213,1,12,0:0:0:0:
224,224,151481,5,4,0:0:0:0:
288,160,151615,1,8,0:0:0:0:
224,160,151682,1,0,0:0:0:0:
288,160,151749,1,8,0:0:0:0:
224,160,151883,1,0,0:0:0:0:
288,160,152017,1,8,0:0:0:0:
288,160,152084,1,8,0:0:0:0:
224,160,152151,1,0,0:0:0:0:
224,160,152218,1,0,0:0:0:0:
288,160,152285,1,8,0:0:0:0:
288,160,152418,1,8,0:0:0:0:
224,160,152552,1,0,0:0:0:0:
224,160,152619,1,0,0:0:0:0:
288,160,152686,1,8,0:0:0:0:
288,160,152753,1,8,0:0:0:0:
224,160,152820,1,0,0:0:0:0:
288,160,152954,1,8,0:0:0:0:
288,160,153222,1,8,0:0:0:0:
288,160,153356,1,8,0:0:0:0:
224,160,153490,1,0,0:0:0:0:
224,160,153557,1,0,0:0:0:0:
288,160,153624,1,8,0:0:0:0:
288,160,153691,1,8,0:0:0:0:
224,160,153758,1,0,0:0:0:0:
288,160,153892,1,8,0:0:0:0:
224,160,154026,1,0,0:0:0:0:
224,160,154293,1,0,0:0:0:0:
288,160,154427,1,8,0:0:0:0:
224,160,154561,1,0,0:0:0:0:
224,160,154628,1,0,0:0:0:0:
288,160,154695,1,8,0:0:0:0:
288,160,154762,1,8,0:0:0:0:
224,160,154829,1,0,0:0:0:0:
288,160,154963,1,8,0:0:0:0:
224,160,155097,1,0,0:0:0:0:
224,160,155164,1,0,0:0:0:0:
224,160,155231,1,0,0:0:0:0:
288,160,155365,1,8,0:0:0:0:
288,160,155499,1,8,0:0:0:0:
288,160,155633,1,8,0:0:0:0:
224,160,155767,1,0,0:0:0:0:
288,160,155901,1,8,0:0:0:0:
224,160,155968,1,0,0:0:0:0:
288,160,156035,1,8,0:0:0:0:
224,160,156168,1,0,0:0:0:0:
288,160,156302,1,8,0:0:0:0:
288,160,156369,1,8,0:0:0:0:
224,160,156436,1,0,0:0:0:0:
224,160,156503,1,0,0:0:0:0:
288,160,156570,1,8,0:0:0:0:
224,160,156704,1,8,0:0:0:0:
224,160,156838,1,0,0:0:0:0:
224,160,156905,1,0,0:0:0:0:
288,160,156972,1,8,0:0:0:0:
288,160,157039,1,8,0:0:0:0:
224,160,157106,1,0,0:0:0:0:
288,160,157240,1,8,0:0:0:0:
288,160,157508,1,8,0:0:0:0:
288,160,157642,1,8,0:0:0:0:
224,160,157776,1,0,0:0:0:0:
224,160,157843,1,0,0:0:0:0:
288,160,157910,1,8,0:0:0:0:
288,160,157976,1,8,0:0:0:0:
224,160,158043,1,0,0:0:0:0:
288,160,158177,1,8,0:0:0:0:
224,160,158311,1,0,0:0:0:0:
224,160,158378,1,0,0:0:0:0:
288,160,158445,1,8,0:0:0:0:
288,160,158579,1,8,0:0:0:0:
288,160,158713,1,8,0:0:0:0:
288,160,158847,1,8,0:0:0:0:
224,160,158981,1,0,0:0:0:0:
288,160,159115,1,8,0:0:0:0:
288,160,159182,1,8,0:0:0:0:
224,160,159249,1,0,0:0:0:0:
224,160,159316,1,0,0:0:0:0:
288,160,159383,1,8,0:0:0:0:
288,160,159651,1,8,0:0:0:0:
224,160,159785,1,0,0:0:0:0:
288,160,159918,1,8,0:0:0:0:
224,224,160052,1,4,0:0:0:0:
288,160,160186,1,8,0:0:0:0:
224,160,160253,1,0,0:0:0:0:
288,160,160320,1,8,0:0:0:0:
224,160,160454,1,0,0:0:0:0:
288,160,160588,1,8,0:0:0:0:
288,160,160655,1,8,0:0:0:0:
224,160,160722,1,0,0:0:0:0:
224,160,160789,1,0,0:0:0:0:
288,160,160856,1,8,0:0:0:0:
288,160,160990,1,8,0:0:0:0:
224,160,161124,1,0,0:0:0:0:
224,160,161191,1,0,0:0:0:0:
288,160,161258,1,8,0:0:0:0:
288,160,161325,1,8,0:0:0:0:
224,160,161392,1,0,0:0:0:0:
288,160,161526,1,8,0:0:0:0:
288,160,161793,1,8,0:0:0:0:
288,160,161927,1,8,0:0:0:0:
224,160,162061,1,0,0:0:0:0:
224,160,162128,1,0,0:0:0:0:
288,160,162195,1,8,0:0:0:0:
288,160,162262,1,8,0:0:0:0:
224,160,162329,1,0,0:0:0:0:
288,160,162463,1,8,0:0:0:0:
224,160,162597,1,0,0:0:0:0:
224,160,162865,1,0,0:0:0:0:
288,160,162999,1,8,0:0:0:0:
224,160,163133,1,0,0:0:0:0:
224,160,163200,1,0,0:0:0:0:
288,160,163267,1,8,0:0:0:0:
288,160,163334,1,8,0:0:0:0:
224,160,163401,1,0,0:0:0:0:
288,160,163535,1,8,0:0:0:0:
224,160,163668,1,0,0:0:0:0:
224,160,163735,1,0,0:0:0:0:
224,160,163802,1,0,0:0:0:0:
224,160,163869,1,0,0:0:0:0:
288,160,163936,1,8,0:0:0:0:
288,160,164070,1,8,0:0:0:0:
288,160,164204,1,8,0:0:0:0:
224,160,164338,1,0,0:0:0:0:
288,160,164472,1,8,0:0:0:0:
224,160,164539,1,0,0:0:0:0:
288,160,164606,1,8,0:0:0:0:
224,160,164740,1,0,0:0:0:0:
288,160,164874,1,8,0:0:0:0:
288,160,164941,1,8,0:0:0:0:
224,160,165008,1,0,0:0:0:0:
224,160,165075,1,0,0:0:0:0:
288,160,165142,1,8,0:0:0:0:
288,160,165276,1,8,0:0:0:0:
224,160,165410,1,0,0:0:0:0:
224,160,165476,1,0,0:0:0:0:
288,160,165543,1,8,0:0:0:0:
288,160,165610,1,8,0:0:0:0:
224,160,165677,1,0,0:0:0:0:
288,160,165811,1,8,0:0:0:0:
288,160,166079,1,8,0:0:0:0:
288,160,166213,1,8,0:0:0:0:
224,160,166347,1,0,0:0:0:0:
224,160,166414,1,0,0:0:0:0:
288,160,166481,1,8,0:0:0:0:
288,160,166548,1,8,0:0:0:0:
224,160,166615,1,0,0:0:0:0:
288,160,166749,1,8,0:0:0:0:
224,160,166883,1,0,0:0:0:0:
224,160,166950,1,0,0:0:0:0:
288,160,167017,1,8,0:0:0:0:
288,160,167151,1,8,0:0:0:0:
288,160,167285,1,8,0:0:0:0:
288,160,167418,1,8,0:0:0:0:
224,160,167552,1,0,0:0:0:0:
288,160,167820,1,8,0:0:0:0:
224,160,167954,1,0,0:0:0:0:
224,160,168088,1,0,0:0:0:0:
224,160,168222,1,0,0:0:0:0:
288,160,168356,1,8,0:0:0:0:
224,160,168490,1,0,0:0:0:0:
224,160,168624,1,0,0:0:0:0:
288,224,168758,1,12,0:0:0:0:
288,224,169026,1,12,0:0:0:0:
288,224,169293,1,12,0:0:0:0:
288,224,169427,1,12,0:0:0:0:
224,224,169695,1,4,0:0:0:0:
