osu file format v14

[General]
AudioFilename: audio.mp3
AudioLeadIn: 0
PreviewTime: 37771
Countdown: 0
SampleSet: Normal
StackLeniency: 0.7
Mode: 1
LetterboxInBreaks: 0
WidescreenStoryboard: 1

[Editor]
DistanceSpacing: 0.1
BeatDivisor: 4
GridSize: 32
TimelineZoom: 4.599998

[Metadata]
Title:In the Black
TitleUnicode:イン・ザ・ブラック
Artist:BUTAOTOME
ArtistUnicode:豚乙女
Creator:Nwolf
Version:Kantan
Source:東方憑依華 ~ Antinomy of Common Flowers.
Tags:Japanese Pop Rock 東方project toho project buta otome Akiyama Uni U2 あきやまうに video game videogame in za burakku touhou 15.5 二ッ岩 マミゾウ futatsuiwa mamizou comp コンプ ranko ランコ in the deep green youkai tanuki tanooki forest
BeatmapID:4444960
BeatmapSetID:1068835

[Difficulty]
HPDrainRate:7.5
CircleSize:4
OverallDifficulty:3
ApproachRate:10
SliderMultiplier:1.3
SliderTickRate:1

[Events]
//Background and Video events
0,0,"34923004.jpg",0,70
//Break Periods
//Storyboard Layer 0 (Background)
//Storyboard Layer 1 (Fail)
//Storyboard Layer 2 (Pass)
//Storyboard Layer 3 (Foreground)
//Storyboard Layer 4 (Overlay)
//Storyboard Sound Samples

[TimingPoints]
410,267.857142857143,4,1,0,80,1,0
10119,-108.108108108108,4,1,0,70,0,0
27195,-106.666666666667,4,1,0,75,0,0
28401,-105.263157894737,4,1,0,75,0,0
29472,-103.896103896104,4,1,0,75,0,0
30543,-102.564102564103,4,1,0,75,0,0
31615,-101.26582278481,4,1,0,75,0,0
35767,-95.2380952380952,4,1,0,75,0,0
36637,-105.263157894737,4,1,0,80,0,0
37910,-100,4,1,0,90,0,1
55052,-100,4,1,0,80,0,0
63758,-108.108108108108,4,1,0,70,0,0
80767,-106.666666666667,4,1,0,75,0,0
81972,-105.263157894737,4,1,0,75,0,0
83043,-103.896103896104,4,1,0,75,0,0
84115,-102.564102564103,4,1,0,75,0,0
85186,-101.26582278481,4,1,0,75,0,0
89338,-95.2380952380952,4,1,0,75,0,0
89472,-105.263157894737,4,1,0,80,0,0
91481,-100,4,1,0,90,0,1
108624,-100,4,1,0,80,0,0
125633,-100,4,1,0,30,0,0
125901,-114.285714285714,4,1,0,30,0,0
134338,-95.2380952380952,4,1,0,90,0,1
169695,-95.2380952380952,4,1,0,90,0,0

[HitObjects]
224,224,410,5,4,0:0:0:0:
224,160,945,1,0,0:0:0:0:
224,160,1213,1,0,0:0:0:0:
288,160,1481,1,8,0:0:0:0:
288,160,1883,1,8,0:0:0:0:
288,160,2552,1,8,0:0:0:0:
224,160,2954,1,0,0:0:0:0:
224,160,3624,1,0,0:0:0:0:
224,160,4026,1,0,0:0:0:0:
224,160,4695,1,0,0:0:0:0:
224,160,5231,1,0,0:0:0:0:
224,160,5499,1,0,0:0:0:0:
288,160,5767,1,8,0:0:0:0:
288,160,6168,1,8,0:0:0:0:
224,160,6838,1,0,0:0:0:0:
288,160,7374,1,8,0:0:0:0:
224,160,7776,1,0,0:0:0:0:
288,224,9115,1,12,0:0:0:0:
288,224,9383,1,12,0:0:0:0:
288,224,9785,1,12,0:0:0:0:
224,224,10052,5,4,0:0:0:0:
224,160,10588,1,0,0:0:0:0:
224,160,11124,1,0,0:0:0:0:
224,160,11392,1,0,0:0:0:0:
288,160,11660,1,8,0:0:0:0:
288,160,11927,1,8,0:0:0:0:
224,160,12195,1,0,0:0:0:0:
288,160,12731,1,8,0:0:0:0:
224,160,13267,1,0,0:0:0:0:
224,160,14338,1,0,0:0:0:0:
224,160,14874,1,0,0:0:0:0:
224,160,15410,1,0,0:0:0:0:
288,160,15677,1,8,0:0:0:0:
288,160,15945,1,8,0:0:0:0:
288,160,16481,1,8,0:0:0:0:
224,160,16749,1,0,0:0:0:0:
288,160,17017,1,8,0:0:0:0:
288,160,17285,1,8,0:0:0:0:
224,160,17552,1,0,0:0:0:0:
224,160,18624,1,0,0:0:0:0:
224,160,19160,1,0,0:0:0:0:
224,160,19695,1,0,0:0:0:0:
288,160,19963,1,8,0:0:0:0:
288,160,20231,1,8,0:0:0:0:
288,160,20499,1,8,0:0:0:0:
224,160,20767,1,0,0:0:0:0:
288,160,21302,1,8,0:0:0:0:
288,160,21570,1,8,0:0:0:0:
224,160,21838,1,0,0:0:0:0:
224,160,22910,1,0,0:0:0:0:
224,160,23445,1,0,0:0:0:0:
224,160,23981,1,0,0:0:0:0:
288,160,24249,1,8,0:0:0:0:
288,160,24517,1,8,0:0:0:0:
288,160,25052,1,8,0:0:0:0:
288,160,25320,1,8,0:0:0:0:
224,160,25588,1,0,0:0:0:0:
224,160,25856,1,0,0:0:0:0:
288,160,26124,1,8,0:0:0:0:
224,224,27195,5,4,0:0:0:0:
224,160,27597,1,0,0:0:0:0:
224,160,27999,1,0,0:0:0:0:
224,160,28267,1,0,0:0:0:0:
288,160,29338,1,8,0:0:0:0:
288,160,29740,1,8,0:0:0:0:
288,160,30142,1,8,0:0:0:0:
288,160,30410,1,8,0:0:0:0:
224,160,31481,1,0,0:0:0:0:
224,160,31749,1,0,0:0:0:0:
224,160,32017,1,0,0:0:0:0:
224,160,32552,1,0,0:0:0:0:
224,160,32820,1,0,0:0:0:0:
288,160,33088,1,8,0:0:0:0:
288,160,33624,1,8,0:0:0:0:
224,160,33892,1,0,0:0:0:0:
288,160,34160,1,8,0:0:0:0:
288,160,34695,1,8,0:0:0:0:
288,160,34963,1,8,0:0:0:0:
288,160,35231,1,8,0:0:0:0:
288,160,35499,1,8,0:0:0:0:
224,224,35767,1,4,0:0:0:0:
224,224,37910,5,4,0:0:0:0:
224,224,38445,1,4,0:0:0:0:
288,224,38981,1,12,0:0:0:0:
288,160,39383,1,8,0:0:0:0:
288,160,39785,1,8,0:0:0:0:
224,160,40052,1,0,0:0:0:0:
224,160,40588,1,0,0:0:0:0:
288,224,41124,1,12,0:0:0:0:
288,224,41392,1,12,0:0:0:0:
288,224,41660,1,12,0:0:0:0:
224,224,42195,1,4,0:0:0:0:
224,224,42731,1,4,0:0:0:0:
288,224,43267,1,12,0:0:0:0:
288,160,43668,1,8,0:0:0:0:
288,160,44070,1,8,0:0:0:0:
224,160,44338,1,0,0:0:0:0:
224,160,44874,1,0,0:0:0:0:
224,160,45142,1,0,0:0:0:0:
288,160,45410,1,8,0:0:0:0:
288,160,46213,1,8,0:0:0:0:
224,224,46481,1,4,0:0:0:0:
224,224,47017,1,4,0:0:0:0:
288,224,47552,1,12,0:0:0:0:
288,224,48088,1,12,0:0:0:0:
224,224,48624,1,4,0:0:0:0:
224,224,49160,1,4,0:0:0:0:
288,224,49695,1,12,0:0:0:0:
288,224,49963,1,12,0:0:0:0:
288,224,50231,1,12,0:0:0:0:
224,224,50767,1,4,0:0:0:0:
288,160,51302,1,8,0:0:0:0:
288,160,51838,1,8,0:0:0:0:
288,160,52106,1,8,0:0:0:0:
224,160,52374,1,0,0:0:0:0:
288,160,52910,1,8,0:0:0:0:
288,224,54115,1,12,0:0:0:0:
288,224,54383,1,12,0:0:0:0:
288,224,54785,1,12,0:0:0:0:
224,224,55052,5,4,0:0:0:0:
224,160,55588,1,0,0:0:0:0:
224,160,55856,1,0,0:0:0:0:
288,160,56124,1,8,0:0:0:0:
288,160,56526,1,8,0:0:0:0:
288,160,56793,1,8,0:0:0:0:
224,160,57195,1,0,0:0:0:0:
224,160,57597,1,0,0:0:0:0:
224,160,57865,1,0,0:0:0:0:
288,160,58267,1,8,0:0:0:0:
224,160,58668,1,0,0:0:0:0:
224,160,59338,1,0,0:0:0:0:
224,160,59874,1,0,0:0:0:0:
224,160,60142,1,0,0:0:0:0:
288,160,60410,1,8,0:0:0:0:
288,160,60811,1,8,0:0:0:0:
288,160,61079,1,8,0:0:0:0:
224,160,61481,1,0,0:0:0:0:
288,224,62686,1,12,0:0:0:0:
288,224,62954,1,12,0:0:0:0:
288,224,63356,1,12,0:0:0:0:
224,224,63624,5,4,0:0:0:0:
224,160,64160,1,0,0:0:0:0:
224,160,64695,1,0,0:0:0:0:
288,160,65231,1,8,0:0:0:0:
224,160,65767,1,0,0:0:0:0:
288,160,66035,1,8,0:0:0:0:
224,160,66302,1,0,0:0:0:0:
288,160,66570,1,8,0:0:0:0:
224,160,66838,1,0,0:0:0:0:
224,160,67910,1,0,0:0:0:0:
224,160,68445,1,0,0:0:0:0:
224,160,68981,1,0,0:0:0:0:
288,160,69517,1,8,0:0:0:0:
224,160,70052,1,0,0:0:0:0:
224,160,70320,1,0,0:0:0:0:
288,160,70588,1,8,0:0:0:0:
288,160,70856,1,8,0:0:0:0:
224,160,71124,1,0,0:0:0:0:
224,160,72195,1,0,0:0:0:0:
224,160,72731,1,0,0:0:0:0:
224,160,73267,1,0,0:0:0:0:
288,160,73535,1,8,0:0:0:0:
288,160,73802,1,8,0:0:0:0:
224,160,74338,1,0,0:0:0:0:
288,160,74606,1,8,0:0:0:0:
224,160,74874,1,0,0:0:0:0:
288,160,75142,1,8,0:0:0:0:
224,160,75410,1,0,0:0:0:0:
288,160,76481,1,8,0:0:0:0:
288,160,77017,1,8,0:0:0:0:
224,160,77552,1,0,0:0:0:0:
224,160,78088,1,0,0:0:0:0:
288,160,78624,1,8,0:0:0:0:
288,160,78892,1,8,0:0:0:0:
224,160,79160,1,0,0:0:0:0:
224,160,79427,1,0,0:0:0:0:
288,160,79695,1,8,0:0:0:0:
224,224,80767,5,4,0:0:0:0:
224,160,81168,1,0,0:0:0:0:
224,160,81570,1,0,0:0:0:0:
224,160,81838,1,0,0:0:0:0:
288,160,82910,1,8,0:0:0:0:
288,160,83311,1,8,0:0:0:0:
288,160,83713,1,8,0:0:0:0:
288,160,83981,1,8,0:0:0:0:
288,160,85052,1,8,0:0:0:0:
288,160,85320,1,8,0:0:0:0:
288,160,85588,1,8,0:0:0:0:
288,160,86124,1,8,0:0:0:0:
288,160,86392,1,8,0:0:0:0:
224,160,86660,1,0,0:0:0:0:
224,160,87195,1,0,0:0:0:0:
288,160,87463,1,8,0:0:0:0:
224,160,87731,1,0,0:0:0:0:
224,160,88267,1,0,0:0:0:0:
224,160,88535,1,0,0:0:0:0:
224,160,88802,1,0,0:0:0:0:
224,160,89070,1,0,0:0:0:0:
288,224,89338,1,12,0:0:0:0:
224,224,91481,5,4,0:0:0:0:
224,224,92017,1,4,0:0:0:0:
288,224,92552,1,12,0:0:0:0:
288,160,92954,1,8,0:0:0:0:
288,160,93356,1,8,0:0:0:0:
224,160,93624,1,0,0:0:0:0:
224,160,93892,1,0,0:0:0:0:
224,160,94160,1,0,0:0:0:0:
288,224,94695,1,12,0:0:0:0:
288,224,94963,1,12,0:0:0:0:
288,224,95231,1,12,0:0:0:0:
224,224,95767,1,4,0:0:0:0:
224,224,96302,1,4,0:0:0:0:
288,224,96838,1,12,0:0:0:0:
288,160,97240,1,8,0:0:0:0:
288,160,97642,1,8,0:0:0:0:
224,160,97910,1,0,0:0:0:0:
224,160,98177,1,0,0:0:0:0:
224,160,98445,1,0,0:0:0:0:
288,160,98981,1,8,0:0:0:0:
288,160,99785,1,8,0:0:0:0:
224,224,100052,1,4,0:0:0:0:
224,224,100588,1,4,0:0:0:0:
288,224,101124,1,12,0:0:0:0:
288,224,101660,1,12,0:0:0:0:
224,224,102195,1,4,0:0:0:0:
224,224,102731,1,4,0:0:0:0:
288,224,103267,1,12,0:0:0:0:
288,224,103535,1,12,0:0:0:0:
288,224,103802,1,12,0:0:0:0:
224,224,104338,1,4,0:0:0:0:
224,160,104874,1,0,0:0:0:0:
288,160,105410,1,8,0:0:0:0:
288,160,105677,1,8,0:0:0:0:
224,160,105945,1,0,0:0:0:0:
288,160,106481,1,8,0:0:0:0:
288,224,107686,1,12,0:0:0:0:
288,224,107954,1,12,0:0:0:0:
288,224,108356,1,12,0:0:0:0:
224,224,108624,5,4,0:0:0:0:
288,160,109026,1,8,0:0:0:0:
224,160,109695,1,0,0:0:0:0:
288,160,109963,1,8,0:0:0:0:
288,160,110231,1,8,0:0:0:0:
224,160,110767,1,0,0:0:0:0:
224,160,111035,1,0,0:0:0:0:
288,160,111302,1,8,0:0:0:0:
288,160,111838,1,8,0:0:0:0:
288,160,112106,1,8,0:0:0:0:
224,160,112374,1,0,0:0:0:0:
224,160,112910,1,0,0:0:0:0:
224,160,113311,1,0,0:0:0:0:
224,160,113713,1,0,0:0:0:0:
224,160,113981,1,0,0:0:0:0:
288,160,114383,1,8,0:0:0:0:
224,160,115052,1,0,0:0:0:0:
224,160,115320,1,0,0:0:0:0:
288,160,115588,1,8,0:0:0:0:
288,160,115856,1,8,0:0:0:0:
224,160,116124,1,0,0:0:0:0:
224,224,117195,1,4,0:0:0:0:
224,160,117597,1,0,0:0:0:0:
288,160,117999,1,8,0:0:0:0:
224,160,118267,1,0,0:0:0:0:
288,160,118668,1,8,0:0:0:0:
288,160,119070,1,8,0:0:0:0:
224,160,119338,1,0,0:0:0:0:
224,160,119606,1,0,0:0:0:0:
288,160,119874,1,8,0:0:0:0:
224,160,120410,1,0,0:0:0:0:
288,160,120677,1,8,0:0:0:0:
224,160,120945,1,0,0:0:0:0:
288,160,121481,1,8,0:0:0:0:
288,160,121883,1,8,0:0:0:0:
288,160,122285,1,8,0:0:0:0:
224,160,122552,1,0,0:0:0:0:
224,160,122954,1,0,0:0:0:0:
288,160,123624,1,8,0:0:0:0:
288,160,123892,1,8,0:0:0:0:
224,160,124160,1,0,0:0:0:0:
224,160,124427,1,0,0:0:0:0:
288,160,124695,1,8,0:0:0:0:
224,160,124963,1,0,0:0:0:0:
288,160,125231,1,8,0:0:0:0:
224,160,125767,5,0,0:0:0:0:
224,160,126838,1,0,0:0:0:0:
224,160,127910,1,0,0:0:0:0:
288,160,128981,1,8,0:0:0:0:
288,160,129517,1,8,0:0:0:0:
224,160,130052,1,0,0:0:0:0:
224,160,131124,1,0,0:0:0:0:
224,160,132195,1,0,0:0:0:0:
288,160,132731,1,8,0:0:0:0:
224,160,133267,1,0,0:0:0:0:
224,224,134338,5,4,0:0:0:0:
224,224,134874,1,4,0:0:0:0:
288,224,135410,1,12,0:0:0:0:
288,160,135811,1,8,0:0:0:0:
288,160,136213,1,8,0:0:0:0:
224,160,136481,1,0,0:0:0:0:
224,160,136749,1,0,0:0:0:0:
224,160,137017,1,0,0:0:0:0:
288,224,137552,1,12,0:0:0:0:
288,224,137820,1,12,0:0:0:0:
288,224,138088,1,12,0:0:0:0:
224,224,138624,1,4,0:0:0:0:
224,224,139160,1,4,0:0:0:0:
288,224,139695,1,12,0:0:0:0:
288,160,140097,1,8,0:0:0:0:
288,160,140499,1,8,0:0:0:0:
224,160,140767,1,0,0:0:0:0:
224,160,141035,1,0,0:0:0:0:
224,160,141302,1,0,0:0:0:0:
288,160,141838,1,8,0:0:0:0:
288,160,142642,1,8,0:0:0:0:
224,224,142910,1,4,0:0:0:0:
224,224,143445,1,4,0:0:0:0:
288,224,143981,1,12,0:0:0:0:
288,224,144517,1,12,0:0:0:0:
224,224,145052,1,4,0:0:0:0:
224,224,145588,1,4,0:0:0:0:
288,224,146124,1,12,0:0:0:0:
288,224,146392,1,12,0:0:0:0:
288,224,146660,1,12,0:0:0:0:
224,224,147195,1,4,0:0:0:0:
224,160,147731,1,0,0:0:0:0:
224,160,147999,1,0,0:0:0:0:
288,160,148267,1,8,0:0:0:0:
288,160,148535,1,8,0:0:0:0:
224,160,148802,1,0,0:0:0:0:
288,160,149338,1,8,0:0:0:0:
288,224,150543,1,12,0:0:0:0:
288,224,150811,1,12,0:0:0:0:
288,224,151213,1,12,0:0:0:0:
224,224,151481,5,4,0:0:0:0:
224,160,152017,1,0,0:0:0:0:
224,160,152285,1,0,0:0:0:0:
288,160,152552,1,8,0:0:0:0:
288,160,152954,1,8,0:0:0:0:
288,160,153222,1,8,0:0:0:0:
224,160,153624,1,0,0:0:0:0:
224,160,154026,1,0,0:0:0:0:
224,160,154293,1,0,0:0:0:0:
288,160,154695,1,8,0:0:0:0:
224,160,155097,1,0,0:0:0:0:
224,160,155767,1,0,0:0:0:0:
224,160,156302,1,0,0:0:0:0:
224,160,156570,1,0,0:0:0:0:
288,160,156838,1,8,0:0:0:0:
288,160,157240,1,8,0:0:0:0:
288,160,157508,1,8,0:0:0:0:
224,160,157910,1,0,0:0:0:0:
288,160,158445,1,8,0:0:0:0:
288,160,158847,1,8,0:0:0:0:
224,224,160052,1,4,0:0:0:0:
224,160,160588,1,0,0:0:0:0:
224,160,160856,1,0,0:0:0:0:
288,160,161124,1,8,0:0:0:0:
288,160,161526,1,8,0:0:0:0:
288,160,161793,1,8,0:0:0:0:
224,160,162195,1,0,0:0:0:0:
224,160,162597,1,0,0:0:0:0:
224,160,162865,1,0,0:0:0:0:
288,160,163267,1,8,0:0:0:0:
224,160,163668,1,0,0:0:0:0:
224,160,164338,1,0,0:0:0:0:
224,160,164874,1,0,0:0:0:0:
224,160,165142,1,0,0:0:0:0:
288,160,165410,1,8,0:0:0:0:
288,160,165811,1,8,0:0:0:0:
288,160,166079,1,8,0:0:0:0:
224,160,166481,1,0,0:0:0:0:
288,160,167017,1,8,0:0:0:0:
288,160,167285,1,8,0:0:0:0:
224,160,167552,1,0,0:0:0:0:
288,224,168758,1,12,0:0:0:0:
288,224,169026,1,12,0:0:0:0:
288,224,169427,1,12,0:0:0:0:
224,224,169695,1,4,0:0:0:0:
