osu file format v14

[General]
AudioFilename: audio.mp3
AudioLeadIn: 0
PreviewTime: 108275
Countdown: 0
SampleSet: Soft
StackLeniency: 0.7
Mode: 0
LetterboxInBreaks: 0
WidescreenStoryboard: 1

[Editor]
Bookmarks: 51154,104726,147583
DistanceSpacing: 1.1
BeatDivisor: 2
GridSize: 16
TimelineZoom: 2.1

[Metadata]
Title:In the Black
TitleUnicode:イン・ザ・ブラック
Artist:BUTAOTOME
ArtistUnicode:豚乙女
Creator:Luscent
Version:Normal
Source:東方憑依華 ~ Antinomy of Common Flowers.
Tags:東方project Touhou Project ZUN AoCF Hyouibana th15.5 U2 Uni Akiyama あきやまうに Twilight Frontier Team Shanghai Alice 二ッ岩 マミゾウ Futatsuiwa Mamizou 深緑の狸森にて Shinryoku no Tanuki Mori nite in the deep-green tanuki forest dailycare lude delis mirash ランコ ranko buta otome japanese rock pop video game
BeatmapID:4240723
BeatmapSetID:1833640

[Difficulty]
HPDrainRate:3
CircleSize:3
OverallDifficulty:4
ApproachRate:5
SliderMultiplier:0.9
SliderTickRate:0.5

[Events]
//Background and Video events
0,0,"2.jpg",0,0
//Break Periods
2,55172,62344
2,125886,133058
//Storyboard Layer 0 (Background)
//Storyboard Layer 1 (Fail)
//Storyboard Layer 2 (Pass)
//Storyboard Layer 3 (Foreground)
//Storyboard Layer 4 (Overlay)
//Storyboard Sound Samples

[TimingPoints]
331,267.857142857143,4,2,1,78,1,0
9973,267.857142857143,4,2,1,72,1,0
9973,-111.111111111111,4,2,1,72,0,0
27383,-111.111111111111,4,2,1,58,0,0
27919,-125,4,2,1,58,0,0
28455,-125,4,2,1,62,0,0
29526,-125,4,2,1,66,0,0
30598,-125,4,2,1,70,0,0
37830,267.857142857143,4,2,1,80,1,0
54972,-100,4,2,1,78,0,0
63544,-125,4,2,1,68,0,0
80955,-125,4,2,1,58,0,0
82026,-125,4,2,1,62,0,0
83097,-125,4,2,1,66,0,0
84169,-125,4,2,1,70,0,0
91401,267.857142857143,4,2,1,80,1,0
108543,-100,4,2,1,78,0,0
125686,-100,4,2,1,50,0,0
134258,-100,4,2,1,80,0,0
151401,-100,4,2,1,78,0,0

[Colours]
Combo1 : 99,66,54
Combo2 : 201,141,52
Combo3 : 156,73,115
Combo4 : 124,156,58

[HitObjects]
223,242,331,6,0,P|284:272|390:256,2,135,4|2|10,1:0|1:2|1:2,0:0:0:0:
124,245,1402,2,0,P|153:180|151:127,1,90,2|8,1:2|1:0,0:0:0:0:
136,115,1804,1,2,1:2:0:0:
219,60,2072,1,2,1:2:0:0:
219,60,2206,1,8,1:0:0:0:
295,122,2473,6,0,P|354:138|430:133,2,135,2|2|10,1:2|1:2|1:2,0:0:0:0:
223,191,3545,2,0,P|264:239|278:314,1,135,2|2,1:2|1:2,0:0:0:0:
372,352,4214,1,2,1:2:0:0:
372,352,4348,1,10,1:2:0:0:
451,293,4616,6,0,P|445:243|456:164,1,90,0|8,1:0|1:0,0:0:0:0:
348,198,5152,2,0,P|301:209|234:204,1,90,0|10,2:0|1:2,0:0:0:0:
160,218,5688,2,0,P|128:157|139:67,2,135,2|2|8,1:2|1:2|1:0,0:0:0:0:
177,315,6759,1,2,1:2:0:0:
177,315,6893,2,0,P|241:294|303:295,1,90,2|2,2:0|1:2,2:0:0:0:
362,326,7429,1,2,1:2:0:0:
362,326,7563,1,8,1:0:0:0:
448,278,7831,6,0,P|470:192|452:112,1,135,0|2,1:0|1:2,2:0:0:0:
323,192,8634,1,10,1:2:0:0:
233,228,8902,1,0,1:0:0:0:
233,228,9036,2,0,P|189:215|127:206,1,90,8|8,1:0|1:0,0:0:0:0:
101,124,9572,1,8,1:0:0:0:
101,124,9706,1,8,1:0:0:0:
165,62,9973,6,0,P|236:101|325:85,1,161.999995056153,4|2,1:0|0:0,2:0:0:0:
382,151,10776,1,10,2:0:0:0:
473,138,11044,2,0,P|465:177|464:218,1,81.0000000000001,0|10,2:0|2:0,2:0:0:0:
383,255,11580,2,0,P|333:268|292:263,1,81.0000000000001,0|10,2:0|2:0,0:0:0:0:
245,337,12115,1,0,2:0:0:0:
170,299,12383,1,10,2:0:0:0:
170,299,12517,2,0,P|141:238|152:181,1,121.5,2|10,2:0|2:0,0:0:0:0:
224,138,13187,2,0,L|368:154,1,121.5,4|4,2:3|2:3,0:0:0:0:
431,253,13990,1,8,2:0:0:0:
360,308,14258,6,0,P|309:289|261:288,1,81.0000000000001,2|10,2:0|2:0,2:0:0:0:
203,327,14794,2,0,P|163:292|151:243,1,81.0000000000001,0|10,2:0|2:0,2:0:0:0:
76,219,15330,2,0,P|116:175|120:85,1,121.5,2|4,2:0|3:0,2:0:0:0:
235,37,16133,1,10,2:0:0:0:
308,87,16401,6,0,P|314:136|308:182,1,81.0000000000001,2|10,2:0|2:0,2:0:0:0:
234,213,16937,2,0,P|280:242|302:278,1,81.0000000000001,0|10,2:0|2:0,0:0:0:0:
375,300,17473,1,2,2:0:0:0:
446,246,17740,1,8,2:0:0:0:
446,246,17874,2,0,P|432:177|439:109,1,121.5,2|10,2:0|2:0,0:0:0:0:
354,87,18544,6,0,P|293:101|249:91,1,81.0000000000001,2|10,2:0|2:0,2:0:0:0:
197,54,19080,2,0,P|169:91|171:136,1,81.0000000000001,0|10,2:0|2:0,2:0:0:0:
91,170,19615,1,0,2:0:0:0:
151,235,19883,1,10,2:0:0:0:
235,207,20151,2,0,P|288:207|334:216,1,81.0000000000001,0|10,2:0|2:0,0:0:0:0:
398,178,20687,6,0,P|437:222|446:299,2,121.5,0|2|10,2:0|2:0|2:0,2:0:0:0:
340,109,21758,2,0,P|293:124|234:120,1,81.0000000000001,4|8,2:3|2:0,0:0:0:0:
224,150,22160,2,0,P|187:109|190:37,1,121.5,4|8,2:3|2:0,0:0:0:0:
95,87,22830,5,2,2:0:0:0:
47,161,23098,2,0,P|42:204|51:245,1,81.0000000000001,10|0,2:0|2:0,0:0:0:0:
54,329,23633,2,0,P|107:308|146:274,1,81.0000000000001,10|0,2:0|2:0,0:0:0:0:
197,240,24169,2,0,P|249:257|303:253,1,81.0000000000001,10|0,2:0|2:0,0:0:0:0:
356,222,24705,1,10,2:0:0:0:
442,243,24973,6,0,P|465:185|450:107,2,121.5,2|2|10,2:0|2:0|2:0,2:0:0:0:
386,313,26044,1,2,2:0:0:0:
300,288,26312,1,8,2:0:0:0:
300,288,26446,2,0,P|233:286|170:301,1,121.5,2|10,2:1|2:1,0:0:0:0:
137,230,27115,5,6,1:0:0:0:
105,157,27383,1,0,3:0:0:0:
230,60,27919,2,0,P|283:72|320:73,1,72,0|0,3:0|3:0,0:0:0:0:
376,50,28455,1,0,3:0:0:0:
415,118,28723,1,0,3:0:0:0:
327,250,29258,5,2,1:2:0:0:
251,227,29526,1,0,3:0:0:0:
106,292,30062,2,0,P|93:242|95:193,1,72,0|0,3:0|3:0,0:0:0:0:
58,150,30598,1,0,3:0:0:0:
94,79,30865,1,0,3:0:0:0:
237,145,31401,6,0,P|272:151|308:156,2,72,2|2|2,1:2|1:2|1:2,0:0:0:0:
190,209,32205,2,0,P|154:202|118:197,2,72,2|2|2,1:2|1:2|1:2,0:0:0:0:
221,281,33008,2,0,P|279:288|321:297,1,72,2|2,1:2|1:2,0:0:0:0:
363,325,33544,5,2,1:2:0:0:
425,276,33812,1,2,1:2:0:0:
438,197,34080,1,2,1:2:0:0:
406,124,34348,1,2,1:2:0:0:
329,144,34615,2,0,P|247:168|94:103,1,216,2|2,1:2|1:2,0:0:0:0:
66,78,35687,1,2,2:1:0:0:
47,298,37830,6,0,P|106:284|170:290,1,90,4|8,1:2|1:0,2:0:0:0:
232,301,38365,2,0,P|209:250|208:193,2,90,0|8|4,3:0|1:0|2:3,2:0:0:0:
318,350,39169,1,8,1:0:0:0:
318,350,39303,2,0,P|360:299|359:250,1,90,4|4,2:3|2:3,0:0:0:0:
344,230,39705,1,8,1:0:0:0:
411,157,39972,6,0,P|459:168|514:171,2,90,4|8|4,2:3|1:0|2:3,2:0:0:0:
343,83,40776,1,8,1:0:0:0:
255,128,41044,1,12,2:3:0:0:
161,95,41312,2,0,P|123:155|138:231,1,135,8|2,1:0|2:1,2:0:0:0:
91,246,41847,1,8,1:0:0:0:
161,315,42115,6,0,P|219:299|271:295,1,90,4|8,1:2|1:0,2:0:0:0:
329,237,42651,2,0,P|371:256|422:262,2,90,0|8|4,0:0|1:0|2:3,0:0:0:0:
236,200,43455,1,8,1:0:0:0:
236,200,43588,2,0,P|211:126|225:55,1,135,4|8,2:3|1:0,0:0:0:0:
306,25,44258,5,4,2:3:0:0:
396,66,44526,1,8,1:0:0:0:
396,165,44794,2,0,P|344:171|290:161,1,90,4|8,2:3|1:0,2:0:0:0:
223,214,45330,1,12,2:3:0:0:
113,182,45597,1,8,1:0:0:0:
113,182,45731,2,0,P|136:231|135:318,1,135,4|10,2:3|1:0,0:0:0:0:
235,301,46401,5,6,1:2:0:0:
319,248,46669,2,0,P|354:252|388:255,2,45,10|0|2,1:2|0:0|2:0,0:0:0:0:
325,148,47205,2,0,P|357:126|382:90,2,45,10|0|2,1:2|0:0|1:2,0:0:0:0:
239,97,47740,2,0,P|245:58|242:28,2,45,10|0|2,1:2|0:0|2:0,0:0:0:0:
146,132,48276,2,0,P|131:93|120:67,2,45,10|0|2,1:2|0:0|1:2,0:0:0:0:
94,216,48812,2,0,P|67:219|40:217,2,45,10|0|2,1:2|0:0|2:0,0:0:0:0:
169,284,49347,1,2,1:2:0:0:
254,234,49615,2,0,P|313:244|362:243,2,90,2|10|2,1:0|1:0|2:1,0:0:0:0:
81,135,50687,6,0,P|119:74|216:75,1,135,6|4,1:0|2:3,2:0:0:0:
220,84,51222,2,0,P|263:92|333:80,1,90,2|8,2:0|1:0,2:0:0:0:
381,152,51758,1,2,1:2:0:0:
483,116,52026,1,8,1:0:0:0:
483,116,52160,2,0,P|464:178|469:251,1,135,4|10,2:3|1:2,0:0:0:0:
372,275,52830,6,0,P|312:297|238:291,1,135,6|4,1:2|2:3,2:0:0:0:
208,328,53365,1,2,2:0:0:0:
148,247,53633,2,0,P|133:205|134:161,1,90,8|12,1:0|2:3,0:0:0:0:
161,119,54035,1,2,1:0:0:0:
254,152,54303,1,2,1:0:0:0:
349,125,54571,1,2,1:0:0:0:
349,125,54705,2,0,P|395:140|455:136,1,90,2|4,1:0|1:0,0:0:0:0:
377,94,63544,6,0,P|424:151|417:235,1,144,4|8,2:0|2:3,2:0:0:0:
384,290,64347,1,0,1:0:0:0:
309,257,64615,2,0,P|266:264|213:261,1,72,4|0,2:3|1:3,0:0:0:0:
165,297,65151,2,0,P|146:244|152:197,1,72,0|0,2:0|1:0,0:0:0:0:
69,205,65687,6,0,P|120:173|156:87,1,144,4|0,2:3|2:0,0:0:0:0:
227,132,66490,1,0,1:0:0:0:
300,101,66758,2,0,P|338:107|388:106,2,72,4|0|0,2:3|1:0|0:0,0:0:0:0:
451,164,67830,6,0,P|485:235|484:299,1,144,6|0,2:3|0:0,2:0:0:0:
403,280,68633,1,0,1:0:0:0:
322,260,68901,2,0,P|260:273|220:268,1,72,4|0,2:3|1:0,0:0:0:0:
182,227,69437,2,0,P|148:236|111:239,2,72,0|0|4,0:0|1:0|2:3,0:0:0:0:
241,169,70240,1,0,1:0:0:0:
230,86,70508,1,0,2:0:0:0:
157,46,70776,2,0,P|140:92|145:140,1,72,0|4,1:0|2:3,0:0:0:0:
75,166,71312,1,0,1:0:0:0:
75,166,71446,2,0,P|111:213|113:287,1,108,10|2,2:3|1:3,0:0:0:0:
200,269,72115,6,0,P|256:285|315:285,1,108,6|8,2:3|2:3,2:0:0:0:
343,268,72651,1,0,0:0:0:0:
402,210,72919,2,0,P|395:163|404:112,1,72,0|4,1:0|2:3,0:0:0:0:
315,155,73455,2,0,P|280:164|244:163,1,72,0|0,1:0|0:0,0:0:0:0:
185,104,73990,1,0,1:0:0:0:
104,83,74258,6,0,P|141:134|148:192,1,108,4|8,2:3|2:3,0:0:0:0:
67,271,75062,1,0,1:0:0:0:
129,325,75330,2,0,P|184:311|231:311,1,72,4|0,2:3|1:0,0:0:0:0:
235,290,75731,2,0,P|282:317|347:317,1,108,8|0,2:3|1:0,0:0:0:0:
415,341,76401,5,6,2:3:0:0:
471,280,76669,2,0,P|468:232|472:196,1,72,0|0,1:0|0:0,0:0:0:0:
396,169,77205,2,0,L|316:183,1,72,0|6,1:0|2:3,0:0:0:0:
242,184,77740,2,0,P|239:136|243:100,1,72,0|0,1:0|2:0,0:0:0:0:
182,52,78276,1,0,1:0:0:0:
100,66,78544,6,0,P|43:92|33:186,1,144,6|2,2:3|2:3,2:0:0:0:
81,226,79347,1,0,1:0:0:0:
161,205,79615,1,6,2:3:0:0:
249,228,79883,1,0,1:0:0:0:
249,228,80017,2,0,P|243:169|251:104,1,108,8|0,2:3|1:0,0:0:0:0:
309,65,80687,5,4,1:0:0:0:
388,86,80955,1,0,3:0:0:0:
498,209,81490,2,0,P|455:217|403:219,1,72,0|0,3:0|3:0,0:0:0:0:
356,263,82026,1,0,3:0:0:0:
297,204,82294,1,0,3:0:0:0:
136,161,82830,5,2,1:2:0:0:
207,119,83097,1,0,3:0:0:0:
179,282,83633,2,0,P|129:278|79:260,1,72,0|0,3:0|3:0,0:0:0:0:
43,220,84169,1,0,3:0:0:0:
27,138,84437,1,0,3:0:0:0:
189,169,84972,6,0,P|241:177|294:171,2,72,2|2|2,1:2|1:2|1:2,0:0:0:0:
165,89,85776,2,0,P|113:81|60:87,2,72,2|2|2,1:2|1:2|1:2,0:0:0:0:
233,33,86580,2,0,P|283:40|323:38,1,72,2|2,1:2|1:2,0:0:0:0:
384,18,87115,5,2,1:2:0:0:
424,90,87383,1,2,1:2:0:0:
411,171,87651,1,2,1:2:0:0:
353,230,87919,1,2,1:2:0:0:
270,239,88187,2,0,P|366:265|430:374,1,216,2|2,1:2|1:2,0:0:0:0:
500,299,89258,1,2,2:1:0:0:
187,210,91401,6,0,P|144:214|83:208,2,90,4|8|4,1:2|1:0|3:0,2:0:0:0:
279,247,92204,2,0,P|309:203|318:146,1,90,8|4,1:0|2:3,2:0:0:0:
373,86,92740,1,8,1:0:0:0:
373,86,92874,2,0,P|402:134|480:172,1,135,4|8,2:3|1:0,0:0:0:0:
467,268,93543,2,0,P|423:263|379:271,1,90,4|8,2:3|1:0,2:0:0:0:
302,334,94079,1,4,2:3:0:0:
214,287,94347,1,8,1:0:0:0:
115,300,94615,2,0,P|103:249|110:181,1,90,12|8,2:3|1:0,2:0:0:0:
39,135,95151,1,2,2:0:0:0:
195,14,95686,6,0,P|264:60|267:143,1,135,4|4,1:2|2:3,2:0:0:0:
239,141,96222,2,0,P|232:192|246:254,1,90,0|8,0:0|1:0,0:0:0:0:
325,275,96758,1,4,2:3:0:0:
423,249,97026,1,8,1:0:0:0:
423,249,97159,2,0,P|429:188|420:131,1,90,4|4,2:3|2:3,0:0:0:0:
395,120,97561,1,8,1:0:0:0:
301,154,97829,6,0,P|258:163|213:161,1,90,4|8,2:3|1:0,2:0:0:0:
128,110,98365,1,4,2:3:0:0:
79,196,98633,1,8,1:0:0:0:
151,263,98901,2,0,P|217:251|285:250,1,135,12|4,2:3|2:3,0:0:0:0:
377,299,99570,1,4,2:3:0:0:
377,299,99704,1,10,1:0:0:0:
457,241,99972,5,4,1:2:0:0:
416,150,100240,2,0,P|413:118|414:89,2,45,10|0|2,1:2|0:0|2:0,0:0:0:0:
323,114,100776,2,0,P|329:77|341:53,2,45,10|0|2,1:2|0:0|1:2,0:0:0:0:
225,95,101311,2,0,P|213:60|202:37,2,45,10|0|2,1:2|0:0|2:0,0:0:0:0:
161,163,101847,2,0,P|130:170|101:168,2,45,10|0|2,1:2|0:0|1:2,0:0:0:0:
240,222,102383,2,0,P|243:256|236:287,2,45,10|0|2,1:2|0:0|2:0,0:0:0:0:
335,197,102918,1,10,1:2:0:0:
341,295,103186,6,0,P|349:349|340:399,2,90,2|10|2,1:0|1:0|2:1,0:0:0:0:
251,251,103990,1,10,1:0:0:0:
249,151,104258,1,6,1:0:0:0:
469,209,104793,5,2,2:0:0:0:
447,112,105061,1,8,1:0:0:0:
380,38,105329,2,0,P|315:57|239:49,1,135,2|4,1:2|2:3,0:0:0:0:
210,82,105865,2,0,P|180:119|175:172,1,90,2|10,2:0|1:2,0:0:0:0:
219,248,106401,5,6,1:2:0:0:
150,319,106668,1,8,1:0:0:0:
150,319,106802,2,0,P|231:293|305:298,1,135,4|8,2:3|1:0,0:0:0:0:
358,232,107472,2,0,P|353:181|359:137,1,90,12|4,2:3|2:3,0:0:0:0:
333,99,107874,1,2,1:0:0:0:
242,138,108142,1,2,1:0:0:0:
242,138,108276,1,2,1:0:0:0:
154,92,108543,6,0,P|101:127|92:220,1,135,6|2,1:0|1:1,0:0:0:0:
49,288,109213,2,0,P|111:291|174:280,1,90,2|2,2:1|1:1,0:0:0:0:
229,328,109749,1,2,1:1:0:0:
229,328,109883,1,2,1:0:0:0:
304,263,110151,2,0,P|299:203|307:142,1,90,2|2,1:1|1:2,0:0:0:0:
376,108,110686,6,0,P|441:136|456:168,1,90,2|2,1:1|1:2,0:0:0:0:
458,198,111088,1,2,1:1:0:0:
396,276,111356,1,2,2:1:0:0:
396,276,111490,2,0,P|340:285|295:284,1,90,2|2,1:2|2:1,0:0:0:0:
219,332,112026,1,2,1:2:0:0:
219,332,112159,2,0,P|172:290|84:270,1,135,2|2,2:1|1:2,0:0:0:0:
28,204,112829,6,0,P|34:127|98:96,1,135,2|2,2:1|1:1,0:0:0:0:
172,143,113499,1,2,2:1:0:0:
172,143,113633,1,2,1:2:0:0:
263,104,113901,2,0,P|324:123|405:118,1,135,2|2,2:1|2:1,0:0:0:0:
470,193,114570,1,2,2:1:0:0:
470,193,114704,1,2,1:2:0:0:
407,269,114972,6,0,P|362:260|305:259,1,90,2|2,2:1|1:2,0:0:0:0:
244,324,115508,1,2,2:1:0:0:
159,272,115776,1,2,1:0:0:0:
158,172,116043,1,2,2:0:0:0:
237,113,116311,2,0,P|248:161|241:220,2,90,2|4|0,1:2|1:3|1:0,0:0:0:0:
147,71,117115,6,0,P|80:98|66:169,2,135,6|2|2,1:0|2:1|1:2,0:0:0:0:
237,113,118186,2,0,P|313:76|328:20,2,135,2|2|2,2:1|2:1|1:2,0:0:0:0:
175,190,119258,2,0,P|170:242|179:290,1,90,2|2,2:1|1:2,0:0:0:0:
271,250,119793,1,2,2:0:0:0:
370,247,120061,1,2,1:0:0:0:
464,276,120329,2,0,P|469:224|460:176,1,90,2|2,2:1|1:0,0:0:0:0:
398,111,120865,2,0,P|351:131|299:134,1,90,2|2,2:0|1:0,0:0:0:0:
218,167,121401,6,0,P|195:118|123:66,1,135,2|2,2:1|2:1,0:0:0:0:
50,123,122070,1,2,2:1:0:0:
50,123,122204,1,2,1:2:0:0:
83,215,122472,2,0,P|87:272|77:334,1,90,2|2,2:1|1:0,0:0:0:0:
132,294,122874,2,0,P|187:322|237:321,1,90,2|2,2:1|2:1,0:0:0:0:
257,349,123276,1,2,1:2:0:0:
339,293,123543,1,2,2:1:0:0:
256,192,123677,12,2,125686,2:3:0:0:
174,243,134258,6,0,P|158:198|166:147,1,90,4|8,1:2|1:0,2:0:0:0:
258,183,134793,2,0,P|274:228|266:279,2,90,0|8|4,2:0|1:0|2:3,2:0:0:0:
357,181,135597,1,8,1:0:0:0:
357,181,135731,2,0,P|335:116|351:46,1,135,4|8,2:3|1:0,0:0:0:0:
447,50,136401,5,4,2:3:0:0:
504,130,136668,1,8,1:0:0:0:
457,217,136936,2,0,P|450:271|458:316,1,90,4|8,2:3|1:0,2:0:0:0:
361,272,137472,2,0,P|313:281|263:271,2,90,12|8|2,2:3|1:0|2:0,2:0:0:0:
394,178,138276,1,8,1:0:0:0:
326,105,138543,6,0,P|259:136|245:203,1,135,4|4,1:2|2:3,2:0:0:0:
203,219,139079,2,0,P|158:226|114:217,1,90,0|8,0:0|1:0,0:0:0:0:
48,143,139615,1,4,2:3:0:0:
2,231,139883,1,8,1:0:0:0:
2,231,140017,2,0,P|-2:298|4:336,1,90,4|4,2:3|2:3,0:0:0:0:
40,351,140418,1,8,1:0:0:0:
131,313,140686,6,0,P|192:304|257:313,1,90,4|8,2:3|1:0,2:0:0:0:
260,276,141088,1,0,2:0:0:0:
300,247,141222,2,0,P|292:197|298:133,2,90,4|8|8,2:3|1:0|2:3,0:0:0:0:
390,288,142026,1,10,1:2:0:0:
390,288,142159,2,0,P|437:238|442:167,1,135,2|0,2:0|1:0,0:0:0:0:
374,103,142829,5,6,1:2:0:0:
294,43,143097,2,0,P|263:45|238:40,2,45,10|0|2,1:2|0:0|2:0,0:0:0:0:
265,138,143633,2,0,P|262:176|266:209,2,45,10|0|2,1:2|0:0|1:2,0:0:0:0:
173,176,144168,2,0,P|131:178|97:171,2,45,10|0|2,1:2|0:0|2:0,0:0:0:0:
208,268,144704,2,0,P|207:303|212:336,2,45,10|0|2,1:2|0:0|1:2,0:0:0:0:
301,301,145240,2,0,P|302:336|297:369,2,45,10|0|2,1:2|0:0|2:0,0:0:0:0:
328,205,145776,1,10,1:2:0:0:
344,107,146043,5,2,1:0:0:0:
438,136,146311,1,10,1:0:0:0:
464,232,146579,1,2,1:1:0:0:
413,316,146847,2,0,P|360:318|309:306,1,90,10|6,1:0|1:0,0:0:0:0:
136,247,147651,6,0,P|113:186|127:104,1,135,2|2,2:0|2:0,2:0:0:0:
157,83,148186,2,0,P|201:91|254:79,1,90,2|8,1:2|1:0,0:0:0:0:
291,100,148588,1,4,2:3:0:0:
337,115,148722,2,0,P|331:58|339:9,2,90,2|10|4,2:0|1:2|1:2,0:0:0:0:
267,186,149526,1,8,1:0:0:0:
267,186,149659,2,0,P|312:231|317:305,1,135,4|8,2:3|1:0,0:0:0:0:
414,264,150329,1,12,2:3:0:0:
414,264,150463,2,0,P|442:207|502:183,1,90,2|2,1:0|1:0,0:0:0:0:
401,121,150999,1,2,1:0:0:0:
401,121,151133,1,2,1:0:0:0:
332,49,151401,1,4,1:2:0:0:
