osu file format v14

[General]
AudioFilename: audio.mp3
AudioLeadIn: 0
PreviewTime: 108275
Countdown: 0
SampleSet: Soft
StackLeniency: 0.7
Mode: 0
LetterboxInBreaks: 0
WidescreenStoryboard: 0

[Editor]
DistanceSpacing: 1
BeatDivisor: 4
GridSize: 4
TimelineZoom: 1.9

[Metadata]
Title:In the Black
TitleUnicode:イン・ザ・ブラック
Artist:BUTAOTOME
ArtistUnicode:豚乙女
Creator:Luscent
Version:Mirash's Extra
Source:東方憑依華 ~ Antinomy of Common Flowers.
Tags:東方project Touhou Project ZUN AoCF Hyouibana th15.5 U2 Uni Akiyama あきやまうに Twilight Frontier Team Shanghai Alice 二ッ岩 マミゾウ Futatsuiwa Mamizou 深緑の狸森にて Shinryoku no Tanuki Mori nite in the deep-green tanuki forest dailycare lude delis mirash ランコ ranko buta otome japanese rock pop video game
BeatmapID:4240722
BeatmapSetID:1833640

[Difficulty]
HPDrainRate:7
CircleSize:4
OverallDifficulty:8
ApproachRate:9.4
SliderMultiplier:1.6
SliderTickRate:1

[Events]
//Background and Video events
0,0,"2.jpg",0,0
//Break Periods
//Storyboard Layer 0 (Background)
//Storyboard Layer 1 (Fail)
//Storyboard Layer 2 (Pass)
//Storyboard Layer 3 (Foreground)
//Storyboard Layer 4 (Overlay)
//Storyboard Sound Samples

[TimingPoints]
331,267.857142857143,4,2,1,68,1,0
331,-83.3333333333333,4,2,1,68,0,0
9973,267.857142857143,4,2,1,68,1,0
31401,-200,4,2,1,20,0,0
32473,-133.333333333333,4,2,1,40,0,0
33544,-133.333333333333,4,2,1,70,0,0
37830,267.857142857143,4,2,1,70,1,0
37830,-83.3333333333333,4,2,1,70,0,0
62606,-66.6666666666667,4,2,1,70,0,0
63544,-66.6666666666667,4,2,1,50,0,0
65687,-100,4,2,1,50,0,0
84972,-200,4,2,1,20,0,0
86044,-133.333333333333,4,2,1,40,0,0
87115,-133.333333333333,4,2,1,70,0,0
91401,267.857142857143,4,2,1,80,1,0
91401,-83.3333333333333,4,2,1,80,0,0
125686,-200,4,2,1,40,0,0
134258,-76.9230769230769,4,2,1,70,0,0
168677,-62.5,4,2,1,70,0,0

[Colours]
Combo1 : 82,169,140
Combo2 : 94,119,83
Combo3 : 159,113,158
Combo4 : 79,105,106

[HitObjects]
445,254,331,6,0,L|458:368,1,96.0000000000001,4|2,1:0|2:0,2:0:0:0:
314,230,598,5,8,1:0:0:0:
386,172,732,1,2,1:2:0:0:
326,108,866,1,0,2:0:0:0:
53,213,1000,5,2,1:2:0:0:
114,164,1134,2,0,L|227:189,1,96.0000000000001,10|0,1:2|2:0,2:0:0:0:
379,368,1402,5,2,1:2:0:0:
353,299,1536,2,0,L|165:258,2,192,2|2|2,2:0|1:2|1:2,2:0:0:0:
363,308,2206,5,8,1:0:0:0:
306,195,2339,1,0,2:0:0:0:
121,105,2473,5,2,1:2:0:0:
79,166,2607,2,0,L|267:125,2,192,2|2|2,2:0|1:2|1:2,2:0:0:0:
65,150,3277,5,10,1:2:0:0:
96,48,3411,1,0,2:0:0:0:
359,8,3545,5,2,1:2:0:0:
389,78,3679,2,0,L|282:55,1,96.0000000000001,2|8,2:0|1:0,2:0:0:0:
334,202,3947,2,0,P|358:145|486:130,1,192,2|2,1:2|1:2,2:0:0:0:
481,200,4348,1,10,1:2:0:0:
421,253,4482,1,0,1:0:0:0:
495,281,4616,2,0,L|505:381,1,96.0000000000001,0|2,1:0|2:0,2:0:0:0:
248,378,4884,5,8,1:0:0:0:
348,353,5018,1,2,1:2:0:0:
257,294,5152,1,0,2:0:0:0:
357,266,5286,1,2,1:2:0:0:
298,343,5420,5,10,1:2:0:0:
305,253,5554,1,0,2:0:0:0:
311,159,5688,1,2,1:2:0:0:
216,225,5822,6,0,L|206:126,1,96.0000000000001,2|8,2:0|1:0,2:0:0:0:
401,7,6089,2,0,L|381:206,1,192,2|2,1:2|1:2,2:0:0:0:
322,52,6491,2,0,B|278:71|278:71|220:54,1,96.0000000000001,8|0,1:0|2:0,2:0:0:0:
64,240,6759,1,2,1:2:0:0:
137,221,6893,2,0,L|342:247,1,192,2|2,2:0|1:2,2:0:0:0:
90,308,7295,6,0,P|40:326|-5:303,1,96.0000000000001,2|2,2:0|1:2,2:0:0:0:
43,133,7563,1,8,1:0:0:0:
144,146,7697,1,2,2:0:0:0:
244,159,7831,1,0,1:0:0:0:
239,152,7964,1,0,2:0:0:0:
250,157,8098,1,10,1:2:0:0:
243,164,8232,1,2,1:2:0:0:
403,192,8366,5,0,2:0:0:0:
421,118,8500,1,2,1:2:0:0:
373,192,8634,1,10,1:2:0:0:
398,264,8768,1,0,2:0:0:0:
166,277,8902,5,0,1:0:0:0:
222,226,9036,2,0,L|320:243,1,96.0000000000001,8|0,1:0|2:0,2:0:0:0:
1,192,9304,5,8,1:0:0:0:
1,192,9572,5,8,1:0:0:0:
112,113,9706,1,8,1:0:0:0:
192,213,9839,1,0,2:0:0:0:
77,202,9973,6,0,L|61:109,1,80,4|0,1:0|2:0,2:0:0:0:
204,131,10240,5,10,2:0:0:0:
267,193,10374,1,2,2:0:0:0:
168,214,10508,2,0,L|184:121,1,80,0|0,2:0|2:0,2:0:0:0:
170,351,10776,5,10,2:0:0:0:
221,280,10910,1,2,2:0:0:0:
107,294,11044,2,0,L|91:201,1,80,0|0,2:0|2:0,2:0:0:0:
234,202,11312,2,0,L|321:229,1,80,10|0,2:0|2:0,2:0:0:0:
377,188,11580,1,0,2:0:0:0:
445,223,11714,1,2,2:0:0:0:
450,299,11848,1,10,2:0:0:0:
392,349,11981,1,0,2:0:0:0:
165,252,12115,5,0,2:0:0:0:
165,252,12383,1,10,2:0:0:0:
215,186,12517,1,2,2:0:0:0:
197,112,12651,1,0,2:0:0:0:
124,89,12785,1,0,2:0:0:0:
60,130,12919,1,10,2:0:0:0:
52,204,13053,1,0,2:0:0:0:
318,157,13187,5,4,2:3:0:0:
318,157,13388,1,4,2:3:0:0:
318,157,13455,1,8,2:0:0:0:
393,142,13589,1,4,2:3:0:0:
377,69,13723,1,0,2:0:0:0:
302,84,13856,1,4,2:3:0:0:
366,216,13990,5,8,2:0:0:0:
404,137,14124,1,0,2:0:0:0:
289,177,14258,2,0,L|188:161,1,80,2|0,2:0|2:0,2:0:0:0:
216,33,14526,5,10,2:0:0:0:
257,99,14660,1,2,2:0:0:0:
96,110,14794,2,0,L|197:94,1,80,0|0,2:0|2:0,2:0:0:0:
408,54,15062,5,10,2:0:0:0:
394,132,15196,1,2,2:0:0:0:
331,76,15330,2,0,L|348:222,1,120,0|2,2:0|2:0,2:0:0:0:
329,226,15598,2,0,B|288:219|288:219|249:241,1,80,10|0,2:0|2:0,2:0:0:0:
231,310,15865,1,2,2:0:0:0:
282,366,15999,1,0,2:0:0:0:
357,368,16133,1,10,2:0:0:0:
410,318,16267,1,0,2:0:0:0:
194,159,16401,6,0,L|205:252,1,80,2|0,2:0|2:0,2:0:0:0:
20,195,16669,2,0,L|66:122,1,80,10|2,2:0|2:0,2:0:0:0:
144,297,16937,2,0,L|35:287,1,80,0|0,2:0|2:0,2:0:0:0:
121,191,17205,1,10,2:0:0:0:
123,210,17339,1,0,2:0:0:0:
48,160,17473,5,2,2:0:0:0:
184,136,17606,1,0,2:0:0:0:
129,285,17740,1,8,2:0:0:0:
121,200,17874,6,0,L|292:216,1,160,2|2,2:0|2:0,2:0:0:0:
413,132,18276,5,10,2:0:0:0:
488,112,18410,1,2,2:0:0:0:
473,191,18544,2,0,L|370:179,1,80,2|0,2:0|2:0,2:0:0:0:
293,139,18812,1,10,2:0:0:0:
332,73,18946,1,2,2:0:0:0:
320,147,19080,1,0,2:0:0:0:
306,69,19214,1,0,2:0:0:0:
211,133,19348,5,10,2:0:0:0:
148,95,19481,1,2,2:0:0:0:
87,140,19615,1,0,2:0:0:0:
15,139,19749,1,0,2:0:0:0:
15,139,19816,1,0,2:0:0:0:
15,139,19883,2,0,L|31:228,1,80,10|0,2:0|2:0,2:0:0:0:
141,310,20151,2,0,L|155:231,1,80,0|2,2:0|2:0,2:0:0:0:
151,127,20419,5,10,2:0:0:0:
236,214,20553,1,0,2:0:0:0:
328,122,20687,2,0,B|402:164|402:164|488:122,1,160,0|10,2:0|2:0,2:0:0:0:
492,202,21089,1,2,2:0:0:0:
489,275,21223,2,0,L|501:356,1,80,0|0,2:0|2:0,2:0:0:0:
315,260,21490,1,10,2:0:0:0:
379,214,21624,1,0,2:0:0:0:
420,375,21758,5,4,2:3:0:0:
342,357,21892,1,0,2:0:0:0:
342,357,21959,1,4,2:3:0:0:
342,357,22026,2,0,L|257:368,1,80,8|4,2:0|2:3,2:0:0:0:
199,319,22294,2,0,L|114:330,1,80,0|4,2:0|2:3,2:0:0:0:
12,198,22562,5,8,2:0:0:0:
51,305,22696,1,0,2:0:0:0:
129,215,22830,1,2,2:0:0:0:
134,182,23098,5,10,2:0:0:0:
220,284,23231,1,2,2:0:0:0:
295,148,23365,1,0,2:0:0:0:
329,214,23633,5,10,2:0:0:0:
188,131,23767,1,2,2:0:0:0:
199,280,23901,1,0,2:0:0:0:
263,247,24035,1,0,2:0:0:0:
329,214,24169,1,10,2:0:0:0:
396,183,24303,1,2,2:0:0:0:
393,264,24437,5,0,2:0:0:0:
334,136,24571,1,0,2:0:0:0:
462,234,24705,1,10,2:0:0:0:
403,106,24839,1,0,2:0:0:0:
251,11,24973,6,0,L|106:30,1,120,2|0,2:0|2:0,2:0:0:0:
114,16,25240,2,0,L|131:103,1,80,10|0,2:0|2:0,2:0:0:0:
253,87,25508,2,0,L|398:106,1,120,2|0,2:0|2:0,2:0:0:0:
390,92,25776,2,0,L|373:179,1,80,10|0,2:0|2:0,2:0:0:0:
183,256,26044,5,2,2:0:0:0:
183,256,26178,1,2,2:1:0:0:
183,256,26245,1,2,2:0:0:0:
183,256,26312,1,8,2:0:0:0:
110,239,26446,1,2,2:1:0:0:
96,312,26580,1,2,2:1:0:0:
170,330,26714,1,2,2:0:0:0:
243,347,26848,1,10,2:1:0:0:
316,364,26981,1,2,2:1:0:0:
511,195,27115,5,6,1:0:0:0:
451,154,27383,1,0,3:0:0:0:
375,148,27651,1,0,3:0:0:0:
309,182,27919,1,0,3:0:0:0:
233,183,28187,1,0,3:0:0:0:
183,135,28321,1,0,3:0:0:0:
183,135,28388,1,0,3:0:0:0:
183,135,28455,1,0,3:0:0:0:
185,56,28589,1,0,3:0:0:0:
250,20,28723,1,0,3:0:0:0:
316,49,28856,1,0,3:0:0:0:
327,123,28990,1,2,3:2:0:0:
272,174,29124,1,2,3:2:0:0:
260,246,29258,5,2,1:2:0:0:
297,310,29526,1,0,3:0:0:0:
369,328,29794,1,0,3:0:0:0:
421,280,30062,1,0,3:0:0:0:
418,206,30330,1,0,3:0:0:0:
431,136,30464,1,0,3:0:0:0:
431,136,30531,1,0,3:0:0:0:
431,136,30598,1,0,3:0:0:0:
429,58,30731,1,0,3:0:0:0:
357,88,30865,1,0,3:0:0:0:
339,18,30999,1,0,3:0:0:0:
279,55,31133,1,2,3:2:0:0:
217,22,31267,1,2,3:2:0:0:
153,84,31401,6,0,L|129:88,15,20,2|0|0|0|2|0|0|0|2|0|0|0|2|0|0|0,1:2|2:0|3:0|3:0|1:2|2:0|3:0|2:0|1:2|2:0|3:0|3:0|1:2|2:0|3:0|2:0,2:0:0:0:
214,148,32473,6,0,L|246:156,15,30.0000000000001,2|0|0|0|2|0|0|0|2|0|0|0|2|0|0|0,1:2|2:0|3:0|3:0|1:2|2:0|3:0|2:0|1:2|2:0|3:0|3:0|1:2|2:0|3:0|3:0,2:0:0:0:
158,213,33544,5,2,1:2:0:0:
90,192,33678,1,0,1:0:0:0:
90,192,33745,1,0,1:0:0:0:
90,192,33812,1,2,1:2:0:0:
66,260,33946,1,0,1:0:0:0:
136,323,34080,5,2,1:2:0:0:
212,351,34214,1,0,1:0:0:0:
212,351,34281,1,0,1:0:0:0:
212,351,34348,1,2,1:2:0:0:
228,276,34481,1,0,1:0:0:0:
304,167,34615,5,2,1:2:0:0:
380,188,34749,1,0,1:0:0:0:
391,191,34816,1,2,1:2:0:0:
402,194,34883,1,2,1:2:0:0:
462,149,35017,1,2,1:2:0:0:
473,152,35084,1,0,2:0:0:0:
484,155,35151,1,2,1:2:0:0:
397,92,35285,5,2,1:2:0:0:
358,82,35352,1,2,1:2:0:0:
319,72,35419,1,2,1:2:0:0:
279,63,35486,1,0,1:0:0:0:
240,54,35553,1,0,1:0:0:0:
201,45,35620,1,0,1:0:0:0:
161,36,35687,1,2,2:1:0:0:
0,383,37428,5,12,2:3:0:0:
72,368,37562,1,2,1:3:0:0:
72,368,37830,6,0,L|266:382,1,192,4|8,1:2|1:0,2:0:0:0:
326,338,38231,1,4,2:3:0:0:
156,256,38365,2,0,B|139:208|139:208|160:153,1,96.0000000000001,0|4,2:0|2:3,2:0:0:0:
319,116,38633,2,0,L|216:115,1,96.0000000000001,8|0,1:0|2:0,2:0:0:0:
358,184,38901,2,0,P|421:168|442:45,1,192,4|8,2:3|1:0,2:0:0:0:
159,17,39303,2,0,P|166:100|176:222,1,192,4|4,2:3|2:3,2:0:0:0:
187,219,39705,5,8,1:0:0:0:
243,97,39838,1,4,2:3:0:0:
93,123,39972,2,0,B|65:162|65:162|96:223,1,96.0000000000001,4|0,2:3|2:0,2:0:0:0:
270,311,40240,2,0,B|291:268|291:268|263:229,1,96.0000000000001,8|0,1:0|2:0,2:0:0:0:
104,203,40508,5,4,2:3:0:0:
47,315,40642,1,4,2:3:0:0:
168,354,40776,1,8,1:0:0:0:
221,248,40910,1,4,2:3:0:0:
135,278,41044,6,0,L|117:172,1,96.0000000000001,12|0,2:3|2:0,2:0:0:0:
169,129,41312,1,8,1:0:0:0:
182,52,41446,1,4,2:3:0:0:
403,124,41580,2,0,B|289:106|332:184|212:175,1,192,2|8,2:0|1:0,2:0:0:0:
210,161,41914,1,0,2:0:0:0:
192,184,41981,1,2,2:1:0:0:
220,192,42048,1,0,2:0:0:0:
201,206,42115,6,0,P|241:233|251:303,1,96.0000000000001,4|0,1:2|2:0,2:0:0:0:
59,367,42383,5,8,1:0:0:0:
142,372,42517,1,4,2:3:0:0:
77,230,42651,2,0,P|37:257|27:327,1,96.0000000000001,0|4,2:0|2:3,2:0:0:0:
228,355,42919,2,0,L|329:351,1,96.0000000000001,8|0,1:0|2:0,2:0:0:0:
166,265,43187,2,0,L|182:47,1,192,4|8,2:3|1:0,2:0:0:0:
374,280,43588,6,0,P|295:255|261:155,1,192,4|4,2:3|2:3,2:0:0:0:
305,103,43990,1,8,1:0:0:0:
370,136,44124,1,4,2:3:0:0:
450,277,44258,2,0,B|470:322|470:322|453:365,1,96.0000000000001,4|0,2:3|2:0,2:0:0:0:
424,199,44526,2,0,L|441:47,1,144,8|0,1:0|2:0,2:0:0:0:
454,35,44794,2,0,L|348:44,1,96.0000000000001,4|4,2:3|2:3,2:0:0:0:
297,88,45062,2,0,L|191:79,1,96.0000000000001,8|4,1:0|2:3,2:0:0:0:
19,190,45330,5,12,2:3:0:0:
137,129,45463,1,2,2:1:0:0:
137,129,45530,1,2,2:0:0:0:
137,129,45597,1,8,1:0:0:0:
79,237,45731,5,4,2:3:0:0:
71,79,45865,1,6,1:0:0:0:
188,221,45999,5,4,2:3:0:0:
275,158,46133,5,10,1:0:0:0:
385,194,46267,5,2,1:0:0:0:
245,28,46401,6,0,L|138:45,1,96.0000000000001,6|0,1:2|2:0,2:0:0:0:
150,43,46602,1,0,2:0:0:0:
150,43,46669,1,10,1:2:0:0:
144,126,46803,1,4,2:3:0:0:
267,369,46937,5,2,2:0:0:0:
360,336,47071,1,4,2:3:0:0:
360,336,47138,1,0,2:0:0:0:
360,336,47205,1,10,1:2:0:0:
271,261,47338,1,2,2:0:0:0:
427,47,47472,6,0,L|409:144,1,96.0000000000001,2|0,1:2|2:0,2:0:0:0:
409,141,47673,1,0,2:0:0:0:
409,141,47740,1,10,1:2:0:0:
297,93,47874,1,4,2:3:0:0:
76,225,48008,5,2,2:0:0:0:
116,290,48142,1,4,2:3:0:0:
39,294,48276,1,10,1:2:0:0:
199,69,48410,5,2,2:0:0:0:
199,69,48477,1,0,2:0:0:0:
199,69,48544,2,0,L|305:82,1,96.0000000000001,2|0,1:2|2:3,2:0:0:0:
395,235,48812,5,10,1:2:0:0:
465,203,48946,1,4,2:3:0:0:
396,261,49080,2,0,L|300:249,1,96.0000000000001,2|4,2:0|2:3,2:0:0:0:
200,71,49347,5,2,1:2:0:0:
128,54,49481,1,4,2:3:0:0:
202,157,49615,5,2,1:0:0:0:
306,113,49749,1,4,2:3:0:0:
231,228,49883,5,10,1:0:0:0:
127,205,50017,1,8,2:3:0:0:
211,300,50151,5,2,2:1:0:0:
304,276,50285,1,8,2:3:0:0:
227,368,50419,5,10,1:0:0:0:
152,352,50553,1,4,2:3:0:0:
353,166,50687,6,0,P|346:244|336:377,1,192,6|8,1:0|1:0,2:0:0:0:
407,374,51088,1,4,2:3:0:0:
461,323,51222,6,0,P|470:258|438:175,2,127.99999609375,2|2|2,2:0|2:0|2:0,2:0:0:0:
264,136,51758,2,0,L|406:116,2,127.99999609375,2|2|4,1:2|2:0|2:3,2:0:0:0:
233,209,52294,6,0,P|187:195|162:133,1,96.0000000000001,2|4,2:0|2:3,2:0:0:0:
258,33,52562,2,0,P|304:47|329:109,1,96.0000000000001,10|4,1:2|2:3,2:0:0:0:
163,72,52830,6,0,P|101:82|51:212,1,192,6|8,1:2|1:0,2:0:0:0:
44,264,53231,1,4,2:3:0:0:
263,310,53365,2,0,L|245:105,1,192,2|8,2:0|1:0,2:0:0:0:
261,48,53767,1,4,2:3:0:0:
256,118,53901,1,12,2:3:0:0:
490,162,54035,6,0,B|446:142|446:142|392:159,1,96.0000000000001,2|4,1:0|2:3,2:0:0:0:
486,151,54303,2,0,B|442:131|442:131|388:148,1,96.0000000000001,2|0,1:0|2:0,2:0:0:0:
237,223,54571,5,2,1:0:0:0:
142,209,54705,1,2,1:0:0:0:
49,192,54838,1,0,2:0:0:0:
11,124,54972,6,0,L|33:22,1,96.0000000000001,4|2,1:0|2:0,2:0:0:0:
44,24,55240,2,0,L|52:128,1,96.0000000000001,8|2,1:0|1:2,2:0:0:0:
117,155,55508,1,0,2:0:0:0:
134,75,55642,1,2,1:2:0:0:
135,157,55776,1,10,1:2:0:0:
155,84,55910,1,0,2:0:0:0:
233,56,56044,5,2,1:2:0:0:
295,104,56178,2,0,L|313:216,1,96.0000000000001,2|8,2:0|1:0,2:0:0:0:
387,193,56446,2,0,L|360:386,1,192,2|2,1:2|1:2,2:0:0:0:
437,377,56847,2,0,P|470:337|466:291,1,96.0000000000001,8|0,1:0|2:0,2:0:0:0:
291,278,57115,5,2,1:2:0:0:
218,288,57249,2,0,L|111:301,1,96.0000000000001,2|8,2:0|1:0,2:0:0:0:
0,242,57517,2,0,P|50:250|77:378,1,192,2|2,1:2|1:2,2:0:0:0:
11,352,57919,1,8,1:0:0:0:
14,318,58053,1,0,2:0:0:0:
133,242,58187,5,2,1:2:0:0:
111,151,58321,1,2,2:0:0:0:
218,175,58455,1,8,1:0:0:0:
14,203,58588,6,0,B|3:96|68:138|50:21,1,192,2|2,1:2|1:2,2:0:0:0:
125,46,58990,1,10,1:2:0:0:
256,2,59124,2,0,B|296:27|296:27|357:3,1,96.0000000000001,0|0,1:0|1:0,2:0:0:0:
475,238,59392,5,2,2:0:0:0:
401,224,59526,1,8,1:0:0:0:
389,300,59660,1,2,1:2:0:0:
466,315,59794,1,0,2:0:0:0:
396,206,59928,5,2,1:2:0:0:
315,288,60062,1,10,1:2:0:0:
409,370,60196,1,0,2:0:0:0:
308,199,60330,5,2,1:2:0:0:
224,256,60463,2,0,L|90:232,1,96.0000000000001,2|8,2:0|1:0,2:0:0:0:
76,184,60731,2,0,P|113:137|241:122,1,192,2|2,1:2|1:2,2:0:0:0:
299,73,61133,1,8,1:0:0:0:
366,112,61267,1,0,2:0:0:0:
440,258,61401,5,2,1:2:0:0:
498,197,61535,2,0,B|400:185|428:263|317:248,1,192,2|2,2:0|1:2,2:0:0:0:
272,308,61937,2,0,P|201:302|168:266,1,96.0000000000001,2|2,2:0|1:2,2:0:0:0:
101,211,62205,2,0,P|30:217|-3:253,2,96.0000000000001,8|0|0,1:0|2:0|1:0,2:0:0:0:
281,145,62606,6,0,B|253:95|253:95|278:18,1,120,8|0,1:0|2:0,2:0:0:0:
401,179,62874,2,0,B|318:149|318:149|253:238,1,180,8|0,1:0|2:0,2:0:0:0:
241,222,63142,5,8,1:0:0:0:
357,308,63276,1,8,1:0:0:0:
433,195,63410,1,0,2:0:0:0:
313,98,63544,1,4,2:0:0:0:
313,98,63745,5,0,2:0:0:0:
313,98,63812,1,0,1:0:0:0:
382,72,63946,1,8,2:3:0:0:
346,8,64080,1,0,2:0:0:0:
276,32,64213,1,8,2:3:0:0:
313,98,64347,1,0,1:0:0:0:
382,72,64481,1,0,2:0:0:0:
502,185,64615,5,4,2:3:0:0:
502,185,64816,1,4,2:3:0:0:
502,185,64883,1,0,1:3:0:0:
425,168,65017,1,8,2:3:0:0:
370,219,65151,1,0,2:0:0:0:
386,291,65285,1,8,2:3:0:0:
346,354,65419,1,0,1:0:0:0:
271,345,65553,1,0,2:0:0:0:
168,235,65687,6,0,L|186:112,1,120,4|4,2:3|2:3,2:0:0:0:
177,88,65955,2,0,L|270:104,1,80,0|8,1:0|2:3,2:0:0:0:
154,16,66222,2,0,L|61:32,1,80,0|8,2:0|2:3,2:0:0:0:
13,63,66490,1,0,1:0:0:0:
2,135,66624,1,0,2:0:0:0:
65,192,66758,1,4,2:3:0:0:
65,192,66959,5,0,2:0:0:0:
65,192,67026,1,0,1:0:0:0:
135,217,67160,1,8,2:3:0:0:
179,277,67294,1,0,2:0:0:0:
170,351,67428,1,4,2:3:0:0:
210,282,67562,2,0,L|222:195,1,80,0|0,1:0|2:0,2:0:0:0:
245,348,67830,6,0,P|256:297|363:263,1,160,6|0,2:3|1:0,2:0:0:0:
379,324,68231,1,8,2:3:0:0:
490,227,68365,2,0,P|472:180|440:158,1,80,0|0,2:0|2:3,2:0:0:0:
281,93,68633,1,0,1:0:0:0:
306,168,68767,1,0,2:0:0:0:
230,154,68901,2,0,P|248:107|280:85,1,80,4|0,2:3|2:0,2:0:0:0:
336,44,69169,5,0,1:0:0:0:
381,187,69303,1,8,2:3:0:0:
364,192,69571,5,8,2:3:0:0:
337,28,69705,1,0,1:0:0:0:
173,55,69838,1,0,2:0:0:0:
209,219,69972,1,4,2:3:0:0:
209,219,70173,5,4,2:3:0:0:
209,219,70240,1,0,1:0:0:0:
280,199,70374,1,8,2:3:0:0:
290,272,70508,1,0,2:0:0:0:
220,294,70642,1,0,2:3:0:0:
209,219,70776,1,0,1:0:0:0:
280,199,70910,1,0,2:0:0:0:
433,284,71044,5,4,2:3:0:0:
468,224,71178,5,2,2:3:0:0:
392,218,71312,1,0,1:0:0:0:
361,285,71446,1,10,2:3:0:0:
398,350,71580,1,4,2:3:0:0:
473,349,71713,1,4,2:3:0:0:
508,286,71847,5,2,1:3:0:0:
385,210,71981,1,4,2:3:0:0:
395,363,72115,2,0,L|416:273,1,80,6|0,2:3|2:0,2:0:0:0:
224,139,72383,5,0,1:0:0:0:
311,208,72517,1,8,2:3:0:0:
213,251,72651,2,0,L|231:328,1,80,0|8,2:0|2:3,2:0:0:0:
34,347,72919,5,0,1:0:0:0:
65,262,73053,1,0,2:0:0:0:
145,332,73187,2,0,L|58:358,1,80,4|0,2:3|2:0,2:0:0:0:
55,220,73455,6,0,L|193:255,1,120,0|0,1:0|2:0,2:0:0:0:
185,269,73722,2,0,L|177:170,1,80,0|0,2:0|2:3,2:0:0:0:
134,132,73990,1,0,1:0:0:0:
61,148,74124,1,0,2:0:0:0:
212,53,74258,6,0,B|297:47|280:109|362:108,1,160,4|0,2:3|1:0,2:0:0:0:
402,164,74660,1,8,2:3:0:0:
474,141,74794,2,0,P|465:98|426:71,1,80,0|8,2:0|2:3,2:0:0:0:
346,216,75062,2,0,P|355:259|394:286,1,80,0|0,1:0|2:0,2:0:0:0:
367,96,75330,5,4,2:3:0:0:
292,161,75463,1,0,2:0:0:0:
421,205,75597,1,0,1:0:0:0:
282,240,75731,5,8,2:3:0:0:
224,137,75865,1,0,2:0:0:0:
365,161,75999,1,4,2:3:0:0:
390,329,76133,5,0,1:0:0:0:
363,243,76267,1,0,2:0:0:0:
289,343,76401,2,0,L|381:325,1,80,6|0,2:3|2:0,2:0:0:0:
179,256,76669,5,0,1:0:0:0:
197,349,76803,1,8,2:3:0:0:
93,348,76937,2,0,L|1:330,1,80,0|8,2:0|2:3,2:0:0:0:
36,174,77205,5,0,1:0:0:0:
99,256,77338,1,0,2:0:0:0:
143,162,77472,1,6,2:3:0:0:
143,162,77673,5,0,2:0:0:0:
143,162,77740,1,0,1:0:0:0:
75,77,77874,1,8,2:3:0:0:
188,41,78008,1,0,2:0:0:0:
255,137,78142,1,8,2:3:0:0:
448,125,78276,6,0,L|428:39,1,80,0|0,1:0|2:0,2:0:0:0:
344,169,78544,6,0,L|325:308,1,120,6|0,2:3|2:0,2:0:0:0:
314,309,78812,2,0,L|422:297,1,80,0|0,1:0|2:0,2:0:0:0:
170,119,79080,6,0,L|189:258,1,120,2|0,2:3|2:0,2:0:0:0:
200,259,79347,2,0,L|92:247,1,80,0|0,1:0|2:0,2:0:0:0:
65,135,79615,5,6,2:3:0:0:
114,78,79749,1,4,2:3:0:0:
330,85,79883,1,0,1:0:0:0:
291,18,80017,2,0,B|240:123|353:148|288:266,1,240,8|0,2:3|1:0,2:0:0:0:
299,321,80553,1,0,2:0:0:0:
65,367,80687,5,4,1:0:0:0:
78,296,80955,1,0,3:0:0:0:
128,241,81222,1,0,3:0:0:0:
204,239,81490,1,0,3:0:0:0:
277,245,81758,1,0,3:0:0:0:
325,190,81892,1,0,3:0:0:0:
325,190,81959,1,0,3:0:0:0:
325,190,82026,1,0,3:0:0:0:
301,116,82160,1,0,3:0:0:0:
228,112,82294,1,0,3:0:0:0:
179,167,82428,1,0,3:0:0:0:
207,236,82562,1,2,3:2:0:0:
282,247,82696,1,2,3:2:0:0:
341,293,82830,5,2,1:2:0:0:
409,331,83097,1,0,3:0:0:0:
478,301,83365,1,0,3:0:0:0:
484,226,83633,1,0,3:0:0:0:
439,168,83901,1,0,3:0:0:0:
414,103,84035,1,0,3:0:0:0:
414,103,84102,1,0,3:0:0:0:
414,103,84169,1,0,3:0:0:0:
435,28,84303,1,0,3:0:0:0:
482,85,84437,1,0,3:0:0:0:
461,157,84571,1,0,3:0:0:0:
387,167,84705,1,2,3:2:0:0:
321,135,84838,1,2,3:2:0:0:
249,143,84972,6,0,L|227:151,15,20,2|0|0|0|2|0|0|0|2|0|0|0|2|0|0|0,1:2|2:0|3:0|3:0|1:2|2:0|3:0|2:0|1:2|2:0|3:0|3:0|1:2|2:0|3:0|2:0,2:0:0:0:
291,207,86044,6,0,L|322:220,15,30.0000000000001,2|0|0|0|2|0|0|0|2|0|0|0|2|0|0|0,1:2|2:0|3:0|3:0|1:2|2:0|3:0|2:0|1:2|2:0|3:0|3:0|1:2|2:0|3:0|3:0,2:0:0:0:
242,264,87115,5,2,1:2:0:0:
133,222,87249,1,0,1:0:0:0:
133,222,87316,1,0,1:0:0:0:
133,222,87383,1,2,1:2:0:0:
128,308,87517,5,0,1:0:0:0:
216,187,87651,1,2,1:2:0:0:
74,161,87785,1,0,1:0:0:0:
74,161,87852,1,0,1:0:0:0:
74,161,87919,1,2,1:2:0:0:
37,257,88053,5,0,1:0:0:0:
37,257,88120,1,0,1:0:0:0:
37,257,88187,1,2,1:2:0:0:
153,115,88321,1,0,1:0:0:0:
153,115,88388,1,2,1:2:0:0:
153,115,88455,1,2,1:2:0:0:
223,297,88588,1,2,1:2:0:0:
223,297,88655,1,0,2:0:0:0:
223,297,88722,1,2,1:2:0:0:
154,231,88856,5,2,1:2:0:0:
154,231,88923,1,2,1:2:0:0:
154,231,88990,1,2,1:2:0:0:
154,231,89057,1,0,1:0:0:0:
154,231,89124,1,0,1:0:0:0:
154,231,89191,1,0,1:0:0:0:
154,231,89258,1,2,2:1:0:0:
486,0,90999,5,12,2:3:0:0:
507,76,91133,1,2,1:3:0:0:
507,76,91401,6,0,B|410:60|410:60|338:141,1,192,4|8,1:2|1:0,2:0:0:0:
290,82,91802,1,4,2:3:0:0:
209,177,91936,2,0,L|228:277,1,96.0000000000001,0|4,2:0|2:3,2:0:0:0:
360,328,92204,2,0,L|374:222,1,96.0000000000001,8|0,1:0|2:0,2:0:0:0:
262,353,92472,2,0,P|177:362|126:277,1,192,4|8,2:3|1:0,2:0:0:0:
49,292,92874,5,4,2:3:0:0:
76,222,93008,1,0,2:0:0:0:
151,209,93142,5,4,2:3:0:0:
48,70,93276,2,0,B|25:115|25:115|47:164,1,96.0000000000001,8|4,1:0|2:3,2:0:0:0:
219,244,93543,5,4,2:3:0:0:
287,271,93677,1,0,2:0:0:0:
356,239,93811,1,8,1:0:0:0:
377,166,93945,1,0,2:0:0:0:
265,80,94079,2,0,L|158:101,1,96.0000000000001,4|4,2:3|2:3,2:0:0:0:
282,285,94347,2,0,L|381:304,1,96.0000000000001,8|4,1:0|2:3,2:0:0:0:
343,119,94615,5,12,2:3:0:0:
328,197,94749,1,0,2:0:0:0:
225,167,94883,1,8,1:0:0:0:
206,243,95017,1,4,2:3:0:0:
414,117,95151,5,2,2:0:0:0:
390,233,95284,1,2,2:1:0:0:
257,158,95418,1,8,1:0:0:0:
281,42,95552,1,2,2:1:0:0:
337,116,95686,6,0,L|359:312,1,192,4|8,1:2|1:0,2:0:0:0:
285,301,96088,1,4,2:3:0:0:
415,372,96222,2,0,P|431:344|431:275,1,96.0000000000001,0|4,2:0|2:3,2:0:0:0:
214,261,96490,2,0,P|211:317|229:352,1,96.0000000000001,8|0,1:0|2:0,2:0:0:0:
116,291,96758,2,0,P|139:255|150:106,1,192,4|8,2:3|1:0,2:0:0:0:
147,31,97159,5,4,2:3:0:0:
219,50,97293,1,0,2:0:0:0:
232,126,97427,5,4,2:3:0:0:
343,113,97561,1,8,1:0:0:0:
434,189,97695,1,4,2:3:0:0:
493,132,97829,5,4,2:3:0:0:
494,277,97963,1,0,2:0:0:0:
367,337,98097,1,8,1:0:0:0:
371,228,98231,1,0,2:0:0:0:
223,194,98365,1,4,2:3:0:0:
242,277,98499,1,4,2:3:0:0:
299,214,98633,5,8,1:0:0:0:
162,250,98767,1,4,2:3:0:0:
275,357,98901,1,12,2:3:0:0:
242,277,99034,5,2,2:1:0:0:
107,181,99168,1,8,1:0:0:0:
11,316,99302,1,4,2:3:0:0:
85,282,99436,5,6,1:0:0:0:
187,148,99570,1,4,2:3:0:0:
321,250,99704,1,10,1:0:0:0:
219,384,99838,1,4,2:3:0:0:
199,262,99972,6,0,L|216:156,1,96.0000000000001,4|0,1:2|2:0,2:0:0:0:
214,167,100173,1,0,2:0:0:0:
214,167,100240,1,10,1:2:0:0:
294,192,100374,1,4,2:3:0:0:
451,86,100508,5,2,2:0:0:0:
356,42,100642,1,4,2:3:0:0:
356,42,100709,1,0,2:0:0:0:
356,42,100776,1,10,1:2:0:0:
373,135,100909,1,2,2:0:0:0:
442,358,101043,6,0,L|317:336,1,96.0000000000001,2|0,1:2|2:0,2:0:0:0:
347,341,101244,1,0,2:0:0:0:
347,341,101311,1,10,1:2:0:0:
281,377,101445,1,4,2:3:0:0:
64,299,101579,5,2,2:0:0:0:
141,264,101713,1,4,2:3:0:0:
140,348,101847,1,10,1:2:0:0:
18,152,101981,5,2,2:0:0:0:
90,140,102115,2,0,B|135:160|135:160|204:119,1,96.0000000000001,2|0,1:2|2:0,2:0:0:0:
175,136,102316,1,0,2:0:0:0:
175,136,102383,1,10,1:2:0:0:
245,184,102517,1,4,2:3:0:0:
429,73,102651,5,2,2:0:0:0:
411,160,102784,1,4,2:3:0:0:
411,160,102851,1,0,2:0:0:0:
411,160,102918,1,10,1:2:0:0:
338,106,103052,1,4,2:3:0:0:
483,127,103186,5,2,1:0:0:0:
332,185,103320,1,4,2:3:0:0:
357,26,103454,1,10,1:0:0:0:
238,57,103588,5,8,2:3:0:0:
247,150,103722,1,2,2:1:0:0:
122,141,103856,5,8,2:3:0:0:
135,70,103990,1,10,1:0:0:0:
26,109,104124,5,4,2:3:0:0:
97,269,104258,6,0,B|177:316|177:316|279:244,1,192,6|8,1:0|1:0,2:0:0:0:
309,210,104659,1,4,2:3:0:0:
367,167,104793,6,0,L|512:205,2,127.99999609375,2|2|2,2:0|2:0|2:0,2:0:0:0:
234,180,105329,2,0,L|194:35,2,127.99999609375,2|2|4,1:2|2:0|2:3,2:0:0:0:
349,258,105865,6,0,B|329:302|329:302|347:349,1,96.0000000000001,2|4,2:0|2:3,2:0:0:0:
415,94,106133,6,0,L|310:103,1,96.0000000000001,10|4,1:2|2:3,2:0:0:0:
201,266,106401,6,0,L|7:224,1,192,6|8,1:2|1:0,2:0:0:0:
9,152,106802,1,4,2:3:0:0:
196,97,106936,2,0,B|221:140|221:140|201:189,1,96.0000000000001,2|4,2:0|2:3,2:0:0:0:
257,371,107204,2,0,P|265:295|380:254,1,192,8|12,1:0|2:3,2:0:0:0:
504,182,107606,6,0,B|459:164|459:164|409:184,1,96.0000000000001,2|4,1:0|2:3,2:0:0:0:
503,169,107874,2,0,B|458:151|458:151|408:171,1,96.0000000000001,2|0,1:0|2:0,2:0:0:0:
349,132,108142,5,2,1:0:0:0:
293,188,108276,1,2,1:0:0:0:
221,150,108409,1,2,2:1:0:0:
23,201,108543,5,6,1:0:0:0:
100,148,108677,1,2,2:1:0:0:
121,240,108811,1,0,1:0:0:0:
44,303,108945,6,0,L|27:201,1,96.0000000000001,2|0,2:1|2:0,2:0:0:0:
211,276,109213,2,0,L|131:341,1,96.0000000000001,2|0,2:1|1:0,2:0:0:0:
100,148,109481,2,0,L|196:184,1,96.0000000000001,2|0,2:1|2:0,2:0:0:0:
329,268,109749,5,2,2:1:0:0:
351,197,109883,1,2,1:0:0:0:
405,250,110017,1,2,2:0:0:0:
421,172,110151,5,2,2:1:0:0:
184,41,110351,1,2,2:1:0:0:
184,41,110418,1,2,1:2:0:0:
204,112,110552,1,2,2:1:0:0:
468,75,110686,5,2,2:1:0:0:
493,2,110820,1,2,2:1:0:0:
330,47,110954,5,2,1:2:0:0:
348,148,111088,1,2,2:1:0:0:
188,127,111222,5,2,2:1:0:0:
227,262,111356,1,2,2:1:0:0:
329,221,111490,5,2,1:2:0:0:
165,198,111624,1,2,2:1:0:0:
346,312,111758,5,2,2:1:0:0:
214,345,111892,1,2,2:1:0:0:
261,192,112026,5,2,1:2:0:0:
301,384,112159,1,2,2:1:0:0:
127,310,112293,1,2,2:1:0:0:
262,277,112427,5,2,2:1:0:0:
123,190,112561,1,2,1:2:0:0:
46,337,112695,1,2,2:1:0:0:
127,310,112829,6,0,B|231:270|217:375|321:337,1,192,2|2,2:1|1:2,2:0:0:0:
380,367,113231,2,0,P|390:283|409:154,1,192,2|2,2:1|2:1,2:0:0:0:
334,175,113633,1,2,1:2:0:0:
350,102,113767,1,2,2:0:0:0:
131,160,113901,5,2,2:1:0:0:
113,237,114034,2,0,P|107:180|91:115,1,96.0000000000001,2|2,2:1|1:2,2:0:0:0:
220,38,114302,2,0,P|219:127|221:254,1,192,2|2,2:1|2:1,2:0:0:0:
289,251,114704,1,2,1:2:0:0:
183,295,114838,1,0,2:0:0:0:
18,182,114972,5,2,2:1:0:0:
93,334,115106,1,2,2:1:0:0:
96,149,115240,5,2,1:2:0:0:
11,300,115374,1,2,2:1:0:0:
166,192,115508,5,2,2:1:0:0:
171,285,115642,1,2,2:1:0:0:
5,167,115776,5,2,1:0:0:0:
96,129,115909,1,2,2:1:0:0:
279,126,116043,5,2,2:0:0:0:
328,195,116177,1,2,2:0:0:0:
328,195,116244,1,2,2:1:0:0:
328,195,116311,1,2,1:2:0:0:
400,173,116445,1,2,2:1:0:0:
404,98,116579,5,4,1:3:0:0:
329,33,116713,5,2,2:0:0:0:
213,11,116847,5,0,1:0:0:0:
75,56,116981,5,4,2:3:0:0:
11,176,117115,6,0,P|39:228|42:283,1,96.0000000000001,6|2,1:0|2:0,2:0:0:0:
285,288,117383,1,0,1:0:0:0:
250,357,117517,2,0,P|238:310|115:252,1,192,2|2,2:1|2:1,2:0:0:0:
508,260,117918,5,2,1:2:0:0:
462,318,118052,1,0,2:0:0:0:
413,375,118186,2,0,L|309:351,1,96.0000000000001,2|2,2:1|2:0,2:0:0:0:
141,242,118454,5,0,1:0:0:0:
85,293,118588,2,0,L|296:268,1,192,2|2,2:1|2:1,2:0:0:0:
331,157,118990,1,2,1:2:0:0:
418,184,119124,1,0,2:0:0:0:
336,49,119258,5,2,2:1:0:0:
233,73,119392,1,2,2:1:0:0:
136,118,119526,5,2,1:2:0:0:
206,146,119659,1,2,2:1:0:0:
160,43,119793,5,0,2:0:0:0:
84,57,119927,1,2,2:1:0:0:
150,26,120061,1,2,1:0:0:0:
74,40,120195,1,2,2:0:0:0:
81,227,120329,5,2,2:1:0:0:
168,247,120463,1,2,2:1:0:0:
195,155,120597,1,2,1:0:0:0:
108,135,120731,1,2,2:1:0:0:
242,228,120865,5,0,2:0:0:0:
102,296,120999,1,2,2:1:0:0:
31,160,121133,1,2,1:0:0:0:
138,196,121267,5,2,2:0:0:0:
200,150,121401,2,0,B|296:118|280:201|396:197,1,192,2|0,2:1|1:0,2:0:0:0:
449,173,121802,2,0,P|453:247|467:371,1,192,2|2,2:1|2:1,2:0:0:0:
289,307,122204,2,0,P|316:281|384:283,1,96.0000000000001,2|0,1:2|2:0,2:0:0:0:
242,364,122472,5,2,2:1:0:0:
213,292,122606,1,0,2:0:0:0:
152,370,122740,1,2,1:0:0:0:
106,271,122874,2,0,P|95:216|15:104,1,192,2|2,2:1|2:1,2:0:0:0:
167,0,123276,6,0,B|209:23|209:23|276:-2,1,96.0000000000001,2|0,1:2|2:0,2:0:0:0:
400,133,123543,5,2,2:1:0:0:
401,137,123610,1,2,2:1:0:0:
402,141,123677,1,0,2:0:0:0:
403,145,123744,1,0,2:0:0:0:
404,149,123811,1,0,1:0:0:0:
405,153,123878,1,0,2:0:0:0:
406,157,123945,1,2,2:0:0:0:
407,161,124012,1,0,2:0:0:0:
431,195,124079,5,2,2:1:0:0:
394,186,124146,1,2,2:1:0:0:
355,190,124213,1,2,2:0:0:0:
320,207,124280,1,0,2:0:0:0:
285,224,124347,1,0,1:0:0:0:
247,231,124414,1,0,2:0:0:0:
208,231,124481,1,0,2:0:0:0:
171,219,124548,1,0,2:0:0:0:
127,239,124615,5,2,2:1:0:0:
167,265,124682,1,2,2:1:0:0:
215,265,124749,1,8,1:0:0:0:
247,231,124816,1,0,2:0:0:0:
258,184,124883,1,2,2:0:0:0:
248,137,124950,1,0,2:0:0:0:
222,96,125017,1,8,1:0:0:0:
220,48,125084,1,0,2:0:0:0:
256,16,125151,6,8,L|318:30,1,48,10|10,1:0|2:1,2:0:0:0:
347,84,125284,6,8,L|409:98,1,48,8|8,1:0|2:0,2:0:0:0:
222,96,125418,6,8,L|284:110,1,48,8|8,1:0|2:0,2:0:0:0:
313,164,125552,6,8,L|375:178,1,48,8|8,2:0|2:0,2:0:0:0:
411,228,125686,6,0,P|402:259|394:313,1,80,2|0,2:3|2:0,2:0:0:0:
322,314,126088,1,2,2:3:0:0:
322,314,126356,1,0,2:0:0:0:
247,299,126490,1,0,2:0:0:0:
319,290,126624,1,0,2:0:0:0:
193,357,126758,6,0,P|149:351|108:349,1,80,2|0,2:3|2:0,2:0:0:0:
113,349,127159,1,2,2:3:0:0:
43,360,127427,1,0,2:0:0:0:
43,360,127561,2,0,P|49:315|50:303,1,40,0|0,2:0|2:0,2:0:0:0:
129,213,127829,6,0,P|125:184|124:163,1,40,2|0,2:3|2:0,2:0:0:0:
72,121,128097,2,0,P|47:135|28:140,1,40,0|2,2:0|2:3,2:0:0:0:
15,212,128365,2,0,P|40:217|63:226,1,40,0|0,2:0|2:0,2:0:0:0:
110,282,128633,1,0,2:0:0:0:
110,282,128901,6,0,L|200:271,1,80,2|0,2:3|2:0,2:0:0:0:
241,220,129302,1,2,2:0:0:0:
259,290,129436,2,0,L|389:274,1,120,2|0,2:3|2:0,2:0:0:0:
467,324,129972,5,2,2:3:0:0:
467,324,130240,1,0,2:0:0:0:
467,324,130374,1,2,2:3:0:0:
467,324,130642,1,0,2:0:0:0:
467,324,130776,1,0,2:0:0:0:
467,324,130909,1,0,2:0:0:0:
467,324,131043,2,0,P|469:280|476:232,1,80,2|0,2:3|2:0,2:0:0:0:
466,171,131445,1,2,2:3:0:0:
466,171,131713,5,0,2:0:0:0:
403,211,131847,1,0,2:0:0:0:
443,151,131981,1,0,2:0:0:0:
339,141,132115,6,0,P|311:151|291:161,1,40,2|0,2:3|2:0,2:0:0:0:
227,145,132383,2,0,P|230:120|231:91,1,40,0|2,2:0|2:3,2:0:0:0:
286,47,132651,2,0,P|320:60|367:71,1,80,0|0,2:0|2:0,2:0:0:0:
216,31,133052,5,0,2:0:0:0:
161,78,133186,2,0,P|116:88|80:92,1,80,2|0,2:3|2:0,2:0:0:0:
68,83,133588,2,0,L|80:175,1,80,2|0,2:3|2:0,2:0:0:0:
4,3,133990,5,12,2:3:0:0:
143,213,134258,6,0,P|222:212|258:327,1,208,4|8,1:2|1:0,2:0:0:0:
191,348,134659,1,4,2:3:0:0:
44,278,134793,2,0,P|56:216|61:166,1,104,0|4,2:0|2:3,2:0:0:0:
114,127,135061,1,8,1:0:0:0:
86,58,135195,1,0,2:0:0:0:
160,70,135329,2,0,B|257:33|256:125|360:119,1,208,4|8,2:3|1:0,2:0:0:0:
453,94,135731,6,0,P|391:86|344:174,1,156,4|0,2:3|2:0,2:0:0:0:
356,170,135999,1,4,2:3:0:0:
397,303,136133,1,8,1:0:0:0:
252,269,136267,1,4,2:3:0:0:
328,241,136401,6,0,L|346:351,1,104,4|0,2:3|2:0,2:0:0:0:
146,276,136668,2,0,L|162:173,1,104,8|0,1:0|2:0,2:0:0:0:
300,140,136936,5,4,2:3:0:0:
263,39,137070,1,4,2:3:0:0:
207,111,137204,1,8,1:0:0:0:
355,66,137338,1,4,2:3:0:0:
398,212,137472,6,0,P|466:220|525:186,1,104,12|0,2:3|2:0,2:0:0:0:
311,248,137740,2,0,P|371:289|433:299,1,104,8|4,1:0|2:3,2:0:0:0:
206,245,138008,2,0,P|244:303|373:377,1,208,2|8,2:0|1:0,2:0:0:0:
232,170,138409,5,2,2:1:0:0:
158,183,138543,2,0,P|106:168|86:30,1,208,4|8,1:2|1:0,2:0:0:0:
251,73,138945,1,4,2:3:0:0:
300,132,139079,2,0,L|317:239,1,104,0|4,2:0|2:3,2:0:0:0:
174,102,139347,2,0,L|190:0,1,104,8|0,1:0|2:0,2:0:0:0:
336,60,139615,2,0,P|406:58|482:172,1,208,4|8,2:3|1:0,2:0:0:0:
252,375,140017,5,4,2:3:0:0:
181,360,140151,1,0,2:0:0:0:
249,361,140284,1,4,2:3:0:0:
317,322,140418,5,8,1:0:0:0:
299,244,140552,1,4,2:3:0:0:
224,263,140686,2,0,L|113:242,1,104,4|0,2:3|2:0,2:0:0:0:
70,185,140954,5,8,1:0:0:0:
1,203,141088,1,0,2:0:0:0:
64,172,141222,1,4,2:3:0:0:
140,168,141356,1,4,2:3:0:0:
213,184,141490,1,8,1:0:0:0:
289,189,141624,1,4,2:3:0:0:
375,157,141758,5,8,2:3:0:0:
427,44,141892,5,0,2:0:0:0:
287,5,142026,5,10,1:2:0:0:
214,132,142159,5,2,2:0:0:0:
377,203,142293,5,12,2:3:0:0:
415,129,142427,5,10,1:2:0:0:
336,100,142561,1,0,2:0:0:0:
294,170,142695,1,12,2:3:0:0:
408,297,142829,6,0,P|468:284|497:192,1,156,6|0,1:2|2:0,2:0:0:0:
481,192,143097,1,10,1:2:0:0:
249,291,143231,1,4,2:3:0:0:
186,333,143365,2,0,P|125:325|81:232,1,156,2|0,2:0|2:0,2:0:0:0:
94,234,143633,1,10,1:2:0:0:
259,98,143767,5,2,2:0:0:0:
318,48,143901,2,0,L|309:186,1,104,2|0,1:2|2:0,2:0:0:0:
311,151,144101,1,0,2:0:0:0:
311,151,144168,1,10,1:2:0:0:
394,143,144302,1,4,2:3:0:0:
152,183,144436,5,2,2:0:0:0:
82,217,144570,1,4,2:3:0:0:
22,168,144704,1,10,1:2:0:0:
92,138,144838,1,2,2:0:0:0:
202,318,144972,6,0,L|353:303,1,104,2|0,1:2|2:0,2:0:0:0:
305,307,145173,1,0,2:0:0:0:
305,307,145240,1,10,1:2:0:0:
375,354,145374,1,4,2:3:0:0:
276,124,145508,5,2,2:0:0:0:
196,151,145642,1,4,2:3:0:0:
280,137,145776,1,10,1:2:0:0:
200,164,145909,1,2,2:0:0:0:
482,214,146043,6,0,L|498:97,1,104,2|4,1:0|2:3,2:0:0:0:
377,39,146311,2,0,L|397:155,1,104,10|8,1:0|2:3,2:0:0:0:
494,224,146579,6,0,L|510:107,1,104,2|8,2:1|2:3,2:0:0:0:
389,49,146847,2,0,L|409:165,1,104,10|4,1:0|2:3,2:0:0:0:
335,306,147115,6,0,B|229:316|277:207|149:230,1,208,6|8,1:0|1:0,2:0:0:0:
102,277,147517,1,4,2:3:0:0:
37,58,147651,6,0,P|101:28|189:26,2,138.666660319011,2|2|2,2:0|2:0|2:0,2:0:0:0:
356,132,148186,6,0,P|281:135|186:174,2,138.666660319011,2|2|4,1:2|2:0|2:3,2:0:0:0:
382,64,148722,2,0,P|433:65|501:87,1,104,2|4,2:0|2:3,2:0:0:0:
368,240,148990,2,0,P|317:239|249:217,1,104,10|4,1:2|2:3,2:0:0:0:
130,153,149258,5,4,1:2:0:0:
55,158,149392,1,0,2:0:0:0:
26,229,149526,1,8,1:0:0:0:
103,228,149659,1,4,2:3:0:0:
130,153,149793,5,2,2:0:0:0:
238,88,149927,1,4,2:3:0:0:
303,196,150061,1,8,1:0:0:0:
195,261,150195,1,4,2:3:0:0:
195,261,150329,1,12,2:3:0:0:
440,364,150463,6,0,L|457:256,1,104,2|4,1:0|2:3,2:0:0:0:
72,20,150731,6,0,L|55:128,1,104,2|0,1:0|2:0,2:0:0:0:
258,177,150999,5,2,1:0:0:0:
265,203,151133,1,2,1:0:0:0:
239,194,151267,1,0,2:0:0:0:
323,135,151401,6,0,L|353:248,1,104,4|2,1:2|2:0,2:0:0:0:
363,252,151668,2,0,L|389:151,1,104,8|2,1:0|1:2,2:0:0:0:
443,98,151936,1,0,2:0:0:0:
461,175,152070,1,2,1:2:0:0:
469,102,152204,1,10,1:2:0:0:
487,179,152338,1,0,2:0:0:0:
345,24,152472,5,2,1:2:0:0:
271,18,152606,2,0,P|227:37|188:95,1,104,2|8,2:0|1:0,2:0:0:0:
26,212,152874,2,0,P|61:167|211:175,1,208,2|2,1:2|1:2,2:0:0:0:
275,288,153276,2,0,P|347:282|408:245,1,104,8|0,1:0|2:0,2:0:0:0:
213,239,153543,5,2,1:2:0:0:
138,227,153677,2,0,L|154:339,1,104,2|8,2:0|1:0,2:0:0:0:
297,271,153945,2,0,L|312:49,1,208,2|2,1:2|1:2,2:0:0:0:
382,108,154347,5,8,1:0:0:0:
394,33,154481,1,0,2:0:0:0:
225,30,154615,1,2,1:2:0:0:
228,102,154749,2,0,L|120:122,1,104,2|8,2:0|1:0,2:0:0:0:
110,119,155017,6,0,L|329:157,1,208,2|2,1:2|1:2,2:0:0:0:
367,207,155418,1,10,1:2:0:0:
486,165,155552,2,0,P|378:207|377:332,1,208,0|2,1:0|2:0,2:0:0:0:
406,347,155954,5,8,1:0:0:0:
441,285,156088,1,2,1:2:0:0:
479,352,156222,1,0,2:0:0:0:
403,359,156356,1,2,1:2:0:0:
436,273,156490,5,10,1:2:0:0:
431,197,156624,1,0,2:0:0:0:
276,123,156758,5,2,1:2:0:0:
271,199,156892,2,0,B|287:325,1,104,2|8,2:0|1:0,2:0:0:0:
356,193,157159,6,0,B|342:67|414:126|402:-12,1,208,2|2,1:2|1:2,2:0:0:0:
205,153,157561,2,0,P|159:123|152:59,1,104,8|0,1:0|2:0,2:0:0:0:
315,53,157829,5,2,1:2:0:0:
267,0,157963,2,0,L|260:123,1,104,2|8,2:0|1:0,2:0:0:0:
105,215,158231,5,2,1:2:0:0:
8,278,158365,1,2,2:0:0:0:
109,356,158499,2,0,L|103:252,2,104,2|8|2,1:2|1:0|2:0,2:0:0:0:
273,185,158901,5,0,1:0:0:0:
337,221,159034,2,0,L|470:188,1,104,2|8,2:0|1:0,2:0:0:0:
333,126,159302,2,0,L|200:93,1,104,2|0,1:2|2:0,2:0:0:0:
353,240,159570,5,2,1:2:0:0:
453,214,159704,1,10,1:2:0:0:
328,142,159838,1,2,1:2:0:0:
228,116,159972,1,4,1:2:0:0:
168,174,160106,6,0,L|192:281,1,104,2|8,2:0|1:0,2:0:0:0:
256,313,160374,1,2,1:2:0:0:
316,268,160508,1,0,2:0:0:0:
442,324,160642,2,0,L|326:339,2,104,2|10|0,1:2|1:2|2:0,2:0:0:0:
175,288,161043,5,2,1:2:0:0:
142,352,161177,2,0,L|97:143,1,208,2|2,2:0|1:2,2:0:0:0:
25,157,161579,2,0,P|8:97|25:52,1,104,0|2,2:0|1:2,2:0:0:0:
177,5,161847,1,8,1:0:0:0:
250,25,161981,1,0,2:0:0:0:
337,288,162115,5,2,1:2:0:0:
369,352,162249,2,0,L|415:143,1,208,2|2,2:0|1:2,2:0:0:0:
487,157,162651,2,0,P|504:97|487:52,1,104,0|2,2:0|1:2,2:0:0:0:
335,5,162918,1,8,1:0:0:0:
262,25,163052,1,0,2:0:0:0:
74,138,163186,5,2,1:2:0:0:
141,164,163320,1,2,2:0:0:0:
67,165,163454,1,8,1:0:0:0:
168,237,163588,6,0,L|393:197,1,208,2|2,1:2|1:2,2:0:0:0:
423,147,163990,1,10,1:2:0:0:
198,318,164124,2,0,L|91:304,1,104,0|0,1:0|1:0,2:0:0:0:
255,374,164392,5,2,2:0:0:0:
327,362,164526,2,0,B|369:335|369:335|434:348,1,104,8|2,1:0|1:2,2:0:0:0:
487,307,164793,1,0,2:0:0:0:
460,238,164927,1,2,1:2:0:0:
505,296,165061,1,10,1:2:0:0:
478,227,165195,1,0,2:0:0:0:
293,217,165329,5,2,1:2:0:0:
317,149,165463,2,0,L|296:31,1,104,2|8,2:0|1:0,2:0:0:0:
412,142,165731,2,0,P|346:167|352:307,1,208,2|2,1:2|1:2,2:0:0:0:
410,295,166133,1,8,1:0:0:0:
461,241,166267,1,0,2:0:0:0:
207,261,166401,5,2,1:2:0:0:
156,207,166534,2,0,P|148:138|112:2,1,208,2|2,2:0|1:2,2:0:0:0:
291,167,166936,5,2,2:0:0:0:
286,244,167070,2,0,L|277:372,1,104,2|8,1:2|1:0,2:0:0:0:
219,105,167338,5,2,2:0:0:0:
261,11,167472,2,0,B|364:-9|337:92|460:82,1,208,4|8,1:2|1:0,2:0:0:0:
479,148,167874,2,0,P|498:234|500:372,1,208,2|2,1:2|1:2,2:0:0:0:
254,384,168276,2,0,P|255:280|276:178,1,208,8|0,1:0|1:0,2:0:0:0:
170,10,168677,6,0,L|117:134,1,128,2|0,1:0|2:0,2:0:0:0:
396,180,168945,6,0,L|345:62,1,128,2|0,1:0|2:0,2:0:0:0:
151,224,169213,5,2,1:0:0:0:
222,372,169347,1,2,1:0:0:0:
351,251,169481,1,0,2:0:0:0:
280,103,169615,1,12,2:0:0:0:
