osu file format v14

[General]
AudioFilename: audio.mp3
AudioLeadIn: 0
PreviewTime: 108275
Countdown: 0
SampleSet: Soft
StackLeniency: 0.2
Mode: 0
LetterboxInBreaks: 0
WidescreenStoryboard: 1

[Editor]
Bookmarks: 343,9985,27128,37843,54985,60075,63557,80700,91414,108557,125700,134271,151414,169628
DistanceSpacing: 0.9
BeatDivisor: 4
GridSize: 32
TimelineZoom: 2.1

[Metadata]
Title:In the Black
TitleUnicode:イン・ザ・ブラック
Artist:BUTAOTOME
ArtistUnicode:豚乙女
Creator:Luscent
Version:Lude's Another
Source:東方憑依華 ~ Antinomy of Common Flowers.
Tags:東方project Touhou Project ZUN AoCF Hyouibana th15.5 U2 Uni Akiyama あきやまうに Twilight Frontier Team Shanghai Alice 二ッ岩 マミゾウ Futatsuiwa Mamizou 深緑の狸森にて Shinryoku no Tanuki Mori nite in the deep-green tanuki forest dailycare lude delis mirash ランコ ranko buta otome japanese rock pop video game
BeatmapID:3813237
BeatmapSetID:1833640

[Difficulty]
HPDrainRate:5.2
CircleSize:4
OverallDifficulty:8.3
ApproachRate:9.3
SliderMultiplier:1.7
SliderTickRate:1

[Events]
//Background and Video events
0,0,"2.jpg",0,0
//Break Periods
2,125888,132632
//Storyboard Layer 0 (Background)
//Storyboard Layer 1 (Fail)
//Storyboard Layer 2 (Pass)
//Storyboard Layer 3 (Foreground)
//Storyboard Layer 4 (Overlay)
//Storyboard Sound Samples

[TimingPoints]
331,267.857142857143,4,2,1,78,1,0
598,-83.3333333333333,4,2,1,78,0,0
9973,267.857142857143,4,2,1,72,1,0
27115,-100,4,2,1,58,0,0
28321,-100,4,2,1,62,0,0
29393,-100,4,2,1,66,0,0
30464,-100,4,2,1,70,0,0
37830,267.857142857143,4,2,1,80,1,1
37830,-83.3333333333333,4,2,1,80,0,1
54972,-83.3333333333333,4,2,1,78,0,0
63544,-100,4,2,1,68,0,0
80687,-100,4,2,1,58,0,0
81892,-100,4,2,1,62,0,0
82964,-100,4,2,1,66,0,0
84035,-100,4,2,1,70,0,0
90330,-1000,4,2,1,70,0,0
91133,-66.6666666666667,4,2,1,70,0,0
91401,267.857142857143,4,2,1,80,1,0
91401,-83.3333333333333,4,2,1,80,0,1
99972,-250,4,2,1,80,0,1
100240,-83.3333333333333,4,2,1,80,0,1
100508,-250,4,2,1,80,0,1
100776,-76.9230769230769,4,2,1,80,0,1
101043,-250,4,2,1,80,0,1
101311,-71.4285714285714,4,2,1,80,0,1
101579,-250,4,2,1,80,0,1
101847,-66.6666666666667,4,2,1,80,0,1
102115,-250,4,2,1,80,0,1
102383,-62.5,4,2,1,80,0,1
102651,-250,4,2,1,80,0,1
102918,-58.8235294117647,4,2,1,80,0,1
103186,-83.3333333333333,4,2,1,80,0,1
108543,-83.3333333333333,4,2,1,78,0,0
125686,-83.3333333333333,4,2,1,50,0,0
133990,-83.3333333333333,4,2,1,70,0,0
134258,-83.3333333333333,4,2,1,80,0,1
151401,-83.3333333333333,4,2,1,78,0,0

[Colours]
Combo1 : 99,66,54
Combo2 : 201,141,52
Combo3 : 156,73,115
Combo4 : 124,156,58

[HitObjects]
203,262,331,5,4,1:0:0:0:
304,201,464,1,2,2:0:0:0:
196,71,598,2,0,P|200:121|213:170,1,102,8|2,1:0|1:2,0:0:0:0:
385,96,866,2,0,P|334:100|285:113,1,102,0|2,2:0|1:2,0:0:0:0:
96,53,1134,2,0,P|146:57|195:70,1,102,10|0,1:2|2:0,0:0:0:0:
36,129,1402,5,2,1:2:0:0:
110,236,1536,2,0,B|136:162|136:162|127:141,1,102,2|8,2:0|1:0,2:0:0:0:
228,225,1804,2,0,L|245:326,1,102,2|0,1:2|2:0,2:0:0:0:
44,358,2072,2,0,L|276:322,1,204,2|0,1:2|2:0,0:0:0:0:
345,279,2473,6,0,L|325:399,2,102,2|2|8,1:2|2:0|1:0,0:0:0:0:
472,233,2875,2,0,B|458:209|458:209|365:191,1,102,2|0,1:2|2:0,2:0:0:0:
314,70,3143,2,0,B|328:94|328:94|528:133,1,204,2|0,1:2|2:0,0:0:0:0:
500,127,3545,5,2,1:2:0:0:
385,194,3679,2,0,L|282:173,1,102,2|8,2:0|1:0,0:0:0:0:
145,24,3947,2,0,P|170:109|183:224,1,204,2|2,1:2|1:2,2:0:0:0:
90,193,4281,1,0,1:0:0:0:
90,193,4348,2,0,P|82:130|68:77,1,102,10|0,1:2|1:0,0:0:0:0:
16,254,4616,5,0,1:0:0:0:
0,158,4750,1,2,2:0:0:0:
117,279,4884,2,0,P|94:331|90:381,1,102,8|2,1:0|1:2,0:0:0:0:
282,363,5152,2,0,L|166:341,1,102,0|2,2:0|1:2,0:0:0:0:
361,246,5420,2,0,L|260:265,1,102,10|0,1:2|2:0,0:0:0:0:
370,157,5688,5,2,1:2:0:0:
441,302,5822,2,0,P|454:237|428:192,1,102,2|8,2:0|1:0,2:0:0:0:
369,61,6089,2,0,P|354:109|369:156,1,102,2|0,1:2|2:0,2:0:0:0:
239,128,6357,2,0,B|290:113|290:113|323:119|323:119|466:100,1,204,2|0,1:2|2:0,0:0:0:0:
294,205,6759,6,0,B|282:236|282:236|304:305,2,102,2|2|8,1:2|2:0|1:0,0:0:0:0:
393,307,7161,1,2,1:2:0:0:
241,363,7295,1,2,2:0:0:0:
123,331,7429,2,0,P|120:271|109:216,1,102,2|8,1:2|1:0,2:0:0:0:
91,132,7697,1,2,2:0:0:0:
201,12,7831,6,0,P|199:103|206:231,1,204,0|10,1:0|1:2,2:0:0:0:
477,89,8232,2,0,B|424:57|424:57|357:87|266:81,1,204,2|2,1:2|1:2,0:0:0:0:
396,165,8634,2,0,P|345:173|294:176,1,102,10|0,1:2|2:0,0:0:0:0:
204,215,8902,5,0,1:0:0:0:
375,274,9036,1,8,1:0:0:0:
364,293,9170,1,0,2:0:0:0:
173,327,9304,1,8,1:0:0:0:
116,153,9572,5,8,1:0:0:0:
173,327,9706,2,0,P|227:310|278:310,1,102,8|0,1:0|0:0,0:0:0:0:
377,318,9973,6,0,B|404:275|404:275|366:155,1,170,4|10,1:0|2:0,2:0:0:0:
326,40,10374,1,2,2:0:0:0:
270,175,10508,2,0,P|199:150|91:133,1,170,0|10,2:0|2:0,2:0:0:0:
41,214,10910,1,2,2:0:0:0:
126,336,11044,6,0,B|156:321|156:321|221:342,1,85,0|0,2:0|0:0,2:0:0:0:
298,318,11312,2,0,B|328:333|328:333|376:317,1,85,10|0,2:0|0:0,0:0:0:0:
474,346,11580,2,0,L|498:156,1,170,0|10,2:0|2:0,0:0:0:0:
360,54,12115,6,0,B|368:138|368:138|367:144|367:144|377:245,2,170,0|10|0,2:0|2:0|2:0,2:0:0:0:
450,93,12785,1,0,2:0:0:0:
283,130,12919,2,0,L|176:108,1,85,10|0,2:0|2:0,2:0:0:0:
93,94,13187,5,4,2:3:0:0:
50,186,13321,2,0,P|60:213|67:240,2,42.5,0|4|8,0:0|2:3|2:0,0:0:0:0:
174,280,13589,2,0,P|182:201|206:87,1,170,4|4,2:3|2:3,0:0:0:0:
222,16,13990,5,8,2:0:0:0:
283,130,14124,1,0,2:0:0:0:
378,87,14258,2,0,P|418:73|460:67,1,85,2|0,2:0|0:0,2:0:0:0:
512,171,14526,5,10,2:0:0:0:
451,285,14660,1,2,2:0:0:0:
356,242,14794,2,0,P|315:228|273:222,1,85,0|0,2:0|0:0,2:0:0:0:
206,331,15062,6,0,P|248:324|288:311,1,85,10|2,2:0|2:0,0:0:0:0:
106,187,15330,2,0,P|103:231|117:368,1,170,0|10,2:0|2:0,2:0:0:0:
114,356,15731,1,0,2:0:0:0:
199,225,15865,2,0,B|211:175|211:175|173:124,1,85,2|0,2:0|2:0,0:0:0:0:
107,23,16133,2,0,B|95:73|95:73|133:124,1,85,10|0,2:0|2:0,2:0:0:0:
257,88,16401,6,0,L|451:53,1,170,2|10,2:0|2:0,2:0:0:0:
424,57,16803,1,2,2:0:0:0:
466,181,16937,2,0,P|421:173|370:155,1,85,0|0,2:0|2:0,0:0:0:0:
308,254,17205,2,0,P|349:261|390:274,1,85,10|0,2:0|2:0,0:0:0:0:
484,311,17473,5,2,2:0:0:0:
350,357,17606,2,0,P|329:350|309:345,2,42.5,0|0|8,2:0|0:0|2:0,0:0:0:0:
208,371,17874,2,0,P|208:301|189:186,1,170,2|2,2:0|2:0,0:0:0:0:
193,202,18209,1,0,0:0:0:0:
193,202,18276,5,10,2:0:0:0:
255,124,18410,1,2,2:0:0:0:
118,53,18544,2,0,P|117:107|131:163,1,85,2|0,2:0|0:0,2:0:0:0:
317,203,18812,5,10,2:0:0:0:
255,124,18946,1,2,2:0:0:0:
392,53,19080,2,0,P|393:107|379:163,1,85,0|0,2:0|0:0,2:0:0:0:
387,277,19348,5,10,2:0:0:0:
459,210,19481,1,2,2:0:0:0:
480,335,19615,2,0,B|418:313|418:313|385:326|385:326|293:294,1,170,0|10,2:0|2:0,2:0:0:0:
244,277,20017,1,0,0:0:0:0:
158,341,20151,2,0,P|154:291|139:247,1,85,0|2,2:0|2:0,0:0:0:0:
223,110,20419,2,0,P|211:151|209:194,1,85,10|0,2:0|2:0,0:0:0:0:
159,52,20687,6,0,P|231:21|308:105,1,170,0|10,2:0|2:0,2:0:0:0:
300,69,21089,1,2,2:0:0:0:
395,150,21223,2,0,B|411:129|411:129|388:48,1,85,0|0,2:0|2:0,0:0:0:0:
304,192,21490,2,0,B|288:213|288:213|311:294,1,85,10|0,2:0|2:0,2:0:0:0:
511,271,21758,6,0,L|350:237,1,127.5,4|4,2:3|2:3,0:0:0:0:
387,245,22026,1,8,2:0:0:0:
321,357,22160,2,0,L|132:314,1,170,4|4,2:3|2:3,0:0:0:0:
53,216,22562,2,0,L|67:306,1,85,8|0,2:0|2:0,0:0:0:0:
186,63,22830,6,0,L|151:241,1,170,2|10,2:0|2:0,2:0:0:0:
153,229,23231,1,2,2:0:0:0:
288,190,23365,2,0,L|323:368,1,170,0|10,2:0|2:0,2:0:0:0:
320,356,23767,1,2,2:0:0:0:
441,276,23901,6,0,B|472:214|472:214|424:91,1,170,0|10,2:0|2:0,2:0:0:0:
435,120,24303,1,2,2:0:0:0:
288,190,24437,2,0,P|343:193|391:208,1,85,0|0,2:0|2:0,0:0:0:0:
223,271,24705,2,0,P|168:268|120:253,1,85,10|0,2:0|2:0,0:0:0:0:
171,12,24973,6,0,P|183:107|183:187,1,170,2|10,2:0|2:0,2:0:0:0:
183,181,25374,1,0,2:0:0:0:
95,151,25508,2,0,P|94:102|88:57,1,85,2|0,2:0|0:0,0:0:0:0:
263,51,25776,2,0,P|267:93|268:135,1,85,10|0,2:0|2:0,0:0:0:0:
271,232,26044,5,2,2:0:0:0:
345,291,26178,2,0,P|369:282|398:281,2,42.5,2|2|8,2:1|2:0|2:0,0:0:0:0:
256,325,26446,2,0,L|78:292,1,170,2|2,2:1|2:0,0:0:0:0:
8,325,26848,1,10,2:1:0:0:
120,208,26981,1,2,2:1:0:0:
15,163,27115,6,0,P|7:84|88:47,1,170,6|0,1:0|3:0,0:0:0:0:
158,109,27517,2,0,B|202:78|251:95|251:95|282:135|338:122,1,170,2|2,2:0|2:0,2:0:0:0:
396,76,27919,2,0,P|359:36|317:30,1,85,0|2,3:0|2:0,0:0:0:0:
313,125,28187,5,0,3:0:0:0:
378,190,28321,2,0,P|370:218|368:245,2,42.5,0|0|0,3:0|3:0|3:0,0:0:0:0:
292,277,28589,2,0,P|386:257|484:247,1,170,0|0,3:0|3:0,0:0:0:0:
432,339,28990,2,0,P|389:344|327:356,1,85,2|2,3:2|3:2,0:0:0:0:
180,379,29258,6,0,P|153:312|223:236,1,170,2|0,1:2|3:0,0:0:0:0:
292,277,29660,2,0,B|313:228|313:228|268:111,1,170,2|2,2:0|2:0,2:0:0:0:
174,43,30062,2,0,L|152:136,1,85,0|2,3:0|2:0,0:0:0:0:
136,220,30330,5,0,3:0:0:0:
52,177,30464,2,0,P|28:164|1:159,2,42.5,0|0|0,3:0|3:0|3:0,0:0:0:0:
41,278,30731,2,0,L|223:236,1,170,0|0,3:0|3:0,0:0:0:0:
292,277,31133,2,0,L|317:183,1,85,2|2,3:2|3:2,0:0:0:0:
293,104,31401,6,0,L|350:88,3,42.5,2|0|0|0,1:2|0:0|3:0|3:0,0:0:0:0:
376,4,31669,6,0,L|408:53,3,42.5,2|0|0|0,1:2|0:0|3:0|0:0,0:0:0:0:
496,52,31937,6,0,L|459:98,3,42.5,2|0|0|0,1:2|0:0|3:0|3:0,0:0:0:0:
487,180,32205,6,0,L|431:159,3,42.5,2|0|0|0,1:2|0:0|3:0|0:0,0:0:0:0:
362,210,32473,6,0,L|364:150,3,42.5,2|0|0|0,1:2|0:0|3:0|3:0,0:0:0:0:
487,180,32740,6,0,L|431:159,3,42.5,2|0|0|0,1:2|0:0|3:0|0:0,0:0:0:0:
496,52,33008,6,0,L|459:98,3,42.5,2|0|0|0,1:2|0:0|3:0|3:0,0:0:0:0:
376,4,33276,6,0,L|408:53,3,42.5,2|0|0|0,1:2|0:0|3:0|3:0,0:0:0:0:
333,92,33544,6,0,L|162:141,1,170,2|2,1:2|1:2,0:0:0:0:
91,81,33946,1,0,1:0:0:0:
49,171,34080,2,0,L|72:256,1,85,2|0,1:2|1:0,0:0:0:0:
192,220,34281,1,0,1:0:0:0:
192,220,34348,2,0,L|169:137,1,85,2|0,1:2|1:0,0:0:0:0:
263,275,34615,6,0,L|321:258,3,42.5,2|0|0|2,1:2|1:0|1:0|1:2,1:0:0:0:
364,197,34883,2,0,L|404:208,3,42.5,2|0|2|0,1:2|1:0|1:2|1:0,1:0:0:0:
480,255,35151,1,2,1:2:0:0:
507,146,35285,5,2,1:2:0:0:
507,146,35352,1,2,1:2:0:0:
507,146,35419,2,0,B|518:117|518:117|486:40,1,85,2|0,1:2|1:0,0:0:0:0:
364,197,35687,1,2,2:1:0:0:
256,192,36758,12,2,37562,1:3:0:0:
318,218,37830,6,0,L|346:3,1,204,4|8,1:2|1:0,2:0:0:0:
344,15,38231,1,4,2:3:0:0:
208,152,38365,2,0,L|181:354,1,204,0|8,2:0|1:0,2:0:0:0:
181,354,38767,1,0,0:0:0:0:
277,297,38901,6,0,L|379:311,1,102,4|0,2:3|2:0,2:0:0:0:
102,280,39169,1,8,1:0:0:0:
6,118,39303,2,0,P|70:48|180:90,1,204,4|4,2:3|2:3,0:0:0:0:
315,129,39705,2,0,B|336:95|336:95|302:20,1,102,8|4,1:0|2:3,0:0:0:0:
217,159,39972,6,0,P|274:231|397:197,1,204,4|8,2:3|1:0,2:0:0:0:
376,218,40374,1,0,2:0:0:0:
486,176,40508,2,0,L|465:276,1,102,4|4,2:3|2:3,2:0:0:0:
195,258,40776,2,0,L|217:159,1,102,8|4,1:0|2:3,0:0:0:0:
60,61,41044,6,0,B|146:39|146:39|181:72|181:72|293:47,1,204,12|8,2:3|1:0,2:0:0:0:
246,57,41446,1,4,2:3:0:0:
118,141,41580,1,2,2:0:0:0:
311,177,41713,1,2,2:1:0:0:
195,258,41847,2,0,L|95:236,1,102,8|2,1:0|2:1,0:0:0:0:
278,379,42115,6,0,L|314:161,1,204,4|8,1:2|1:0,2:0:0:0:
311,177,42517,1,4,2:3:0:0:
473,363,42651,2,0,L|373:341,1,102,0|4,0:0|2:3,0:0:0:0:
403,168,42919,2,0,L|503:190,1,102,8|0,1:0|2:0,2:0:0:0:
220,191,43187,6,0,P|243:109|362:98,1,204,4|8,2:3|1:0,0:0:0:0:
291,290,43588,2,0,B|252:283|196:327|196:327|174:278|101:248,1,204,4|4,2:3|2:3,0:0:0:0:
238,90,43990,2,0,L|217:202,1,102,8|4,1:0|2:3,0:0:0:0:
439,276,44258,6,0,L|479:63,1,204,4|8,2:3|1:0,2:0:0:0:
477,76,44660,1,0,2:0:0:0:
308,189,44794,2,0,L|290:290,1,102,4|4,2:3|2:3,2:0:0:0:
238,90,45062,2,0,P|187:87|137:74,1,102,8|4,1:0|2:3,2:0:0:0:
4,142,45330,5,12,2:3:0:0:
34,44,45463,1,2,2:1:0:0:
34,44,45530,1,2,2:0:0:0:
34,44,45597,1,8,1:0:0:0:
101,171,45731,2,0,B|78:212|78:212|120:330|120:330|109:373,1,204,4|4,2:3|2:3,0:0:0:0:
174,224,46133,5,10,1:0:0:0:
31,328,46267,1,2,1:0:0:0:
220,341,46401,2,0,L|328:319,1,102,6|0,1:2|2:0,2:0:0:0:
434,206,46669,5,10,1:2:0:0:
405,343,46803,1,4,2:3:0:0:
309,235,46937,2,0,P|320:184|334:132,1,102,2|4,2:0|2:3,0:0:0:0:
342,12,47205,5,10,1:2:0:0:
468,100,47338,1,2,2:0:0:0:
330,116,47472,2,0,P|280:102|230:92,1,102,2|0,1:2|2:0,0:0:0:0:
64,146,47740,5,10,1:2:0:0:
122,21,47874,1,4,2:3:0:0:
217,106,48008,2,0,P|203:155|193:205,1,102,2|4,2:0|2:3,0:0:0:0:
189,348,48276,5,10,1:2:0:0:
71,263,48410,1,2,2:0:0:0:
198,220,48544,2,0,P|247:230|297:243,1,102,2|0,1:2|2:3,0:0:0:0:
333,351,48812,5,10,1:2:0:0:
463,265,48946,1,4,2:3:0:0:
377,187,49080,2,0,L|361:75,1,102,2|4,2:0|2:3,2:0:0:0:
297,2,49347,5,2,1:2:0:0:
475,113,49481,1,4,2:3:0:0:
272,151,49615,2,0,P|182:124|58:105,1,204,2|10,1:0|1:0,0:0:0:0:
73,106,50017,1,8,2:3:0:0:
112,217,50151,6,0,P|114:268|126:335,1,102,2|8,2:1|2:3,0:0:0:0:
236,270,50419,2,0,P|234:321|222:388,1,102,10|4,1:0|2:3,0:0:0:0:
351,321,50687,6,0,P|371:218|380:103,1,204,6|8,1:0|1:0,2:0:0:0:
379,119,51088,1,4,2:3:0:0:
330,19,51222,5,2,2:0:0:0:
468,75,51356,2,0,L|487:133,2,51,4|2|8,2:3|2:0|1:0,0:0:0:0:
293,164,51624,1,2,2:0:0:0:
495,239,51758,6,0,L|384:212,1,102,2|2,1:2|2:0,0:0:0:0:
329,270,51959,1,2,2:0:0:0:
329,270,52026,1,8,1:0:0:0:
379,119,52160,1,4,2:3:0:0:
495,239,52294,6,0,P|484:293|470:347,1,102,2|4,2:0|2:3,0:0:0:0:
384,361,52495,1,0,0:0:0:0:
384,361,52562,2,0,B|318:371|318:371|266:343,1,102,10|4,1:2|2:3,0:0:0:0:
160,368,52830,6,0,L|127:155,1,204,6|8,1:2|1:0,2:0:0:0:
128,166,53231,1,4,2:3:0:0:
297,68,53365,2,0,L|328:269,1,204,2|8,2:0|1:0,2:0:0:0:
328,269,53767,1,4,2:3:0:0:
225,194,53901,5,12,2:3:0:0:
430,235,54035,1,2,1:0:0:0:
440,258,54169,1,4,2:3:0:0:
246,347,54303,1,2,1:0:0:0:
246,347,54571,5,2,1:0:0:0:
353,173,54705,1,2,1:0:0:0:
413,342,54838,1,0,0:0:0:0:
328,269,54972,5,4,1:0:0:0:
481,169,55106,1,2,2:0:0:0:
340,71,55240,2,0,L|355:190,1,102,8|2,1:0|1:2,0:0:0:0:
155,150,55508,2,0,L|256:137,1,102,0|2,2:0|1:2,0:0:0:0:
79,208,55776,2,0,B|52:158|52:158|81:89,1,102,10|0,1:2|2:0,0:0:0:0:
215,40,56044,5,2,1:2:0:0:
256,137,56178,2,0,P|242:186|239:253,1,102,2|8,2:0|1:0,2:0:0:0:
400,128,56446,2,0,P|364:91|308:55,1,102,2|0,1:2|2:0,2:0:0:0:
256,250,56713,2,0,P|339:233|464:222,1,204,2|0,1:2|2:0,0:0:0:0:
476,352,57115,6,0,B|446:358|446:358|366:334,2,102,2|2|8,1:2|2:0|1:0,0:0:0:0:
272,350,57517,2,0,L|253:233,1,102,2|0,1:2|2:0,2:0:0:0:
375,47,57785,2,0,L|409:258,1,204,2|0,1:2|2:0,0:0:0:0:
407,248,58187,5,2,1:2:0:0:
305,175,58321,2,0,L|191:148,1,102,2|8,2:0|1:0,2:0:0:0:
53,153,58588,2,0,P|68:83|206:75,1,204,2|2,1:2|1:2,2:0:0:0:
205,151,58923,1,0,1:0:0:0:
205,151,58990,2,0,L|181:250,1,102,10|0,1:2|1:0,0:0:0:0:
200,336,59258,5,0,1:0:0:0:
97,253,59392,1,2,2:0:0:0:
265,270,59526,2,0,B|293:258|293:258|376:293,1,102,8|2,1:0|1:2,0:0:0:0:
445,222,59794,2,0,B|459:332|459:331,1,102,0|2,2:0|1:2,0:0:0:0:
368,102,60062,2,0,B|356:206|356:205,1,102,10|0,1:2|2:0,0:0:0:0:
445,53,60330,6,0,P|391:16|341:18,2,102,2|2|8,1:2|2:0|1:0,0:0:0:0:
287,69,60731,2,0,L|182:47,1,102,2|0,1:2|2:0,2:0:0:0:
70,124,60999,2,0,B|54:198|54:198|217:158,1,204,2|0,1:2|2:0,0:0:0:0:
255,236,61401,6,0,B|233:341|235:336,2,102,2|2|8,1:2|2:0|1:0,0:0:0:0:
163,258,61803,1,2,1:2:0:0:
326,303,61937,2,0,P|395:287|445:283,1,102,2|2,2:0|1:2,0:0:0:0:
493,204,62205,1,8,1:0:0:0:
333,122,62338,1,0,2:0:0:0:
473,111,62472,5,0,1:0:0:0:
425,283,62606,1,8,1:0:0:0:
442,302,62740,1,0,2:0:0:0:
255,236,62874,1,8,1:0:0:0:
407,178,63142,5,8,1:0:0:0:
241,120,63276,2,0,P|236:62|222:14,1,102,8|0,1:0|0:0,0:0:0:0:
76,152,63544,6,0,P|183:124|250:121,1,170,4|0,2:0|1:0,2:0:0:0:
255,236,63946,1,8,2:3:0:0:
182,362,64080,2,0,B|142:328|142:328|173:177,1,170,0|0,0:0|1:0,0:0:0:0:
241,120,64481,1,0,2:0:0:0:
390,180,64615,6,0,L|353:367,2,170,4|0|0,2:3|1:3|2:0,0:0:0:0:
459,267,65285,1,8,2:3:0:0:
277,309,65419,2,0,L|300:199,1,85,0|0,1:0|0:0,0:0:0:0:
331,33,65687,5,4,2:3:0:0:
486,96,65821,1,0,0:0:0:0:
486,96,65955,2,0,B|457:101|457:101|394:69,1,85,0|8,1:0|2:3,0:0:0:0:
252,142,66222,2,0,B|281:147|281:147|344:115,1,85,0|8,2:0|2:3,0:0:0:0:
243,53,66490,2,0,L|135:31,1,85,0|0,1:0|0:0,0:0:0:0:
95,216,66758,6,0,L|60:63,1,127.5,4|0,2:3|0:0,0:0:0:0:
66,91,67026,1,0,1:0:0:0:
188,310,67160,2,0,L|230:123,1,170,8|4,2:3|2:3,0:0:0:0:
315,233,67562,2,0,B|340:211|370:217|370:217|341:240,1,85,0|0,1:0|0:0,0:0:0:0:
243,53,67830,6,0,P|317:53|317:154,1,170,6|0,2:3|1:0,2:0:0:0:
334,134,68231,1,8,2:3:0:0:
188,310,68365,2,0,B|245:297|245:297|299:331|299:331|369:317,1,170,0|0,0:0|1:0,0:0:0:0:
345,321,68767,1,0,2:0:0:0:
113,375,68901,6,0,L|85:194,1,170,4|0,2:3|1:0,0:0:0:0:
87,206,69303,1,8,2:3:0:0:
211,47,69437,2,0,L|185:215,1,170,0|0,0:0|1:0,0:0:0:0:
61,114,69972,6,0,B|121:89|166:121|143:133|181:165|250:145,1,170,4|0,2:3|1:0,0:0:0:0:
314,72,70374,1,8,2:3:0:0:
331,80,70508,2,0,L|297:266,1,170,0|0,2:0|1:0,0:0:0:0:
211,283,70910,1,0,0:0:0:0:
283,338,71044,5,4,2:3:0:0:
370,301,71178,2,0,L|419:293,2,42.5,2|4|0,2:3|2:3|1:0,0:0:0:0:
211,283,71446,1,10,2:3:0:0:
300,247,71580,5,4,2:3:0:0:
283,338,71713,1,4,2:3:0:0:
226,194,71847,5,2,1:3:0:0:
370,301,71981,1,4,2:3:0:0:
194,368,72115,6,0,L|20:333,1,170,6|0,2:3|1:0,2:0:0:0:
27,334,72517,1,8,2:3:0:0:
17,161,72651,2,0,B|71:145|89:113|89:113|119:135|182:133,1,170,0|0,0:0|1:0,0:0:0:0:
166,133,73053,1,0,2:0:0:0:
249,187,73187,6,0,L|276:85,1,85,4|0,2:3|2:0,0:0:0:0:
346,253,73455,2,0,L|263:231,1,85,0|8,1:0|2:3,0:0:0:0:
403,145,73722,2,0,L|376:247,1,85,0|0,0:0|2:3,0:0:0:0:
306,79,73990,2,0,L|388:100,1,85,0|0,1:0|0:0,0:0:0:0:
504,205,74258,6,0,B|417:224|417:224|413:235|413:235|332:256,1,170,4|0,2:3|1:0,0:0:0:0:
173,276,74660,2,0,P|237:269|283:362,1,170,8|8,2:3|2:3,0:0:0:0:
103,213,75062,2,0,L|121:110,1,85,0|0,1:0|0:0,0:0:0:0:
29,151,75330,5,4,2:3:0:0:
212,115,75463,1,0,0:0:0:0:
212,115,75530,1,0,0:0:0:0:
212,115,75597,1,0,1:0:0:0:
103,213,75731,2,0,L|134:39,1,170,8|4,2:3|2:3,0:0:0:0:
173,276,76133,2,0,L|158:359,1,85,0|0,1:0|0:0,0:0:0:0:
82,334,76401,6,0,L|276:299,1,170,6|0,2:3|1:0,2:0:0:0:
321,358,76803,1,8,2:3:0:0:
340,128,76937,2,0,B|380:178|380:178|318:297,1,170,0|0,0:0|1:0,0:0:0:0:
249,303,77338,1,0,2:0:0:0:
409,306,77472,6,0,L|495:288,1,85,6|0,2:3|0:0,2:0:0:0:
423,110,77740,2,0,L|339:127,1,85,0|8,1:0|2:3,0:0:0:0:
249,303,78008,2,0,P|231:207|229:131,1,170,0|0,2:0|1:0,0:0:0:0:
232,42,78410,1,0,0:0:0:0:
150,217,78544,6,0,P|93:199|5:190,1,127.5,6|0,2:3|0:0,2:0:0:0:
21,210,78812,2,0,P|59:190|112:183,1,85,0|0,1:0|0:0,0:0:0:0:
249,303,79080,6,0,P|267:246|276:158,1,127.5,2|0,2:3|0:0,2:0:0:0:
256,174,79347,2,0,P|276:212|283:265,1,85,0|0,1:0|0:0,0:0:0:0:
313,365,79615,5,6,2:3:0:0:
383,257,79749,1,4,2:3:0:0:
383,257,79816,1,0,0:0:0:0:
383,257,79883,1,0,1:0:0:0:
256,174,80017,2,0,P|346:150|432:147,1,170,8|4,2:3|2:3,0:0:0:0:
271,62,80419,2,0,P|257:117|255:153,1,85,0|0,1:0|0:0,0:0:0:0:
170,211,80687,6,0,P|161:120|181:27,1,170,4|0,1:0|3:0,0:0:0:0:
70,235,81088,2,0,P|115:299|226:300,1,170,2|2,2:0|2:0,2:0:0:0:
350,287,81490,2,0,P|314:267|255:262,1,85,0|2,3:0|2:0,0:0:0:0:
287,353,81758,5,0,3:0:0:0:
369,374,81892,2,0,L|425:358,2,42.5,0|0|0,3:0|3:0|3:0,0:0:0:0:
486,321,82160,2,0,P|489:247|510:133,1,170,0|0,3:0|3:0,0:0:0:0:
392,113,82562,2,0,P|395:159|413:220,1,85,2|2,3:2|3:2,0:0:0:0:
296,235,82830,6,0,P|293:161|272:47,1,170,2|0,1:2|3:0,0:0:0:0:
102,257,83231,2,0,P|120:183|220:179,1,170,2|2,2:0|2:0,2:0:0:0:
258,326,83633,2,0,P|228:313|169:310,1,85,0|2,3:0|2:0,0:0:0:0:
99,344,83901,5,0,3:0:0:0:
203,168,84035,1,0,3:0:0:0:
19,270,84169,1,0,3:0:0:0:
32,126,84303,6,0,P|16:103|-11:86,2,42.5,0|0|0,3:0|3:0|3:0,0:0:0:0:
107,69,84571,2,0,P|118:43|120:11,2,42.5,0|0|2,3:0|3:0|3:2,0:0:0:0:
38,18,84838,1,2,3:2:0:0:
203,75,84972,6,0,L|305:47,1,85,2|0,1:2|3:0,0:0:0:0:
292,76,85240,2,0,L|190:48,1,85,2|0,1:2|3:0,0:0:0:0:
176,174,85508,6,0,L|278:146,1,85,2|0,1:2|3:0,0:0:0:0:
324,181,85709,1,0,3:0:0:0:
318,169,85776,2,0,L|216:141,1,85,2|0,1:2|3:0,0:0:0:0:
146,276,86044,6,0,L|220:254,3,42.5,2|0|0|0,1:2|0:0|3:0|3:0,0:0:0:0:
348,283,86312,2,0,L|274:261,3,42.5,2|0|0|0,1:2|0:0|3:0|0:0,0:0:0:0:
119,374,86580,6,0,L|193:352,3,42.5,2|0|0|0,1:2|0:0|3:0|3:0,0:0:0:0:
362,375,86847,2,0,L|288:353,3,42.5,2|0|0|0,1:2|0:0|3:0|3:0,0:0:0:0:
240,311,87115,6,0,P|235:263|220:207,1,85,2|0,1:2|1:0,0:0:0:0:
261,206,87316,1,0,1:0:0:0:
261,206,87383,2,0,P|266:158|281:102,1,85,2|0,1:2|1:0,0:0:0:0:
241,98,87584,1,0,1:0:0:0:
241,98,87651,2,0,P|236:50|221:-6,1,85,2|0,1:2|1:0,0:0:0:0:
88,81,87852,1,0,1:0:0:0:
88,81,87919,2,0,P|78:122|74:164,1,85,2|0,1:2|1:0,0:0:0:0:
110,245,88187,6,0,P|138:234|163:231,3,42.5,2|0|0|2,1:2|1:0|1:0|1:2,1:0:0:0:
231,273,88455,6,0,P|259:284|284:287,3,42.5,2|0|2|0,1:2|1:0|1:2|1:0,1:0:0:0:
324,211,88722,6,0,P|343:219|364:224,3,42.5,2|0|2|2,1:2|1:0|1:2|1:2,1:0:0:0:
444,182,88990,6,0,P|463:173|484:168,3,42.5,2|0|0|0,1:2|1:0|1:0|1:0,1:0:0:0:
368,113,89258,5,2,2:1:0:0:
256,191,90330,6,2,P|255:170|251:149,1,42.5,2|12,0:0|2:3,0:1:0:0:
161,211,91133,6,0,P|257:217|351:231,1,191.25,2|0,1:3|0:0,0:0:0:0:
426,293,91401,6,0,P|438:199|459:83,1,204,4|8,1:2|1:0,2:0:0:0:
457,91,91802,1,4,2:3:0:0:
282,351,91936,2,0,P|270:257|249:141,1,204,0|8,2:0|1:0,2:0:0:0:
250,149,92338,1,0,0:0:0:0:
185,326,92472,6,0,P|134:331|85:344,1,102,4|0,2:3|2:0,2:0:0:0:
356,184,92740,1,8,1:0:0:0:
113,205,92874,2,0,P|96:134|219:84,1,204,4|4,2:3|2:3,0:0:0:0:
356,184,93276,2,0,P|353:133|336:85,1,102,8|4,1:0|2:3,0:0:0:0:
246,259,93543,6,0,P|314:333|440:289,1,204,4|8,2:3|1:0,2:0:0:0:
458,204,93945,1,0,2:0:0:0:
248,126,94079,2,0,B|238:87|238:87|266:16,1,102,4|4,2:3|2:3,2:0:0:0:
453,15,94347,2,0,B|463:54|463:54|435:125,1,102,8|4,1:0|2:3,0:0:0:0:
375,294,94615,6,0,L|348:90,1,204,12|8,2:3|1:0,2:0:0:0:
348,91,95017,1,4,2:3:0:0:
458,204,95151,1,2,2:0:0:0:
282,262,95284,1,2,2:1:0:0:
438,340,95418,2,0,B|382:329|382:329|341:348,1,102,8|2,1:0|2:1,0:0:0:0:
157,364,95686,6,0,B|147:344|147:344|173:137,1,204,4|8,1:2|1:0,2:0:0:0:
169,163,96088,1,4,2:3:0:0:
282,262,96222,2,0,L|296:144,1,102,0|4,0:0|2:3,0:0:0:0:
43,208,96490,2,0,L|30:309,1,102,8|0,1:0|2:0,0:0:0:0:
30,110,96758,6,0,P|112:79|165:178,1,204,4|8,2:3|1:0,0:0:0:0:
370,140,97159,2,0,P|268:141|168:162,1,204,4|4,2:3|2:3,0:0:0:0:
311,333,97561,2,0,P|307:275|312:227,1,102,8|4,1:0|2:3,0:0:0:0:
459,91,97829,6,0,P|463:141|458:192,1,102,4|0,2:3|0:0,2:0:0:0:
281,116,98097,2,0,P|276:65|280:14,1,102,8|0,1:0|2:0,0:0:0:0:
219,266,98365,2,0,B|188:279|188:279|108:256,1,102,4|4,2:3|2:3,0:0:0:0:
6,126,98633,2,0,B|37:113|37:113|102:131,1,102,8|4,1:0|2:3,2:0:0:0:
168,66,98901,5,12,2:3:0:0:
43,217,99034,1,2,2:1:0:0:
78,23,99168,1,8,1:0:0:0:
183,183,99302,1,4,2:3:0:0:
6,126,99436,5,6,1:0:0:0:
168,66,99570,1,4,2:3:0:0:
122,260,99704,2,0,L|102:370,1,102,10|4,1:0|2:3,0:0:0:0:
252,339,99972,6,0,L|310:329,1,51,4|0,1:2|0:0,2:0:0:0:
339,353,100240,2,0,L|359:223,1,102,10|4,1:2|2:3,0:0:0:0:
233,191,100508,6,0,L|175:181,1,51,2|0,2:0|0:0,0:0:0:0:
146,205,100776,2,0,L|126:64,1,110.5,10|2,1:2|2:0,0:0:0:0:
276,33,101043,6,0,L|326:41,1,51,2|0,1:2|0:0,0:0:0:0:
369,49,101311,2,0,B|384:81|384:81|343:183,1,119,10|4,1:2|2:3,0:0:0:0:
339,353,101579,6,0,L|288:344,1,51,2|0,2:0|0:0,0:0:0:0:
246,337,101847,2,0,B|231:305|231:305|279:193,1,127.5,10|2,1:2|2:0,0:0:0:0:
91,76,102115,6,0,L|100:138,1,51,2|0,1:2|0:0,0:0:0:0:
105,159,102383,2,0,L|279:127,1,136,10|4,1:2|2:3,0:0:0:0:
423,280,102651,6,0,L|414:218,1,51,2|0,2:0|0:0,2:0:0:0:
409,194,102918,2,0,L|227:227,1,144.5,10|4,1:2|2:3,0:0:0:0:
174,242,103186,6,0,P|185:291|193:342,1,102,2|4,1:0|2:3,0:0:0:0:
70,259,103454,2,0,P|77:309|89:359,1,102,10|8,1:0|2:3,0:0:0:0:
20,54,103722,6,0,P|8:103|0:154,1,102,2|8,2:1|2:3,0:0:0:0:
123,70,103990,2,0,P|115:120|103:170,1,102,10|4,1:0|2:3,0:0:0:0:
404,170,104258,6,0,P|331:150|192:138,1,204,6|8,1:0|1:0,2:0:0:0:
204,138,104659,1,4,2:3:0:0:
273,269,104793,2,0,P|327:254|384:253,1,102,2|4,2:0|2:3,2:0:0:0:
446,318,104994,1,2,2:0:0:0:
446,318,105061,2,0,L|475:215,1,102,8|2,1:0|2:0,0:0:0:0:
404,170,105329,6,0,L|393:61,1,102,2|2,1:2|2:0,0:0:0:0:
300,117,105530,1,2,2:0:0:0:
300,117,105597,2,0,B|260:113|260:113|185:146,1,102,8|4,1:0|2:3,0:0:0:0:
92,92,105865,2,0,P|108:150|110:208,1,102,2|4,2:0|2:3,0:0:0:0:
210,227,106133,2,0,P|194:285|192:343,1,102,10|4,1:2|2:3,0:0:0:0:
100,306,106401,6,0,P|206:279|310:270,1,204,6|8,1:2|1:0,2:0:0:0:
398,172,106802,1,4,2:3:0:0:
419,183,106936,2,0,L|382:361,1,153,2|0,2:0|0:0,2:0:0:0:
492,268,107204,2,0,L|514:162,1,102,8|4,1:0|2:3,0:0:0:0:
404,21,107472,5,12,2:3:0:0:
512,167,107606,1,2,1:0:0:0:
355,105,107740,5,4,2:3:0:0:
500,30,107874,1,2,1:0:0:0:
500,30,108142,5,2,1:0:0:0:
420,184,108276,1,2,1:0:0:0:
267,160,108409,1,2,2:1:0:0:
198,248,108543,6,0,L|217:356,2,102,6|2|0,1:0|2:1|1:0,0:0:0:0:
111,170,108945,2,0,L|92:278,1,102,2|0,2:1|0:0,0:0:0:0:
249,59,109213,2,0,L|268:167,1,102,2|0,2:1|1:0,0:0:0:0:
437,105,109481,6,0,L|393:304,1,204,2|2,2:1|2:1,0:0:0:0:
212,285,109883,2,0,L|323:257,1,102,2|2,1:0|2:0,0:0:0:0:
130,364,110151,2,0,L|101:194,1,153,2|2,2:1|2:1,0:0:0:0:
12,266,110418,2,0,B|14:330|14:330|21:302|46:278,1,102,2|2,1:2|2:1,0:0:0:0:
20,162,110686,5,2,2:1:0:0:
6,144,110820,1,2,2:1:0:0:
94,102,110954,5,2,1:2:0:0:
90,79,111088,1,2,2:1:0:0:
185,121,111222,6,0,P|238:102|297:95,1,102,2|2,2:1|2:1,0:0:0:0:
358,11,111490,2,0,P|377:64|384:123,1,102,2|2,1:2|2:1,0:0:0:0:
320,176,111758,5,2,2:1:0:0:
316,199,111892,1,2,2:1:0:0:
393,266,112026,5,2,1:2:0:0:
397,289,112159,1,2,2:1:0:0:
298,332,112293,6,0,B|259:340|259:340|180:308,1,102,2|2,2:1|2:1,0:0:0:0:
104,327,112561,2,0,L|130:218,1,102,2|2,1:2|2:1,0:0:0:0:
57,110,112829,6,0,L|233:76,1,153,2|0,2:1|0:0,0:0:0:0:
207,80,113097,1,2,1:2:0:0:
234,210,113231,2,0,L|443:253,1,204,2|2,2:1|2:1,0:0:0:0:
314,31,113633,2,0,L|332:141,1,102,2|2,1:2|2:0,0:0:0:0:
443,154,113901,5,2,2:1:0:0:
462,139,114034,2,0,L|478:38,1,102,2|2,2:1|1:2,0:0:0:0:
493,273,114302,2,0,P|406:316|324:264,1,204,2|2,2:1|2:1,0:0:0:0:
171,376,114704,2,0,P|222:339|278:344,1,102,2|0,1:2|0:0,0:0:0:0:
244,252,114972,5,2,2:1:0:0:
234,230,115106,1,2,2:1:0:0:
250,196,115240,1,2,1:2:0:0:
230,148,115374,1,2,2:1:0:0:
254,91,115508,1,2,2:1:0:0:
234,33,115642,1,2,2:1:0:0:
277,60,115776,1,2,1:0:0:0:
326,71,115909,1,2,2:1:0:0:
375,59,116043,1,2,2:0:0:0:
412,24,116177,1,2,2:0:0:0:
401,52,116311,1,2,1:2:0:0:
405,82,116445,1,2,2:1:0:0:
417,109,116579,1,4,1:3:0:0:
440,154,116713,1,2,2:0:0:0:
446,214,116847,1,0,1:0:0:0:
433,284,116981,1,4,2:3:0:0:
403,359,117115,6,0,P|351:340|297:334,2,102,6|2|0,1:0|2:0|1:0,0:0:0:0:
218,370,117517,2,0,P|215:286|191:147,1,204,2|2,2:1|2:1,0:0:0:0:
104,247,117918,2,0,P|87:295|80:345,1,102,2|0,1:2|0:0,0:0:0:0:
0,207,118186,6,0,P|59:212|109:233,1,102,2|2,2:1|2:0,0:0:0:0:
286,71,118454,1,0,1:0:0:0:
286,71,118588,2,0,P|219:100|103:20,1,204,2|2,2:1|2:1,0:0:0:0:
111,40,118990,2,0,P|125:73|127:149,1,102,2|0,1:2|0:0,0:0:0:0:
187,219,119258,5,2,2:1:0:0:
185,242,119392,1,2,2:1:0:0:
270,176,119526,5,2,1:2:0:0:
279,196,119659,1,2,2:1:0:0:
320,97,119793,5,0,2:0:0:0:
338,110,119927,1,2,2:1:0:0:
441,95,120061,2,0,P|421:140|415:209,1,102,2|2,1:0|2:0,0:0:0:0:
488,262,120329,5,2,2:1:0:0:
479,285,120463,1,2,2:1:0:0:
407,336,120597,2,0,P|376:321|291:306,1,102,2|2,1:0|2:1,0:0:0:0:
223,363,120865,5,0,2:0:0:0:
214,340,120999,1,2,2:1:0:0:
125,308,121133,2,0,P|140:277|155:192,1,102,2|2,1:0|2:0,0:0:0:0:
26,121,121401,6,0,P|137:112|188:24,1,204,2|0,2:1|1:0,0:0:0:0:
389,229,121802,2,0,P|327:151|228:150,1,204,2|2,2:1|2:1,0:0:0:0:
279,51,122204,2,0,P|344:37|393:41,1,102,2|0,1:2|0:0,0:0:0:0:
469,164,122472,6,0,B|506:105|481:41|481:41|473:99|437:126,1,204,2|2,2:1|1:0,0:0:0:0:
322,269,122874,2,0,B|399:236|399:236|449:270|449:270|513:252,1,204,2|2,2:1|2:1,0:0:0:0:
370,154,123276,2,0,L|270:136,1,102,2|0,1:2|0:0,0:0:0:0:
177,174,123543,6,0,L|187:245,3,51,2|2|0|0,2:1|2:1|2:0|2:0,2:0:0:0:
246,349,123811,2,0,L|238:298,3,51,0|0|2|0,1:0|2:0|2:0|2:0,0:0:0:0:
88,189,124079,6,0,L|98:260,3,51,2|2|2|0,2:1|2:1|2:0|2:0,2:0:0:0:
157,364,124347,2,0,L|149:313,3,51,0|0|0|0,1:0|2:0|2:0|2:0,0:0:0:0:
118,106,124615,5,2,2:1:0:0:
322,70,124749,1,8,1:0:0:0:
314,79,124883,5,2,2:0:0:0:
350,283,125017,1,8,1:0:0:0:
272,209,125151,5,2,1:0:0:0:
454,278,125284,1,8,1:0:0:0:
272,364,125418,1,8,1:0:0:0:
415,100,125686,5,2,2:3:0:0:
256,192,133186,12,12,133990,2:3:0:0:
132,103,134258,6,0,L|361:78,1,204,4|8,1:2|1:0,2:0:0:0:
359,295,134659,1,4,2:3:0:0:
359,295,134793,2,0,L|156:317,1,204,0|8,2:0|1:0,2:0:0:0:
83,183,135195,1,0,0:0:0:0:
212,32,135329,6,0,P|224:84|226:133,1,102,4|0,2:3|2:0,2:0:0:0:
156,317,135597,1,8,1:0:0:0:
156,317,135731,2,0,P|159:266|169:216,1,102,4|0,2:3|2:0,0:0:0:0:
318,141,135999,1,4,2:3:0:0:
139,104,136133,1,8,1:0:0:0:
267,221,136267,1,4,2:3:0:0:
408,125,136401,6,0,B|424:91|424:91|401:7,1,102,4|0,2:3|2:0,2:0:0:0:
266,220,136668,2,0,B|249:283|249:283|265:317,1,102,8|0,1:0|2:0,0:0:0:0:
459,246,136936,6,0,L|335:221,1,102,4|4,2:3|2:3,2:0:0:0:
216,122,137204,2,0,L|315:142,1,102,8|4,1:0|2:3,0:0:0:0:
122,237,137472,6,0,L|99:25,1,204,12|8,2:3|1:0,2:0:0:0:
99,34,137874,1,4,2:3:0:0:
30,186,138008,5,2,2:0:0:0:
216,122,138142,1,2,2:1:0:0:
122,237,138276,5,8,1:0:0:0:
12,83,138409,1,2,2:1:0:0:
26,290,138543,6,0,B|101:273|101:273|133:279|133:279|155:263|155:263|253:246,1,204,4|8,1:2|1:0,2:0:0:0:
282,175,138945,1,4,2:3:0:0:
282,175,139079,2,0,B|357:191|357:191|389:186|389:186|411:202|411:202|509:219,1,204,0|8,0:0|1:0,0:0:0:0:
400,98,139481,1,0,2:0:0:0:
371,273,139615,6,0,L|388:377,1,102,4|0,2:3|0:0,0:0:0:0:
464,311,139883,1,8,1:0:0:0:
298,348,140017,2,0,L|195:330,1,102,4|0,2:3|2:0,0:0:0:0:
46,373,140284,1,4,2:3:0:0:
91,185,140418,1,8,1:0:0:0:
197,330,140552,1,4,2:3:0:0:
228,194,140686,6,0,P|215:103|221:24,1,153,4|0,2:3|0:0,2:0:0:0:
218,42,140954,2,0,P|279:40|346:24,1,102,8|0,1:0|2:0,0:0:0:0:
407,101,141222,6,0,P|420:192|414:271,1,153,4|0,2:3|0:0,0:0:0:0:
417,253,141490,2,0,P|356:255|289:271,1,102,8|4,1:0|2:3,0:0:0:0:
197,330,141758,5,8,2:3:0:0:
322,161,141892,1,0,2:0:0:0:
344,356,142026,5,10,1:2:0:0:
228,194,142159,1,2,2:0:0:0:
197,330,142293,5,12,2:3:0:0:
315,262,142427,1,10,1:2:0:0:
183,344,142561,2,0,P|130:326|65:320,1,102,0|12,2:0|2:3,0:0:0:0:
9,187,142829,6,0,P|84:158|177:141,1,153,6|0,1:2|0:0,2:0:0:0:
167,126,143097,2,0,P|168:67|179:13,1,102,10|4,1:2|2:3,0:0:0:0:
367,51,143365,5,2,2:0:0:0:
274,87,143499,1,4,2:3:0:0:
440,178,143633,2,0,P|452:128|454:77,1,102,10|2,1:2|2:0,0:0:0:0:
315,307,143901,6,0,P|375:277|463:269,1,153,2|0,1:2|0:0,0:0:0:0:
460,270,144168,2,0,P|390:264|362:238,1,102,10|4,1:2|2:3,0:0:0:0:
311,182,144436,5,2,2:0:0:0:
410,360,144570,1,4,2:3:0:0:
243,353,144704,2,0,P|191:340|139:332,1,102,10|2,1:2|2:0,0:0:0:0:
72,252,144972,6,0,B|84:218|84:218|50:78,1,153,2|0,1:2|0:0,0:0:0:0:
169,18,145240,2,0,L|150:129,1,102,10|4,1:2|2:3,0:0:0:0:
232,158,145508,1,2,2:0:0:0:
56,104,145642,1,4,2:3:0:0:
169,267,145776,2,0,L|294:248,1,102,10|2,1:2|2:0,0:0:0:0:
448,86,146043,6,0,P|473:139|468:190,1,102,2|4,1:0|2:3,0:0:0:0:
353,106,146311,2,0,P|352:156|375:201,1,102,10|8,1:0|2:3,0:0:0:0:
512,303,146579,6,0,L|339:280,1,153,2|0,2:1|0:0,0:0:0:0:
288,351,146847,2,0,L|268:242,1,102,10|4,1:0|2:3,0:0:0:0:
91,196,147115,6,0,P|129:145|263:205,1,204,6|8,1:0|1:0,2:0:0:0:
250,173,147517,1,4,2:3:0:0:
132,296,147651,6,0,L|8:271,1,102,2|4,2:0|2:3,2:0:0:0:
15,143,147851,1,2,2:0:0:0:
23,120,147918,2,0,L|147:95,1,102,8|2,1:0|2:0,0:0:0:0:
202,35,148186,6,0,L|323:66,1,102,2|2,1:2|2:0,0:0:0:0:
364,157,148387,1,2,2:0:0:0:
362,134,148454,2,0,P|395:83|380:25,1,102,8|4,1:0|2:3,0:0:0:0:
477,158,148722,6,0,B|459:193|459:193|484:279,1,102,2|4,2:0|2:3,0:0:0:0:
431,325,148923,1,0,0:0:0:0:
419,345,148990,2,0,L|302:320,1,102,10|4,1:2|2:3,0:0:0:0:
203,373,149258,6,0,L|171:139,1,204,4|8,1:2|1:0,2:0:0:0:
248,27,149659,1,4,2:3:0:0:
248,27,149793,2,0,L|275:229,1,204,2|8,2:0|1:0,2:0:0:0:
175,170,150195,1,4,2:3:0:0:
365,217,150329,5,12,2:3:0:0:
188,271,150463,1,2,1:0:0:0:
196,284,150597,1,4,2:3:0:0:
161,75,150731,1,2,1:0:0:0:
161,75,150999,5,2,1:0:0:0:
330,39,151133,1,2,1:0:0:0:
420,94,151267,1,0,0:0:0:0:
373,187,151401,5,4,1:2:0:0:
444,326,151534,1,2,2:0:0:0:
444,326,151668,2,0,P|454:261|469:214,1,102,8|2,1:0|1:2,0:0:0:0:
254,262,151936,2,0,P|319:272|366:287,1,102,0|2,2:0|1:2,0:0:0:0:
177,365,152204,2,0,L|160:256,1,102,10|0,1:2|2:0,0:0:0:0:
84,161,152472,6,0,L|68:261,2,102,2|2|8,1:2|2:0|1:0,0:0:0:0:
189,183,152874,2,0,L|311:152,1,102,2|0,1:2|2:0,2:0:0:0:
48,74,153142,2,0,L|251:23,1,204,2|0,1:2|2:0,0:0:0:0:
392,24,153543,5,2,1:2:0:0:
392,24,153677,2,0,P|368:76|373:127,1,102,2|8,2:0|1:0,2:0:0:0:
493,188,153945,2,0,P|494:137|471:92,1,102,2|0,1:2|2:0,2:0:0:0:
338,240,154213,2,0,P|391:297|516:280,1,204,2|0,1:2|2:0,0:0:0:0:
280,328,154615,5,2,1:2:0:0:
280,328,154749,2,0,P|240:304|170:308,1,102,2|8,2:0|1:0,0:0:0:0:
86,367,155017,2,0,P|84:273|55:157,1,204,2|2,1:2|1:2,2:0:0:0:
20,53,155351,1,0,0:0:0:0:
20,53,155418,2,0,P|76:71|131:70,1,102,10|0,1:2|1:0,0:0:0:0:
209,147,155686,5,0,1:0:0:0:
317,22,155820,1,2,2:0:0:0:
317,22,155954,2,0,B|305:135|305:132,1,102,8|2,1:0|1:2,0:0:0:0:
292,238,156222,2,0,P|350:219|407:221,1,102,0|2,2:0|1:2,0:0:0:0:
498,133,156490,2,0,P|447:130|399:113,1,102,10|0,1:2|2:0,0:0:0:0:
478,266,156758,6,0,B|488:321|488:321|460:372,2,102,2|2|8,1:2|2:0|1:0,0:0:0:0:
327,326,157159,2,0,P|271:333|216:297,1,102,2|0,1:2|2:0,2:0:0:0:
79,175,157427,2,0,P|141:245|118:374,1,204,2|0,1:2|2:0,0:0:0:0:
191,151,157829,5,2,1:2:0:0:
191,151,157963,2,0,L|315:128,1,102,2|8,2:0|1:0,2:0:0:0:
362,23,158231,1,2,1:2:0:0:
362,23,158365,2,0,P|378:78|386:153,2,102,2|2|8,2:0|1:2|1:0,0:0:0:0:
339,198,158767,1,2,2:0:0:0:
488,143,158901,5,0,1:0:0:0:
477,306,159034,2,0,B|444:281|444:281|362:300,1,102,2|8,2:0|1:0,0:0:0:0:
292,332,159302,2,0,B|259:357|259:357|177:338,1,102,2|0,1:2|2:0,0:0:0:0:
105,363,159570,2,0,P|98:304|74:244,2,102,2|10|2,1:2|1:2|1:2,0:0:0:0:
44,158,159972,5,4,1:2:0:0:
181,245,160106,1,2,2:0:0:0:
245,152,160240,2,0,P|249:96|270:45,1,102,8|2,1:0|1:2,0:0:0:0:
358,14,160508,1,0,2:0:0:0:
358,14,160642,1,2,1:2:0:0:
437,145,160776,2,0,L|327:119,1,102,10|0,1:2|2:0,0:0:0:0:
293,235,161043,6,0,B|322:219|322:219|415:239,2,102,2|2|8,1:2|2:0|1:0,0:0:0:0:
481,250,161445,2,0,P|482:300|467:349,1,102,2|0,1:2|2:0,2:0:0:0:
356,345,161713,2,0,L|142:300,1,204,2|0,1:2|2:0,0:0:0:0:
56,240,162115,6,0,L|76:356,2,102,2|2|8,1:2|2:0|1:0,0:0:0:0:
0,163,162517,2,0,B|40:140|40:140|115:162,1,102,2|0,1:2|2:0,2:0:0:0:
197,240,162784,2,0,P|195:184|245:20,1,204,2|0,1:2|2:0,0:0:0:0:
395,151,163186,6,0,L|282:132,1,102,2|2,1:2|2:0,0:0:0:0:
355,255,163454,1,8,1:0:0:0:
355,255,163588,2,0,L|480:236,1,102,2|0,1:2|2:0,2:0:0:0:
378,347,163856,1,2,1:2:0:0:
378,347,163923,1,0,0:0:0:0:
378,347,163990,2,0,B|339:356|339:356|260:321,1,102,10|0,1:2|1:0,0:0:0:0:
189,354,164258,5,0,1:0:0:0:
189,354,164392,1,2,2:0:0:0:
84,319,164526,2,0,L|99:210,1,102,8|2,1:0|1:2,0:0:0:0:
40,146,164793,2,0,B|90:124|90:124|158:139,1,102,0|2,2:0|1:2,0:0:0:0:
245,44,165061,2,0,B|198:54|198:54|148:32,1,102,10|0,1:2|2:0,0:0:0:0:
255,140,165329,5,2,1:2:0:0:
255,140,165463,2,0,L|225:247,1,102,2|8,2:0|1:0,2:0:0:0:
441,227,165731,2,0,L|334:197,1,102,2|0,1:2|2:0,2:0:0:0:
272,341,165999,2,0,L|499:308,1,204,2|0,1:2|2:0,0:0:0:0:
452,125,166401,6,0,L|438:244,2,102,2|2|8,1:2|2:0|1:0,0:0:0:0:
362,162,166802,1,2,1:2:0:0:
440,226,166936,1,2,2:0:0:0:
467,36,167070,2,0,L|358:16,2,102,2|8|2,1:2|1:0|2:0,0:0:0:0:
252,33,167472,6,0,L|275:256,1,204,4|8,1:2|1:0,2:0:0:0:
75,260,167874,2,0,L|54:57,1,204,2|2,1:2|1:2,0:0:0:0:
272,235,168276,2,0,L|161:251,1,102,8|2,1:0|2:0,0:0:0:0:
75,260,168543,5,0,1:0:0:0:
54,57,168677,1,2,1:0:0:0:
63,56,168811,1,0,2:0:0:0:
84,259,168945,1,2,1:0:0:0:
84,259,169213,5,2,1:0:0:0:
156,112,169347,1,2,1:0:0:0:
220,339,169481,1,0,2:0:0:0:
30,370,169615,5,12,2:0:0:0:
