osu file format v14

[General]
AudioFilename: audio.mp3
AudioLeadIn: 0
PreviewTime: 108275
Countdown: 0
SampleSet: Soft
StackLeniency: 0.7
Mode: 0
LetterboxInBreaks: 0
WidescreenStoryboard: 1

[Editor]
Bookmarks: 51154,104726,147583
DistanceSpacing: 1.3
BeatDivisor: 4
GridSize: 32
TimelineZoom: 2.699999

[Metadata]
Title:In the Black
TitleUnicode:イン・ザ・ブラック
Artist:BUTAOTOME
ArtistUnicode:豚乙女
Creator:Luscent
Version:Insane
Source:東方憑依華 ~ Antinomy of Common Flowers.
Tags:東方project Touhou Project ZUN AoCF Hyouibana th15.5 U2 Uni Akiyama あきやまうに Twilight Frontier Team Shanghai Alice 二ッ岩 マミゾウ Futatsuiwa Mamizou 深緑の狸森にて Shinryoku no Tanuki Mori nite in the deep-green tanuki forest dailycare lude delis mirash ランコ ranko buta otome japanese rock pop video game
BeatmapID:4240721
BeatmapSetID:1833640

[Difficulty]
HPDrainRate:5
CircleSize:4
OverallDifficulty:8
ApproachRate:9.2
SliderMultiplier:1.6
SliderTickRate:1

[Events]
//Background and Video events
0,0,"2.jpg",0,0
//Break Periods
2,55173,62974
2,125888,133688
//Storyboard Layer 0 (Background)
//Storyboard Layer 1 (Fail)
//Storyboard Layer 2 (Pass)
//Storyboard Layer 3 (Foreground)
//Storyboard Layer 4 (Overlay)
//Storyboard Sound Samples

[TimingPoints]
331,267.857142857143,4,2,1,78,1,0
9973,267.857142857143,4,2,1,72,1,0
9973,-111.111111111111,4,2,1,72,0,0
27115,-200,4,2,1,58,0,0
28322,-200,4,2,1,62,0,0
29393,-200,4,2,1,66,0,0
30464,-200,4,2,1,70,0,0
34749,-111.111111111111,4,2,1,70,0,0
37830,267.857142857143,4,2,1,80,1,0
54972,-100,4,2,1,78,0,0
63544,-125,4,2,1,68,0,0
80687,-166.666666666667,4,2,1,58,0,0
81893,-166.666666666667,4,2,1,62,0,0
82964,-166.666666666667,4,2,1,66,0,0
84036,-166.666666666667,4,2,1,70,0,0
88187,-111.111111111111,4,2,1,70,0,0
91401,267.857142857143,4,2,1,80,1,0
108543,-100,4,2,1,78,0,0
108945,-111.111111111111,4,2,1,78,0,0
125686,-111.111111111111,4,2,1,50,0,0
134258,-100,4,2,1,80,0,0
151401,-100,4,2,1,78,0,0

[Colours]
Combo1 : 99,66,54
Combo2 : 201,141,52
Combo3 : 156,73,115
Combo4 : 124,156,58

[HitObjects]
228,264,331,5,4,1:0:0:0:
360,156,464,2,0,P|302:161|263:156,1,80,2|8,2:0|1:0,0:0:0:0:
156,172,732,1,2,1:2:0:0:
58,44,866,2,0,P|51:90|64:143,1,80,0|2,2:0|1:2,0:0:0:0:
147,212,1134,1,10,1:2:0:0:
147,212,1268,1,0,2:0:0:0:
0,289,1402,6,0,P|61:278|119:286,1,80,2|2,1:2|2:0,0:0:0:0:
157,340,1670,1,8,1:0:0:0:
337,187,1804,2,0,P|250:217|232:301,1,160,2|2,1:2|1:2,2:0:0:0:
419,354,2206,2,0,P|428:312|423:270,1,80,8|0,1:0|2:0,2:0:0:0:
478,103,2473,6,0,P|468:144|473:186,1,80,2|2,1:2|2:0,0:0:0:0:
461,281,2741,1,8,1:0:0:0:
225,210,2875,2,0,B|309:189|302:236|395:207,1,160,2|2,1:2|1:2,2:0:0:0:
368,84,3277,2,0,P|336:109|279:111,1,80,10|0,1:2|2:0,2:0:0:0:
209,40,3545,5,2,1:2:0:0:
85,87,3679,2,0,P|130:125|144:166,1,80,2|8,2:0|1:0,0:0:0:0:
247,204,3947,2,0,P|165:247|135:315,1,160,2|2,1:2|1:2,2:0:0:0:
225,360,4348,1,10,1:2:0:0:
225,360,4482,1,0,1:0:0:0:
39,324,4616,6,0,P|47:276|36:221,1,80,0|2,1:0|2:0,0:0:0:0:
147,147,4884,2,0,P|139:195|150:250,1,80,8|2,1:0|1:2,0:0:0:0:
21,102,5152,1,0,2:0:0:0:
21,102,5286,1,2,1:2:0:0:
133,25,5420,2,0,P|171:36|211:37,1,80,10|0,1:2|2:0,0:0:0:0:
281,106,5688,5,2,1:2:0:0:
438,78,5822,2,0,P|367:119|356:206,2,160,2|2|2,2:0|1:2|1:2,2:0:0:0:
400,270,6491,2,0,P|347:275|296:264,1,80,8|0,1:0|2:0,2:0:0:0:
250,329,6759,5,2,1:2:0:0:
112,175,6893,2,0,P|198:184|242:265,1,160,2|2,2:0|1:2,2:0:0:0:
327,161,7295,1,2,2:0:0:0:
279,66,7429,2,0,P|236:75|182:67,2,80,2|8|2,1:2|1:0|2:0,2:0:0:0:
439,51,7831,6,0,B|417:127|417:127|445:214,1,160,0|10,1:0|1:2,2:0:0:0:
337,343,8232,2,0,B|359:267|359:267|331:180,1,160,2|2,1:2|1:2,0:0:0:0:
166,228,8634,2,0,L|273:246,1,80,10|0,1:2|2:0,0:0:0:0:
325,113,8902,5,0,1:0:0:0:
233,134,9036,1,8,1:0:0:0:
171,63,9170,1,0,2:0:0:0:
95,102,9304,1,8,1:0:0:0:
170,305,9572,5,8,1:0:0:0:
75,280,9706,1,8,1:0:0:0:
415,274,9973,6,0,P|461:193|435:137,1,143.999995605469,4|10,1:0|2:0,2:0:0:0:
446,150,10374,1,2,2:0:0:0:
263,175,10508,2,0,P|222:129|224:39,1,144,0|10,2:0|2:0,2:0:0:0:
219,49,10910,1,2,2:0:0:0:
107,209,11044,6,0,P|59:213|18:207,1,72.0000000000001,0|0,2:0|0:0,2:0:0:0:
40,305,11312,1,10,2:0:0:0:
127,362,11446,1,0,0:0:0:0:
208,305,11580,2,0,P|214:251|207:205,1,72.0000000000001,0|2,2:0|2:0,0:0:0:0:
310,155,11848,2,0,P|304:209|311:255,1,72.0000000000001,10|0,2:0|2:0,2:0:0:0:
276,74,12115,6,0,P|329:120|404:120,1,144,0|10,2:0|2:0,2:0:0:0:
469,201,12517,2,0,P|462:249|469:295,1,72.0000000000001,2|0,2:0|2:0,0:0:0:0:
405,359,12785,1,0,2:0:0:0:
247,304,12919,2,0,P|291:310|346:299,1,72.0000000000001,10|0,2:0|2:0,2:0:0:0:
280,202,13187,6,0,P|303:180|311:163,2,36,4|0|0,2:3|0:0|0:0,0:0:0:0:
171,238,13455,1,8,2:0:0:0:
33,191,13589,2,0,P|80:255|77:346,1,144,4|4,2:3|2:3,0:0:0:0:
107,92,13990,5,8,2:0:0:0:
107,92,14124,1,0,2:0:0:0:
107,92,14258,2,0,P|185:132|262:109,1,144,2|10,2:0|2:0,2:0:0:0:
237,123,14660,1,2,2:0:0:0:
433,31,14794,2,0,P|371:96|380:176,1,144,0|10,2:0|2:0,2:0:0:0:
368,146,15196,1,2,2:0:0:0:
185,249,15330,6,0,P|243:240|289:246,1,72.0000000000001,0|0,2:0|2:0,2:0:0:0:
342,283,15598,1,10,2:0:0:0:
428,232,15731,1,0,2:0:0:0:
287,85,15865,2,0,P|283:120|285:156,1,72.0000000000001,2|0,2:0|2:0,0:0:0:0:
185,127,16133,2,0,P|142:136|96:129,1,72.0000000000001,10|0,2:0|2:0,2:0:0:0:
14,104,16401,6,0,P|85:162|93:243,1,144,2|10,2:0|2:0,2:0:0:0:
51,288,16803,1,2,2:0:0:0:
187,369,16937,2,0,P|183:319|193:268,1,72.0000000000001,0|0,2:0|2:0,0:0:0:0:
317,242,17205,2,0,P|321:292|311:343,1,72.0000000000001,10|0,2:0|2:0,0:0:0:0:
433,315,17473,6,0,P|458:327|479:332,2,36,2|2|0,2:0|2:0|2:0,0:0:0:0:
487,233,17740,1,8,2:0:0:0:
417,150,17874,2,0,B|347:170|347:170|276:148,1,144,2|2,2:0|2:0,0:0:0:0:
177,116,18276,5,10,2:0:0:0:
175,209,18410,1,2,2:0:0:0:
267,300,18544,2,0,P|273:265|270:229,1,72.0000000000001,2|0,2:0|0:0,2:0:0:0:
176,355,18812,5,10,2:0:0:0:
176,355,18946,1,2,2:0:0:0:
16,292,19080,2,0,P|74:298|115:288,1,72.0000000000001,0|0,2:0|0:0,2:0:0:0:
140,220,19348,1,10,2:0:0:0:
64,157,19481,1,2,2:0:0:0:
192,107,19615,6,0,P|254:146|356:137,1,144,0|10,2:0|2:0,2:0:0:0:
394,220,20017,1,0,0:0:0:0:
490,84,20151,2,0,P|478:122|481:177,1,72.0000000000001,0|2,2:0|2:0,0:0:0:0:
477,290,20419,1,10,2:0:0:0:
477,290,20553,1,0,2:0:0:0:
288,262,20687,6,0,P|348:248|408:249,1,72.0000000000001,0|0,2:0|0:0,2:0:0:0:
101,296,20955,2,0,P|89:250|91:193,1,72.0000000000001,10|2,2:0|2:0,0:0:0:0:
217,90,21223,2,0,P|229:136|227:193,1,72.0000000000001,0|0,2:0|2:0,0:0:0:0:
184,246,21490,1,10,2:0:0:0:
35,140,21758,6,0,P|13:143|-9:140,2,36,4|0|0,2:3|0:0|0:0,0:0:0:0:
139,104,22026,1,8,2:0:0:0:
203,14,22160,2,0,P|292:55|297:122,1,144,4|4,2:3|2:3,0:0:0:0:
402,93,22562,6,0,P|398:128|399:164,1,72.0000000000001,8|0,2:0|2:0,0:0:0:0:
282,313,22830,2,0,P|312:247|306:162,1,144,2|10,2:0|2:0,2:0:0:0:
433,248,23231,1,2,2:0:0:0:
230,191,23365,2,0,P|169:213|74:201,1,144,0|10,2:0|2:0,2:0:0:0:
31,137,23767,1,2,2:0:0:0:
31,137,23901,1,0,2:0:0:0:
148,336,24169,1,10,2:0:0:0:
354,269,24437,2,0,P|352:216|358:160,2,72.0000000000001,0|0|10,2:0|2:0|2:0,0:0:0:0:
270,53,24973,6,0,P|249:132|174:154,1,144,2|10,2:0|2:0,2:0:0:0:
254,233,25374,1,0,2:0:0:0:
33,170,25508,2,0,P|112:201|129:276,2,144,2|10|2,2:0|2:0|2:0,0:0:0:0:
48,303,26178,1,2,2:1:0:0:
48,303,26245,1,2,2:0:0:0:
48,303,26312,1,8,2:0:0:0:
152,356,26446,2,0,B|237:343|218:375|303:362,1,144,2|2,2:1|2:0,0:0:0:0:
380,306,26848,2,0,P|376:257|386:203,1,72.0000000000001,10|2,2:1|2:1,0:0:0:0:
294,178,27115,6,0,P|254:183|207:180,2,80,6|2|0,1:0|2:0|3:0,0:0:0:0:
294,178,27785,1,2,2:0:0:0:
329,35,27919,1,0,3:0:0:0:
199,92,28053,1,2,2:0:0:0:
404,222,28187,6,0,P|409:174|405:119,2,80,0|0|0,3:0|3:0|3:0,0:0:0:0:
404,222,28856,1,0,3:0:0:0:
362,335,28990,1,2,3:2:0:0:
262,277,29124,1,2,3:2:0:0:
156,294,29258,6,0,P|219:300|261:316,2,80,2|0|0,1:2|3:0|3:0,0:0:0:0:
156,294,29928,1,2,2:0:0:0:
87,358,30062,1,0,3:0:0:0:
7,259,30196,1,2,2:0:0:0:
86,161,30330,6,0,P|96:211|93:268,2,80,0|0|0,3:0|3:0|3:0,0:0:0:0:
17,101,30999,1,0,3:0:0:0:
117,82,31133,1,2,3:2:0:0:
213,66,31267,1,2,3:2:0:0:
310,97,31401,6,0,P|311:71|313:61,2,20,2|0|0,1:2|0:0|3:0,0:0:0:0:
376,207,31669,2,0,P|402:208|412:210,2,20,2|0|0,1:2|0:0|3:0,0:0:0:0:
266,273,31937,2,0,P|265:299|263:309,2,20,2|0|0,1:2|0:0|3:0,0:0:0:0:
200,163,32205,2,0,P|174:162|164:160,2,20,2|0|0,1:2|0:0|3:0,0:0:0:0:
319,95,32473,6,0,P|322:67|325:57,2,20,2|0|0,1:2|0:0|3:0,0:0:0:0:
377,216,32740,2,0,P|405:219|415:222,2,20,2|0|0,1:2|0:0|3:0,0:0:0:0:
256,274,33008,2,0,P|253:302|250:312,2,20,2|0|0,1:2|0:0|3:0,0:0:0:0:
198,153,33276,2,0,P|170:150|160:147,2,20,2|0|0,1:2|0:0|3:0,0:0:0:0:
328,93,33544,6,0,P|334:68|337:59,2,20,2|0|0,1:2|0:0|1:0,0:0:0:0:
379,225,33812,2,0,P|402:230|411:234,2,20,2|0|0,1:2|0:0|1:0,0:0:0:0:
247,276,34080,2,0,P|242:298|239:307,2,20,2|0|0,1:2|0:0|1:0,0:0:0:0:
196,144,34348,2,0,P|173:139|164:135,2,20,2|0|0,1:2|0:0|1:0,0:0:0:0:
298,207,34615,5,2,1:2:0:0:
127,285,34749,2,0,P|117:243|121:187,1,72.0000000000001,0|2,1:0|1:2,0:0:0:0:
11,87,35017,2,0,P|71:125|77:209,1,144,2|2,1:2|1:2,0:0:0:0:
46,302,35419,1,2,1:2:0:0:
46,302,35486,1,0,1:0:0:0:
46,302,35553,2,0,P|16:308|-5:309,2,36,0|0|2,1:0|1:0|2:1,0:0:0:0:
256,192,37428,5,12,2:3:0:0:
256,192,37562,1,2,1:3:0:0:
256,192,37830,6,0,P|293:205|333:209,1,80,4|0,1:2|0:0,2:0:0:0:
495,139,38097,2,0,P|437:202|442:299,1,160,8|0,1:0|2:0,0:0:0:0:
380,356,38499,1,4,2:3:0:0:
217,319,38633,2,0,P|267:309|320:315,1,80,8|0,1:0|0:0,2:0:0:0:
120,358,38901,6,0,P|63:302|75:199,1,160,4|8,2:3|1:0,2:0:0:0:
188,148,39303,2,0,P|193:187|187:227,1,80,4|0,2:3|2:0,0:0:0:0:
93,108,39571,1,4,2:3:0:0:
175,44,39705,2,0,L|268:65,1,80,8|4,1:0|2:3,0:0:0:0:
315,228,39972,6,0,L|288:142,1,80,4|0,2:3|2:0,2:0:0:0:
362,92,40240,1,8,1:0:0:0:
362,92,40374,1,0,2:0:0:0:
137,214,40508,2,0,L|221:195,1,80,4|4,2:3|2:3,2:0:0:0:
30,183,40776,2,0,P|52:232|58:273,1,80,8|4,1:0|2:3,0:0:0:0:
75,357,41044,6,0,P|142:310|231:315,1,160,12|8,2:3|1:0,2:0:0:0:
308,353,41446,1,4,2:3:0:0:
297,181,41580,2,0,P|292:220|299:259,1,80,2|2,2:0|2:1,0:0:0:0:
397,230,41847,1,8,1:0:0:0:
457,144,41981,1,2,2:1:0:0:
381,72,42115,6,0,P|339:79|275:73,1,80,4|0,1:2|0:0,2:0:0:0:
218,13,42383,2,0,P|137:48|131:122,1,160,8|0,1:0|0:0,0:0:0:0:
197,169,42785,1,4,2:3:0:0:
51,252,42919,2,0,P|110:239|160:244,1,80,8|0,1:0|2:0,2:0:0:0:
282,238,43187,6,0,P|214:283|209:367,1,160,4|8,2:3|1:0,0:0:0:0:
335,305,43588,2,0,P|376:310|414:304,1,80,4|0,2:3|2:0,0:0:0:0:
512,350,43856,1,4,2:3:0:0:
486,175,43990,2,0,P|481:221|490:271,1,80,8|4,1:0|2:3,0:0:0:0:
283,208,44258,6,0,L|379:199,1,80,4|0,2:3|0:0,2:0:0:0:
446,48,44526,2,0,L|408:128,1,80,8|0,1:0|2:0,0:0:0:0:
262,228,44794,6,0,L|358:219,1,80,4|4,2:3|2:3,2:0:0:0:
462,71,45062,2,0,L|424:151,1,80,8|4,1:0|2:3,2:0:0:0:
280,76,45330,6,0,P|273:50|270:20,2,40,12|0|2,2:3|0:0|2:1,0:0:0:0:
188,110,45597,1,8,1:0:0:0:
85,81,45731,2,0,P|70:158|85:248,1,160,4|4,2:3|2:3,0:0:0:0:
154,304,46133,1,10,1:0:0:0:
154,304,46401,6,0,P|214:319|246:321,1,80,6|0,1:2|2:0,2:0:0:0:
313,363,46669,1,10,1:2:0:0:
388,276,46803,1,4,2:3:0:0:
315,186,46937,1,2,2:0:0:0:
315,186,47205,5,10,1:2:0:0:
201,232,47338,1,2,2:0:0:0:
97,181,47472,1,2,1:2:0:0:
97,181,47740,5,10,1:2:0:0:
187,100,47874,1,4,2:3:0:0:
117,14,48008,1,2,2:0:0:0:
117,14,48276,5,10,1:2:0:0:
222,56,48410,1,2,2:0:0:0:
328,98,48544,1,2,1:2:0:0:
328,98,48812,5,10,1:2:0:0:
359,226,48946,1,4,2:3:0:0:
426,161,49080,1,2,2:0:0:0:
426,161,49347,5,2,1:2:0:0:
429,291,49481,1,4,2:3:0:0:
320,242,49615,2,0,P|266:252|222:254,1,80,2|4,1:0|2:3,0:0:0:0:
152,287,49883,2,0,P|85:243|91:142,1,160,10|2,1:0|2:1,0:0:0:0:
139,96,50285,1,8,2:3:0:0:
290,60,50419,2,0,P|265:142|185:156,2,160,10|6|8,1:0|1:0|1:0,0:0:0:0:
362,302,51222,6,0,P|308:311|230:301,2,106.666666666667,2|2|2,2:0|2:0|2:0,2:0:0:0:
468,352,51758,2,0,P|461:293|466:249,1,80,2|2,1:2|2:0,0:0:0:0:
361,217,52026,1,8,1:0:0:0:
434,131,52160,2,0,P|493:145|534:146,1,80,4|2,2:3|2:0,0:0:0:0:
295,141,52428,1,4,2:3:0:0:
295,141,52562,2,0,P|281:85|282:38,1,80,10|4,1:2|2:3,0:0:0:0:
135,136,52830,6,0,P|206:183|207:273,1,160,6|8,1:2|1:0,2:0:0:0:
286,321,53231,1,4,2:3:0:0:
437,264,53365,2,0,P|387:269|337:259,1,80,2|4,2:0|2:3,2:0:0:0:
297,165,53633,1,8,1:0:0:0:
297,165,53901,5,12,2:3:0:0:
241,79,54035,1,2,1:0:0:0:
152,135,54169,1,4,2:3:0:0:
85,66,54303,1,2,1:0:0:0:
76,301,54571,5,2,1:0:0:0:
171,270,54705,1,2,1:0:0:0:
380,326,54972,5,4,1:0:0:0:
165,124,63544,6,0,P|149:185|160:247,1,128,4|0,2:0|0:0,2:0:0:0:
160,247,63946,1,8,2:3:0:0:
275,206,64080,2,0,P|317:210|363:202,1,64,0|8,0:0|2:3,0:0:0:0:
431,252,64347,1,0,1:0:0:0:
431,252,64481,1,0,2:0:0:0:
502,90,64615,6,0,P|429:120|415:185,1,128,4|0,2:3|1:3,0:0:0:0:
341,98,65017,1,8,2:3:0:0:
245,29,65151,2,0,P|248:60|247:92,1,64,0|8,2:0|2:3,0:0:0:0:
131,198,65419,1,0,1:0:0:0:
131,198,65687,6,0,B|203:185|182:215|260:202,1,128,4|0,2:3|1:0,0:0:0:0:
360,153,66088,2,0,P|413:208|404:282,1,128,8|8,2:3|2:3,0:0:0:0:
376,341,66490,1,0,1:0:0:0:
165,316,66758,5,4,2:3:0:0:
140,236,66892,1,0,0:0:0:0:
202,180,67026,1,0,1:0:0:0:
229,258,67160,1,8,2:3:0:0:
26,314,67428,1,4,2:3:0:0:
26,314,67562,1,0,1:0:0:0:
1,145,67830,6,0,P|77:160|145:150,1,128,6|0,2:3|1:0,2:0:0:0:
208,188,68231,1,8,2:3:0:0:
346,121,68365,2,0,P|296:180|319:276,1,128,0|0,0:0|1:0,0:0:0:0:
264,299,68767,1,0,2:0:0:0:
138,352,68901,6,0,P|169:347|201:349,1,64,4|0,2:3|0:0,0:0:0:0:
380,221,69169,2,0,P|374:255|380:302,1,64,0|8,1:0|2:3,0:0:0:0:
302,146,69437,2,0,P|270:151|238:149,1,64,0|8,0:0|2:3,0:0:0:0:
73,200,69705,2,0,P|79:166|73:119,1,64,0|0,1:0|0:0,0:0:0:0:
87,34,69972,6,0,P|150:61|153:146,1,128,4|0,2:3|1:0,0:0:0:0:
216,225,70374,2,0,P|276:180|278:101,1,128,8|0,2:3|2:3,0:0:0:0:
373,81,70776,2,0,P|420:83|460:76,1,64,0|0,1:0|0:0,0:0:0:0:
478,178,71044,5,4,2:3:0:0:
365,189,71178,2,0,P|359:262|369:340,1,128,2|10,2:3|2:3,0:0:0:0:
278,313,71580,1,4,2:3:0:0:
411,384,71713,1,4,2:3:0:0:
278,313,71847,2,0,P|231:323|178:323,1,64,2|4,1:3|2:3,0:0:0:0:
36,302,72115,6,0,P|97:313|132:365,1,128,6|0,2:3|1:0,2:0:0:0:
179,254,72517,1,8,2:3:0:0:
97,208,72651,2,0,P|65:148|83:65,1,128,0|0,0:0|1:0,0:0:0:0:
165,134,73053,1,0,2:0:0:0:
310,84,73187,6,0,P|278:89|246:87,1,64,4|0,2:3|2:0,0:0:0:0:
425,33,73455,2,0,P|395:98|408:186,1,128,0|0,1:0|0:0,0:0:0:0:
317,185,73856,1,0,2:3:0:0:
453,270,73990,1,0,1:0:0:0:
453,270,74258,6,0,P|379:277|321:324,1,128,4|0,2:3|1:0,0:0:0:0:
249,362,74660,2,0,P|239:317|244:267,1,64,8|0,2:3|2:0,0:0:0:0:
191,236,74928,1,8,2:3:0:0:
66,186,75062,2,0,P|115:191|157:184,1,64,0|0,1:0|0:0,0:0:0:0:
279,94,75330,6,0,P|311:97|344:91,2,64,4|0|0,2:3|0:0|1:0,0:0:0:0:
117,36,75731,2,0,P|173:67|181:147,1,128,8|4,2:3|2:3,0:0:0:0:
265,187,76133,1,0,1:0:0:0:
461,136,76401,1,6,2:3:0:0:
435,333,76669,6,0,L|364:322,1,64,0|8,1:0|2:3,0:0:0:0:
294,362,76937,1,0,0:0:0:0:
75,282,77205,2,0,L|62:209,1,64,0|0,1:0|2:0,0:0:0:0:
123,157,77472,1,6,2:3:0:0:
313,235,77740,2,0,L|223:251,1,64,0|8,1:0|2:3,0:0:0:0:
386,179,78008,2,0,L|473:195,1,64,0|8,2:0|2:3,0:0:0:0:
255,146,78276,1,0,1:0:0:0:
255,146,78544,6,0,P|232:85|244:11,2,128,6|0|2,2:3|1:0|2:3,2:0:0:0:
197,257,79213,1,0,2:0:0:0:
304,346,79347,2,0,P|321:270|293:208,1,128,0|6,1:0|2:3,0:0:0:0:
407,115,79749,2,0,P|384:156|386:204,1,64,4|0,2:3|1:0,0:0:0:0:
472,226,80017,2,0,P|439:243|413:285,1,64,8|2,2:3|2:3,0:0:0:0:
466,348,80285,1,4,2:3:0:0:
466,348,80419,1,0,1:0:0:0:
202,286,80687,6,0,P|149:292|84:282,2,96,4|0|2,1:0|3:0|2:0,0:0:0:0:
277,330,81356,1,2,2:0:0:0:
325,246,81490,1,0,3:0:0:0:
411,285,81624,1,2,2:0:0:0:
480,217,81758,6,0,P|474:157|480:98,2,95.9999999999998,0|0|0,3:0|3:0|3:0,0:0:0:0:
388,180,82428,1,0,3:0:0:0:
304,206,82562,1,2,3:2:0:0:
220,177,82696,1,2,3:2:0:0:
145,126,82830,6,0,P|95:140|28:135,2,95.9999999999998,2|0|0,1:2|3:0|3:0,0:0:0:0:
218,66,83499,1,2,2:0:0:0:
223,157,83633,1,0,3:0:0:0:
287,223,83767,1,2,2:0:0:0:
373,184,83901,6,0,P|425:189|499:177,2,95.9999999999998,0|0|0,3:0|3:0|3:0,0:0:0:0:
294,248,84571,1,0,3:0:0:0:
203,309,84705,1,2,3:2:0:0:
203,309,84972,6,0,P|202:335|200:345,2,24,2|0|0,1:2|0:0|3:0,0:0:0:0:
137,199,85240,2,0,P|111:198|101:196,2,24,2|0|0,1:2|0:0|3:0,0:0:0:0:
247,133,85508,2,0,P|248:107|250:97,2,24,2|0|0,1:2|0:0|3:0,0:0:0:0:
313,243,85776,2,0,P|339:244|349:246,2,24,2|0|0,1:2|0:0|3:0,0:0:0:0:
194,311,86044,6,0,P|191:339|188:349,2,24,2|0|0,1:2|0:0|3:0,0:0:0:0:
136,190,86312,2,0,P|108:187|98:184,2,24,2|0|0,1:2|0:0|3:0,0:0:0:0:
257,132,86580,2,0,P|260:104|263:94,2,24,2|0|0,1:2|0:0|3:0,0:0:0:0:
315,253,86847,2,0,P|343:256|353:259,2,24,2|0|0,1:2|0:0|3:0,0:0:0:0:
185,313,87115,6,0,P|179:338|176:347,2,24,2|0|0,1:2|0:0|1:0,0:0:0:0:
134,181,87383,2,0,P|111:176|102:172,2,24,2|0|0,1:2|0:0|1:0,0:0:0:0:
266,130,87651,2,0,P|271:108|274:99,2,24,2|0|0,1:2|0:0|1:0,0:0:0:0:
317,262,87919,2,0,P|340:267|349:271,2,24,2|0|0,1:2|0:0|1:0,0:0:0:0:
215,199,88187,5,2,1:2:0:0:
356,104,88321,2,0,P|348:153|357:199,1,71.9999999999999,0|0,1:0|0:0,0:0:0:0:
453,334,88588,2,0,P|476:257|461:168,1,144,2|2,1:2|1:2,0:0:0:0:
341,272,88990,1,2,1:2:0:0:
341,272,89057,1,0,1:0:0:0:
341,272,89124,2,0,P|313:276|286:275,2,36,0|0|2,1:0|1:0|2:1,0:0:0:0:
256,192,90999,5,12,2:3:0:0:
256,192,91133,1,2,1:3:0:0:
256,192,91401,6,0,P|176:215|92:194,1,160,4|8,1:2|1:0,2:0:0:0:
30,148,91802,1,4,2:3:0:0:
0,303,91936,2,0,P|37:288|76:282,1,80,0|4,2:0|2:3,2:0:0:0:
172,236,92204,2,0,P|251:282|247:362,2,160,8|4|8,1:0|2:3|1:0,2:0:0:0:
271,236,92874,2,0,P|319:178|299:88,1,160,4|4,2:3|2:3,0:0:0:0:
240,35,93276,1,8,1:0:0:0:
240,35,93409,1,4,2:3:0:0:
85,123,93543,6,0,P|143:125|194:116,1,80,4|0,2:3|2:0,2:0:0:0:
248,274,93811,2,0,P|242:226|251:175,1,80,8|0,1:0|2:0,0:0:0:0:
434,168,94079,2,0,P|395:177|355:179,1,80,4|4,2:3|2:3,2:0:0:0:
324,92,94347,1,8,1:0:0:0:
15,220,94615,6,0,P|87:272|88:359,1,160,12|8,2:3|1:0,2:0:0:0:
185,299,95017,1,4,2:3:0:0:
301,214,95151,2,0,P|262:219|222:216,1,80,2|2,2:0|2:1,0:0:0:0:
136,156,95418,1,8,1:0:0:0:
136,156,95552,1,2,2:1:0:0:
173,59,95686,6,0,P|123:123|32:110,1,160,4|8,1:2|1:0,2:0:0:0:
244,125,96088,2,0,P|310:69|389:80,1,160,4|4,2:3|2:3,2:0:0:0:
475,34,96490,2,0,P|471:82|482:133,1,80,8|0,1:0|2:0,0:0:0:0:
411,176,96758,1,4,2:3:0:0:
226,267,97026,5,8,1:0:0:0:
135,297,97159,2,0,P|224:303|284:360,1,160,4|4,2:3|2:3,0:0:0:0:
331,251,97561,2,0,P|328:203|339:144,1,80,8|4,1:0|2:3,0:0:0:0:
293,76,97829,5,4,2:3:0:0:
234,161,97963,1,0,0:0:0:0:
70,142,98097,2,0,P|108:131|148:128,1,80,8|0,1:0|2:0,0:0:0:0:
29,247,98365,2,0,P|-5:187|11:95,2,160,4|8|12,2:3|1:0|2:3,0:0:0:0:
103,303,99034,2,0,P|158:282|214:286,1,80,2|8,2:1|1:0,0:0:0:0:
258,329,99302,1,4,2:3:0:0:
424,263,99570,1,4,2:3:0:0:
424,263,99704,2,0,P|432:207|423:150,1,80,10|4,1:0|2:3,0:0:0:0:
373,114,99972,1,4,1:2:0:0:
373,114,100240,5,10,1:2:0:0:
274,98,100374,1,4,2:3:0:0:
175,83,100508,1,2,2:0:0:0:
175,83,100776,5,10,1:2:0:0:
212,177,100909,1,2,2:0:0:0:
156,261,101043,1,2,1:2:0:0:
156,261,101311,5,10,1:2:0:0:
252,284,101445,1,4,2:3:0:0:
311,361,101579,1,2,2:0:0:0:
311,361,101847,5,10,1:2:0:0:
384,306,101981,1,2,2:0:0:0:
376,217,102115,1,2,1:2:0:0:
376,217,102383,5,10,1:2:0:0:
325,132,102517,1,4,2:3:0:0:
360,40,102651,1,2,2:0:0:0:
360,40,102918,6,0,P|302:48|258:41,1,80,10|4,1:2|2:3,0:0:0:0:
114,12,103186,2,0,P|180:72|187:146,1,160,2|10,1:0|1:0,0:0:0:0:
29,318,103722,2,0,P|95:277|174:278,1,160,2|10,2:1|1:0,0:0:0:0:
501,205,104258,6,0,P|446:226|387:224,1,120,6|0,1:0|0:0,2:0:0:0:
385,223,104526,2,0,P|342:196|297:191,1,80,8|4,1:0|2:3,0:0:0:0:
212,48,104793,2,0,P|193:111|221:205,1,160,2|8,2:0|1:0,2:0:0:0:
318,329,105329,1,2,1:2:0:0:
60,289,105597,6,0,P|115:268|174:265,1,80,8|4,1:0|2:3,0:0:0:0:
217,199,105865,2,0,P|297:238|391:223,1,160,2|10,2:0|1:2,0:0:0:0:
449,184,106267,1,4,2:3:0:0:
374,49,106401,6,0,P|368:97|379:148,1,80,6|0,1:2|0:0,2:0:0:0:
459,267,106668,1,8,1:0:0:0:
282,342,106936,2,0,L|175:324,1,80,2|4,2:0|2:3,2:0:0:0:
54,236,107204,2,0,P|97:273|115:324,1,80,8|4,1:0|2:3,0:0:0:0:
238,241,107472,5,12,2:3:0:0:
150,188,107606,1,2,1:0:0:0:
234,134,107740,1,4,2:3:0:0:
197,48,107874,1,2,1:0:0:0:
417,93,108142,5,2,1:0:0:0:
417,93,108276,1,2,1:0:0:0:
417,93,108409,1,2,2:1:0:0:
497,165,108543,6,0,P|452:177|401:172,2,80,6|2|0,1:0|2:1|1:0,0:0:0:0:
286,124,108945,2,0,P|326:177|332:266,2,144,2|2|2,2:1|2:1|2:1,0:0:0:0:
100,314,109749,1,2,2:1:0:0:
100,314,109883,1,2,1:0:0:0:
100,314,110017,1,2,2:0:0:0:
100,314,110151,2,0,B|166:301|159:328|230:312,2,108,2|2|2,2:1|2:1|2:1,0:0:0:0:
33,247,110686,6,0,P|21:209|21:158,1,72.0000000000001,2|2,2:1|2:1,0:0:0:0:
83,118,110954,1,2,1:2:0:0:
164,152,111088,2,0,P|176:190|176:241,1,72.0000000000001,2|2,2:1|2:1,0:0:0:0:
265,263,111356,1,2,2:1:0:0:
324,195,111490,2,0,P|312:157|312:106,1,72.0000000000001,2|2,1:2|2:1,0:0:0:0:
372,64,111758,1,2,2:1:0:0:
455,100,111892,2,0,P|467:138|467:189,1,72.0000000000001,2|2,2:1|1:2,0:0:0:0:
439,244,112159,1,2,2:1:0:0:
180,299,112427,1,2,2:1:0:0:
180,299,112561,1,2,1:2:0:0:
180,299,112695,1,2,2:1:0:0:
279,344,112829,6,0,P|297:266|280:194,1,144,2|2,2:1|1:2,0:0:0:0:
81,168,113231,2,0,P|135:187|193:182,1,108,2|0,2:1|0:0,0:0:0:0:
184,184,113499,2,0,L|205:114,1,72.0000000000001,2|2,2:1|1:2,0:0:0:0:
91,261,113767,1,2,2:0:0:0:
170,327,113901,6,0,P|218:314|266:309,2,72.0000000000001,2|2|2,2:1|2:1|1:2,0:0:0:0:
315,363,114302,2,0,P|281:311|281:219,1,144,2|2,2:1|2:1,0:0:0:0:
354,178,114704,1,2,1:2:0:0:
354,178,114972,5,2,2:1:0:0:
447,212,115106,1,2,2:1:0:0:
512,139,115240,1,2,1:2:0:0:
460,59,115374,2,0,P|424:62|381:57,2,72.0000000000001,2|2|2,2:1|2:1|2:1,0:0:0:0:
512,139,115776,1,2,1:0:0:0:
207,24,116043,6,0,P|260:66|267:154,1,144,2|2,2:0|1:2,0:0:0:0:
405,134,116445,2,0,P|355:176|343:257,1,144,2|2,2:1|2:0,0:0:0:0:
242,223,116847,1,0,1:0:0:0:
242,223,116981,1,4,2:3:0:0:
110,293,117115,6,0,P|165:287|205:293,2,72.0000000000001,6|2|0,1:0|2:0|1:0,0:0:0:0:
28,337,117517,2,0,B|1:260|1:260|25:181,1,144,2|2,2:1|2:1,0:0:0:0:
89,145,117918,1,2,1:2:0:0:
313,229,118186,6,0,P|258:223|218:229,2,72.0000000000001,2|2|0,2:1|2:0|1:0,0:0:0:0:
395,273,118588,2,0,B|422:196|422:196|398:117,1,144,2|2,2:1|2:1,0:0:0:0:
334,81,118990,1,2,1:2:0:0:
182,170,119258,6,0,P|143:179|90:178,1,72.0000000000001,2|2,2:1|2:1,0:0:0:0:
38,131,119526,1,2,1:2:0:0:
38,131,119659,1,2,2:1:0:0:
5,286,119793,2,0,P|53:272|113:270,1,72.0000000000001,0|2,2:0|2:1,0:0:0:0:
193,350,120061,2,0,P|181:303|180:259,1,72.0000000000001,2|2,1:0|2:0,0:0:0:0:
324,190,120329,6,0,P|340:231|341:280,1,72.0000000000001,2|2,2:1|2:1,0:0:0:0:
222,163,120597,1,2,1:0:0:0:
293,77,120731,1,2,2:1:0:0:
391,119,120865,2,0,P|423:127|471:125,2,72.0000000000001,0|2|2,2:0|2:1|1:0,0:0:0:0:
420,29,121267,1,2,2:0:0:0:
420,29,121401,1,2,2:1:0:0:
217,190,121668,5,0,1:0:0:0:
217,190,121802,2,0,P|129:183|47:123,1,144,2|2,2:1|2:1,0:0:0:0:
214,299,122204,2,0,P|262:279|304:275,1,72.0000000000001,2|0,1:2|0:0,0:0:0:0:
433,204,122472,6,0,P|377:253|383:328,1,144,2|2,2:1|1:0,0:0:0:0:
310,188,122874,2,0,P|277:125|306:47,1,144,2|2,2:1|2:1,0:0:0:0:
395,59,123276,1,2,1:2:0:0:
200,257,123543,6,0,P|174:261|153:261,7,36,2|2|0|0|0|0|2|0,2:1|2:1|2:0|2:0|1:0|2:0|2:0|2:0,2:0:0:0:
297,253,124079,2,0,P|301:279|301:300,7,36,2|2|2|0|0|0|0|0,2:1|2:1|2:0|2:0|1:0|2:0|2:0|2:0,2:0:0:0:
317,151,124615,2,0,P|343:147|364:147,7,36,2|2|8|0|2|0|8|0,2:1|2:1|1:0|2:0|2:0|2:0|1:0|2:0,2:0:0:0:
215,131,125151,2,0,P|211:105|211:84,4,36,2|2|8|0|8,1:0|2:1|1:0|2:0|1:0,2:0:0:0:
175,242,125552,1,0,2:0:0:0:
175,242,125619,1,0,2:0:0:0:
175,242,125686,1,2,2:3:0:0:
155,153,134258,6,0,P|147:216|176:279,1,120,4|0,1:2|0:0,2:0:0:0:
167,267,134526,2,0,P|223:250|276:247,1,80,8|4,1:0|2:3,0:0:0:0:
343,287,134793,1,0,2:0:0:0:
343,287,134927,1,4,2:3:0:0:
427,141,135061,2,0,P|426:186|439:237,1,80,8|0,1:0|0:0,2:0:0:0:
275,163,135329,6,0,P|226:102|237:25,1,160,4|8,2:3|1:0,2:0:0:0:
124,98,135731,1,4,2:3:0:0:
57,296,135999,1,4,2:3:0:0:
145,350,136133,1,8,1:0:0:0:
235,290,136267,1,4,2:3:0:0:
146,187,136401,6,0,P|142:226|147:266,1,80,4|0,2:3|2:0,2:0:0:0:
363,261,136668,2,0,P|367:221|362:181,1,80,8|0,1:0|2:0,0:0:0:0:
237,134,136936,2,0,P|232:173|237:213,1,80,4|4,2:3|2:3,2:0:0:0:
465,217,137204,2,0,P|469:177|464:137,1,80,8|4,1:0|2:3,0:0:0:0:
405,71,137472,1,12,2:3:0:0:
353,336,137740,1,8,1:0:0:0:
276,284,137874,1,4,2:3:0:0:
25,160,138142,5,2,2:1:0:0:
104,206,138276,1,8,1:0:0:0:
192,159,138409,1,2,2:1:0:0:
281,186,138543,6,0,P|349:213|444:202,1,160,4|8,1:2|1:0,2:0:0:0:
491,126,138945,1,4,2:3:0:0:
379,9,139079,2,0,P|385:52|423:96,1,80,0|4,0:0|2:3,0:0:0:0:
213,73,139347,2,0,P|273:81|329:66,1,80,8|0,1:0|2:0,0:0:0:0:
50,44,139615,6,0,P|126:90|130:175,1,160,4|8,2:3|1:0,0:0:0:0:
39,244,140017,2,0,P|31:199|46:145,1,80,4|0,2:3|2:0,0:0:0:0:
134,282,140284,1,4,2:3:0:0:
55,351,140418,1,8,1:0:0:0:
249,287,140686,6,0,P|309:299|362:301,1,80,4|0,2:3|0:0,2:0:0:0:
459,191,140954,2,0,P|399:179|346:177,1,80,8|0,1:0|2:0,0:0:0:0:
226,67,141222,1,4,2:3:0:0:
210,161,141356,1,4,2:3:0:0:
289,225,141490,2,0,P|302:168|301:125,1,80,8|4,1:0|2:3,0:0:0:0:
77,214,141758,6,0,P|54:218|26:218,2,40,8|2|0,2:3|2:0|2:0,0:0:0:0:
111,299,142026,1,10,1:2:0:0:
202,212,142159,2,0,B|191:255|191:255|244:288|235:365,1,160,2|10,2:0|1:2,0:0:0:0:
334,296,142561,2,0,P|387:306|439:302,1,80,0|12,2:0|2:3,0:0:0:0:
476,233,142829,1,6,1:2:0:0:
476,233,143097,5,10,1:2:0:0:
512,154,143231,1,4,2:3:0:0:
468,77,143365,1,2,2:0:0:0:
468,77,143633,5,10,1:2:0:0:
399,137,143767,1,2,2:0:0:0:
308,124,143901,1,2,1:2:0:0:
308,124,144168,5,10,1:2:0:0:
361,207,144302,1,4,2:3:0:0:
372,312,144436,1,2,2:0:0:0:
372,312,144704,5,10,1:2:0:0:
270,283,144838,1,2,2:0:0:0:
196,343,144972,1,2,1:2:0:0:
196,343,145240,5,10,1:2:0:0:
123,274,145374,1,4,2:3:0:0:
30,279,145508,1,2,2:0:0:0:
30,279,145776,6,0,P|26:225|37:166,1,80,10|2,1:2|2:0,0:0:0:0:
107,126,146043,2,0,B|144:105|144:105|238:107|241:170,1,160,2|10,1:0|1:0,0:0:0:0:
289,226,146445,1,8,2:3:0:0:
208,309,146579,2,0,P|193:260|196:211,1,80,2|8,2:1|2:3,0:0:0:0:
122,346,146847,2,0,P|214:346|281:386,1,160,10|6,1:0|1:0,0:0:0:0:
459,292,147383,1,8,1:0:0:0:
334,104,147651,6,0,P|324:160|336:231,1,120,2|2,2:0|2:0,2:0:0:0:
332,221,147918,2,0,L|252:241,1,80,8|2,1:0|2:0,0:0:0:0:
56,194,148186,2,0,L|133:175,1,80,2|2,1:2|2:0,0:0:0:0:
199,70,148454,1,8,1:0:0:0:
187,324,148722,1,2,2:0:0:0:
438,231,148990,1,10,1:2:0:0:
290,97,149258,6,0,P|240:122|127:122,1,160,4|8,1:2|1:0,2:0:0:0:
99,206,149659,1,4,2:3:0:0:
0,76,149793,2,0,P|25:113|24:185,1,80,2|4,2:0|2:3,2:0:0:0:
27,280,150061,2,0,P|98:242|186:239,1,160,8|12,1:0|2:3,0:0:0:0:
271,277,150463,5,2,1:0:0:0:
344,205,150597,1,4,2:3:0:0:
282,117,150731,1,2,1:0:0:0:
444,324,150999,5,2,1:0:0:0:
444,324,151133,1,2,1:0:0:0:
481,134,151401,5,4,1:2:0:0:
