osu file format v14

[General]
AudioFilename: audio.mp3
AudioLeadIn: 0
PreviewTime: 108275
Countdown: 0
SampleSet: Soft
StackLeniency: 0.7
Mode: 0
LetterboxInBreaks: 0
WidescreenStoryboard: 1

[Editor]
Bookmarks: 51154,104726,147583
DistanceSpacing: 1.1
BeatDivisor: 3
GridSize: 16
TimelineZoom: 2.1

[Metadata]
Title:In the Black
TitleUnicode:イン・ザ・ブラック
Artist:BUTAOTOME
ArtistUnicode:豚乙女
Creator:Luscent
Version:Hard
Source:東方憑依華 ~ Antinomy of Common Flowers.
Tags:東方project Touhou Project ZUN AoCF Hyouibana th15.5 U2 Uni Akiyama あきやまうに Twilight Frontier Team Shanghai Alice 二ッ岩 マミゾウ Futatsuiwa Mamizou 深緑の狸森にて Shinryoku no Tanuki Mori nite in the deep-green tanuki forest dailycare lude delis mirash ランコ ranko buta otome japanese rock pop video game
BeatmapID:4240720
BeatmapSetID:1833640

[Difficulty]
HPDrainRate:4
CircleSize:4
OverallDifficulty:7.5
ApproachRate:8.5
SliderMultiplier:1.3
SliderTickRate:1

[Events]
//Background and Video events
0,0,"2.jpg",0,0
//Break Periods
2,55173,62869
2,125888,133583
//Storyboard Layer 0 (Background)
//Storyboard Layer 1 (Fail)
//Storyboard Layer 2 (Pass)
//Storyboard Layer 3 (Foreground)
//Storyboard Layer 4 (Overlay)
//Storyboard Sound Samples

[TimingPoints]
331,267.857142857143,4,2,1,78,1,0
9973,267.857142857143,4,2,1,72,1,0
11044,-111.111111111111,4,2,1,72,0,0
27115,-133.333333333333,4,2,1,58,0,0
28187,-133.333333333333,4,2,1,58,0,0
28322,-133.333333333333,4,2,1,62,0,0
29393,-133.333333333333,4,2,1,66,0,0
30464,-133.333333333333,4,2,1,70,0,0
37830,267.857142857143,4,2,1,80,1,0
54972,-100,4,2,1,78,0,0
63544,-100,4,2,1,68,0,0
63946,-125,4,2,1,68,0,0
80687,-125,4,2,1,58,0,0
81758,-133.333333333333,4,2,1,58,0,0
81893,-133.333333333333,4,2,1,62,0,0
82964,-133.333333333333,4,2,1,66,0,0
84036,-133.333333333333,4,2,1,70,0,0
91401,267.857142857143,4,2,1,80,1,0
108543,-100,4,2,1,78,0,0
108677,-111.111111111111,4,2,1,78,0,0
125686,-111.111111111111,4,2,1,50,0,0
134258,-111.111111111111,4,2,1,80,0,0
134793,-100,4,2,1,80,0,0
151401,-100,4,2,1,78,0,0

[Colours]
Combo1 : 99,66,54
Combo2 : 201,141,52
Combo3 : 156,73,115
Combo4 : 124,156,58

[HitObjects]
48,200,331,6,0,P|97:242|173:233,1,130,4|8,1:0|1:0,0:0:0:0:
235,304,732,2,0,P|276:254|346:242,1,130,2|2,1:2|1:2,0:0:0:0:
427,275,1134,1,10,1:2:0:0:
512,112,1402,6,0,P|481:123|449:128,1,65,2|2,1:2|2:0,0:0:0:0:
397,60,1670,1,8,1:0:0:0:
329,13,1804,2,0,P|268:58|286:137,1,130,2|2,1:2|1:2,2:0:0:0:
215,200,2206,2,0,P|262:192|309:199,1,65,8|0,1:0|2:0,2:0:0:0:
363,149,2473,5,2,1:2:0:0:
138,251,2741,1,8,1:0:0:0:
138,251,2875,2,0,P|112:180|134:102,1,130,2|2,1:2|1:2,2:0:0:0:
48,84,3277,1,10,1:2:0:0:
213,171,3545,2,0,P|270:172|313:158,1,65,2|2,1:2|2:0,0:0:0:0:
419,82,3947,2,0,P|463:140|451:230,1,130,2|2,1:2|1:2,2:0:0:0:
479,275,4348,1,10,1:2:0:0:
387,242,4482,1,0,1:0:0:0:
188,311,4750,6,0,P|150:314|101:307,2,65,2|8|2,2:0|1:0|1:2,0:0:0:0:
283,353,5152,1,0,2:0:0:0:
259,260,5286,2,0,P|255:210|261:166,1,65,2|10,1:2|1:2,0:0:0:0:
208,121,5554,1,0,2:0:0:0:
99,63,5688,6,0,P|128:133|99:213,1,130,2|8,1:2|1:0,0:0:0:0:
38,217,6089,2,0,P|117:227|161:280,1,130,2|2,1:2|1:2,2:0:0:0:
191,341,6491,1,8,1:0:0:0:
394,302,6759,6,0,P|436:308|473:309,2,65,2|2|8,1:2|2:0|1:0,0:0:0:0:
318,239,7161,1,2,1:2:0:0:
383,173,7295,2,0,P|396:143|402:111,1,65,2|2,2:0|1:2,0:0:0:0:
347,45,7563,1,8,1:0:0:0:
140,120,7831,6,0,P|200:165|283:147,1,130,0|10,1:0|1:2,2:0:0:0:
200,242,8232,2,0,P|185:284|185:325,1,65,2|0,1:2|2:0,0:0:0:0:
283,295,8500,1,2,1:2:0:0:
283,295,8634,2,0,P|344:300|425:338,1,130,10|0,1:2|1:0,0:0:0:0:
472,269,9036,1,8,1:0:0:0:
389,171,9304,1,8,1:0:0:0:
463,64,9572,1,8,1:0:0:0:
463,64,9706,1,8,1:0:0:0:
279,128,9973,6,0,P|222:144|164:144,1,130,4|10,1:0|2:0,2:0:0:0:
99,89,10374,1,2,2:0:0:0:
99,89,10508,1,0,2:0:0:0:
116,215,10776,1,10,2:0:0:0:
45,325,11044,2,0,P|114:306|195:304,1,117,0|10,2:0|2:0,2:0:0:0:
271,249,11580,2,0,P|349:271|428:265,1,117,0|10,2:0|2:0,0:0:0:0:
477,202,12115,6,0,P|471:131|482:62,2,117,0|10|0,2:0|2:0|2:0,2:0:0:0:
340,151,12919,1,10,2:0:0:0:
159,112,13187,2,0,P|213:119|263:111,1,58.5000000000001,4|0,2:3|0:0,0:0:0:0:
102,177,13455,1,8,2:0:0:0:
102,177,13589,2,0,B|88:238|88:238|108:315,1,117,4|4,2:3|2:3,0:0:0:0:
170,342,13990,1,8,2:0:0:0:
318,282,14258,1,2,2:0:0:0:
236,160,14526,6,0,P|203:166|161:164,2,58.5000000000001,10|2|0,2:0|2:0|2:0,0:0:0:0:
376,193,15062,2,0,P|409:187|451:189,2,58.5000000000001,10|2|0,2:0|2:0|2:0,0:0:0:0:
329,74,15598,1,10,2:0:0:0:
236,160,15865,1,2,2:0:0:0:
127,97,16133,1,10,2:0:0:0:
23,148,16401,6,0,P|11:205|19:263,1,117,2|10,2:0|2:0,2:0:0:0:
160,304,16937,2,0,P|207:305|259:291,1,58.5000000000001,0|0,2:0|2:0,0:0:0:0:
296,343,17205,1,10,2:0:0:0:
398,206,17473,2,0,P|345:228|271:223,1,117,2|8,2:0|2:0,0:0:0:0:
193,195,17874,2,0,P|203:154|235:127,1,58.5000000000001,2|0,2:0|2:0,0:0:0:0:
288,91,18142,1,2,2:0:0:0:
288,91,18276,1,10,2:0:0:0:
97,38,18544,6,0,P|118:93|122:151,1,117,2|10,2:0|2:0,2:0:0:0:
63,210,18946,1,2,2:0:0:0:
63,210,19080,1,0,2:0:0:0:
171,303,19348,2,0,P|211:288|254:282,2,58.5000000000001,10|2|0,2:0|2:0|2:0,0:0:0:0:
305,350,19883,1,10,2:0:0:0:
328,201,20151,1,0,2:0:0:0:
185,181,20419,1,10,2:0:0:0:
58,272,20687,6,0,P|146:301|212:293,1,117,0|10,2:0|2:0,2:0:0:0:
239,355,21089,1,2,2:0:0:0:
309,298,21223,2,0,P|345:290|397:293,1,58.5000000000001,0|0,2:0|2:0,0:0:0:0:
467,313,21490,2,0,P|441:252|450:182,1,117,10|4,2:0|2:3,2:0:0:0:
363,171,21892,2,0,P|332:182|281:179,1,58.5000000000001,0|8,0:0|2:0,0:0:0:0:
240,235,22160,1,4,2:3:0:0:
105,165,22428,1,4,2:3:0:0:
105,165,22562,1,8,2:0:0:0:
188,62,22830,5,2,2:0:0:0:
298,126,23098,2,0,P|306:165|305:202,2,58.5000000000001,10|2|0,2:0|2:0|2:0,0:0:0:0:
401,229,23633,2,0,P|388:263|385:298,2,58.5000000000001,10|2|0,2:0|2:0|2:0,0:0:0:0:
501,171,24169,1,10,2:0:0:0:
431,69,24437,1,0,2:0:0:0:
331,134,24705,1,10,2:0:0:0:
177,120,24973,6,0,P|243:176|258:249,1,117,2|10,2:0|2:0,2:0:0:0:
376,249,25508,2,0,P|317:293|299:358,1,117,2|10,2:0|2:0,0:0:0:0:
186,294,26044,2,0,P|133:301|90:292,1,58.5000000000001,2|2,2:0|2:1,0:0:0:0:
49,337,26312,1,8,2:0:0:0:
49,337,26446,2,0,P|30:286|45:188,1,117,2|2,2:1|2:0,0:0:0:0:
95,166,26848,1,10,2:1:0:0:
242,235,27115,6,0,P|288:242|346:230,3,97.50000371933,6|0|2|0,1:0|3:0|2:0|0:0,0:0:0:0:
415,263,28053,1,2,2:0:0:0:
512,196,28187,2,0,P|493:254|499:305,3,97.5000000000002,0|0|0|2,3:0|3:0|3:0|3:2,0:0:0:0:
419,338,29124,1,2,3:2:0:0:
337,365,29258,2,0,P|280:344|221:346,3,97.5000000000002,2|0|0|0,1:2|3:0|3:0|3:0,0:0:0:0:
179,289,30196,1,2,2:0:0:0:
101,252,30330,2,0,P|89:188|105:118,3,97.5000000000002,0|0|0|2,3:0|3:0|3:0|3:2,0:0:0:0:
154,98,31267,1,2,3:2:0:0:
230,55,31401,6,0,P|290:67|354:68,1,97.5000000000002,2|2,1:2|1:2,0:0:0:0:
400,182,31937,2,0,P|340:170|276:169,1,97.5000000000002,2|2,1:2|1:2,0:0:0:0:
175,138,32473,2,0,P|203:182|207:248,1,97.5000000000002,2|2,1:2|1:2,0:0:0:0:
254,321,33008,2,0,P|303:271|360:257,1,97.5000000000002,2|2,1:2|1:2,0:0:0:0:
256,192,33544,12,2,35687,2:1:0:0:
256,192,37428,5,12,2:3:0:0:
256,192,37562,1,2,1:3:0:0:
256,192,37830,6,0,P|235:256|258:326,1,130,4|8,1:2|1:0,2:0:0:0:
160,284,38231,1,4,2:3:0:0:
68,205,38365,2,0,P|108:209|153:202,1,65,0|4,2:0|2:3,2:0:0:0:
189,134,38633,2,0,P|176:65|124:30,2,130,8|4|8,1:0|2:3|1:0,2:0:0:0:
274,85,39303,2,0,P|341:103|413:98,1,130,4|4,2:3|2:3,0:0:0:0:
470,159,39705,1,8,1:0:0:0:
327,318,39972,6,0,P|286:252|298:175,1,130,4|8,2:3|1:0,2:0:0:0:
214,285,40374,1,0,2:0:0:0:
141,243,40508,2,0,P|107:252|57:248,1,65,4|4,2:3|2:3,2:0:0:0:
17,192,40776,2,0,P|32:116|97:93,1,130,8|12,1:0|2:3,0:0:0:0:
226,23,41312,1,8,1:0:0:0:
226,23,41446,2,0,P|259:90|249:161,1,130,4|2,2:3|2:1,0:0:0:0:
186,192,41847,1,8,1:0:0:0:
323,311,42115,6,0,P|403:286|471:283,2,130,4|8|0,1:2|1:0|0:0,2:0:0:0:
241,282,42785,2,0,P|208:293|164:289,1,65,4|8,2:3|1:0,0:0:0:0:
144,209,43053,1,0,2:0:0:0:
201,134,43187,2,0,P|270:160|281:233,1,130,4|8,2:3|1:0,0:0:0:0:
365,159,43588,2,0,P|415:105|407:39,1,130,4|4,2:3|2:3,0:0:0:0:
345,5,43990,1,8,1:0:0:0:
203,69,44258,6,0,P|198:111|203:148,1,65,4|0,2:3|0:0,2:0:0:0:
104,175,44526,2,0,P|169:211|198:283,1,130,8|4,1:0|2:3,0:0:0:0:
250,326,44928,1,4,2:3:0:0:
250,326,45062,2,0,P|321:345|394:335,1,130,8|12,1:0|2:3,2:0:0:0:
441,286,45463,2,0,L|493:328,2,65,2|8|4,2:1|1:0|2:3,0:0:0:0:
315,215,45999,1,4,2:3:0:0:
315,215,46133,2,0,P|294:153|312:80,1,130,10|6,1:0|1:2,0:0:0:0:
178,110,46669,5,10,1:2:0:0:
178,110,46803,2,0,P|140:119|97:118,1,65,4|2,2:3|2:0,0:0:0:0:
42,253,47205,1,10,1:2:0:0:
42,253,47338,2,0,P|80:244|123:245,1,65,2|2,2:0|1:2,0:0:0:0:
278,320,47740,1,10,1:2:0:0:
278,320,47874,2,0,P|240:329|197:328,1,65,4|2,2:3|2:0,0:0:0:0:
371,214,48276,1,10,1:2:0:0:
371,214,48410,2,0,P|409:205|452:206,1,65,2|2,2:0|1:2,0:0:0:0:
304,98,48812,1,10,1:2:0:0:
304,98,48946,2,0,P|266:107|223:106,1,65,4|2,2:3|2:0,0:0:0:0:
147,194,49347,1,2,1:2:0:0:
0,170,49615,6,0,P|59:212|73:292,1,130,2|10,1:0|1:0,0:0:0:0:
134,331,50017,2,0,B|156:350|156:350|228:345|259:310,1,130,8|8,2:3|2:3,0:0:0:0:
329,351,50419,1,10,1:0:0:0:
432,217,50687,2,0,P|370:241|301:230,1,130,6|8,1:0|1:0,2:0:0:0:
176,154,51222,6,0,P|161:113|162:63,2,86.6666666666667,2|2|2,2:0|2:0|2:0,2:0:0:0:
131,221,51758,1,2,1:2:0:0:
232,334,52026,1,8,1:0:0:0:
232,334,52160,2,0,B|219:295|219:295|245:258|234:207,1,130,4|4,2:3|2:3,0:0:0:0:
309,161,52562,2,0,P|352:170|402:169,1,65,10|4,1:2|2:3,0:0:0:0:
454,207,52830,6,0,P|485:141|464:68,2,130,6|8|2,1:2|1:0|2:0,2:0:0:0:
365,318,53633,1,8,1:0:0:0:
241,270,53901,2,0,P|202:277|162:274,1,65,12|2,2:3|1:0,0:0:0:0:
121,196,54169,2,0,P|160:189|200:192,1,65,4|2,2:3|1:0,0:0:0:0:
334,138,54571,1,2,1:0:0:0:
334,138,54705,1,2,1:0:0:0:
257,28,54972,1,4,1:0:0:0:
151,256,63544,5,4,2:0:0:0:
261,206,63812,1,0,1:0:0:0:
261,206,63946,2,0,P|314:229|393:224,1,104,8|8,2:3|2:3,0:0:0:0:
424,275,64347,1,0,1:0:0:0:
503,180,64615,6,0,P|510:115|476:49,1,104,4|0,2:3|1:3,0:0:0:0:
378,115,65151,2,0,P|327:127|276:119,1,104,0|0,2:0|1:0,0:0:0:0:
184,58,65687,1,4,2:3:0:0:
130,155,65955,1,0,1:0:0:0:
223,214,66222,1,0,2:0:0:0:
276,119,66490,1,0,1:0:0:0:
388,158,66758,6,0,P|400:218|384:274,1,104,4|0,2:3|1:0,0:0:0:0:
338,310,67160,2,0,P|286:287|238:284,1,104,8|4,2:3|2:3,0:0:0:0:
169,319,67562,1,0,1:0:0:0:
75,252,67830,5,6,2:3:0:0:
160,176,68097,2,0,P|203:181|246:180,1,52,0|8,1:0|2:3,0:0:0:0:
291,199,68365,2,0,P|316:140|297:61,1,104,0|0,0:0|1:0,0:0:0:0:
268,35,68767,1,0,2:0:0:0:
268,35,68901,1,4,2:3:0:0:
160,88,69169,1,0,1:0:0:0:
49,57,69437,2,0,B|36:110|36:110|49:165,1,104,0|0,0:0|1:0,0:0:0:0:
15,260,69972,6,0,P|67:244|134:243,1,104,4|0,2:3|1:0,0:0:0:0:
200,195,70508,2,0,P|257:223|328:224,1,104,0|0,2:0|1:0,0:0:0:0:
397,256,71044,1,4,2:3:0:0:
397,256,71178,2,0,P|419:201|408:134,1,104,2|10,2:3|2:3,0:0:0:0:
355,105,71580,2,0,L|280:116,1,52,4|4,2:3|2:3,0:0:0:0:
230,124,71847,2,0,L|173:94,1,52,2|4,1:3|2:3,0:0:0:0:
107,69,72115,6,0,P|84:127|110:203,1,104,6|0,2:3|1:0,2:0:0:0:
26,212,72517,1,8,2:3:0:0:
26,212,72651,1,0,0:0:0:0:
102,294,72919,2,0,P|151:281|193:280,1,52,0|0,1:0|2:0,0:0:0:0:
227,237,73187,2,0,P|273:269|273:357,1,104,4|0,2:3|1:0,0:0:0:0:
352,195,73722,2,0,P|397:143|466:150,1,104,0|0,0:0|1:0,0:0:0:0:
460,279,74258,5,4,2:3:0:0:
341,231,74526,1,0,1:0:0:0:
341,231,74660,2,0,P|271:239|208:234,1,104,8|8,2:3|2:3,0:0:0:0:
166,259,75062,2,0,P|150:225|151:182,1,52,0|0,1:0|0:0,0:0:0:0:
91,152,75330,2,0,P|62:162|21:160,2,52,4|0|0,2:3|0:0|1:0,0:0:0:0:
133,80,75731,2,0,P|187:86|216:160,1,104,8|4,2:3|2:3,0:0:0:0:
295,92,76133,1,0,1:0:0:0:
419,45,76401,5,6,2:3:0:0:
413,166,76669,2,0,P|355:168|285:201,1,104,0|0,1:0|0:0,0:0:0:0:
209,236,77205,1,0,1:0:0:0:
95,201,77472,2,0,P|82:145|94:72,2,104,6|0|0,2:3|1:0|2:0,2:0:0:0:
43,297,78276,1,0,1:0:0:0:
136,356,78544,6,0,P|197:337|266:332,1,104,6|0,2:3|1:0,2:0:0:0:
315,263,79080,2,0,P|338:209|326:143,1,104,2|0,2:3|1:0,2:0:0:0:
250,101,79615,2,0,P|201:106|163:101,1,52,6|4,2:3|2:3,0:0:0:0:
144,57,79883,1,0,1:0:0:0:
144,57,80017,2,0,P|97:109|112:168,1,104,8|4,2:3|2:3,0:0:0:0:
31,177,80419,1,0,1:0:0:0:
106,283,80687,6,0,P|163:290|225:278,3,104,4|0|0|0,1:0|3:0|3:0|3:0,0:0:0:0:
272,322,81624,1,2,2:0:0:0:
333,276,81758,2,0,P|326:214|341:142,3,97.5000000000002,0|0|0|2,3:0|3:0|3:0|3:2,0:0:0:0:
395,116,82696,1,2,3:2:0:0:
341,53,82830,2,0,P|278:65|229:61,3,97.5000000000002,2|0|0|0,1:2|3:0|3:0|3:0,0:0:0:0:
178,98,83767,1,2,2:0:0:0:
85,75,83901,2,0,P|111:133|112:194,3,97.5000000000002,0|0|0|2,3:0|3:0|3:0|3:2,0:0:0:0:
114,244,84838,1,2,3:2:0:0:
73,308,84972,6,0,P|120:296|168:292,1,97.5000000000002,2|2,1:2|1:2,0:0:0:0:
287,360,85508,2,0,P|270:315|266:267,1,97.5000000000002,2|2,1:2|1:2,0:0:0:0:
399,183,86044,2,0,P|385:237|353:277,1,97.5000000000002,2|2,1:2|1:2,0:0:0:0:
260,174,86580,2,0,P|274:120|306:80,1,97.5000000000002,2|2,1:2|1:2,0:0:0:0:
256,192,87115,12,2,89258,2:1:0:0:
256,192,90999,5,12,2:3:0:0:
256,192,91133,1,2,1:3:0:0:
256,192,91401,6,0,P|318:221|330:310,1,130,4|8,1:2|1:0,2:0:0:0:
281,350,91802,1,4,2:3:0:0:
199,315,91936,2,0,P|195:272|209:224,1,65,0|4,2:0|2:3,2:0:0:0:
145,186,92204,2,0,P|76:205|0:195,2,130,8|4|8,1:0|2:3|1:0,2:0:0:0:
100,101,92874,2,0,P|164:97|232:129,1,130,4|4,2:3|2:3,0:0:0:0:
261,38,93276,1,8,1:0:0:0:
433,101,93543,6,0,P|394:159|401:232,1,130,4|8,2:3|1:0,2:0:0:0:
336,275,93945,1,0,2:0:0:0:
197,244,94079,2,0,P|245:248|294:237,1,65,4|4,2:3|2:3,2:0:0:0:
121,281,94347,2,0,P|88:233|95:148,2,130,8|12|8,1:0|2:3|1:0,0:0:0:0:
153,366,95017,1,4,2:3:0:0:
153,366,95151,2,0,P|209:328|283:330,1,130,2|8,2:0|1:0,0:0:0:0:
359,241,95686,5,4,1:2:0:0:
255,178,95954,1,8,1:0:0:0:
255,178,96088,2,0,P|228:118|241:34,1,130,4|4,2:3|2:3,2:0:0:0:
152,105,96490,2,0,P|119:118|73:120,1,65,8|0,1:0|2:0,0:0:0:0:
2,85,96758,6,0,P|49:137|42:228,1,130,4|8,2:3|1:0,0:0:0:0:
133,251,97159,2,0,P|88:270|58:306,1,65,4|0,2:3|2:0,0:0:0:0:
45,350,97427,1,4,2:3:0:0:
45,350,97561,1,8,1:0:0:0:
223,337,97829,6,0,P|248:271|234:202,1,130,4|8,2:3|1:0,2:0:0:0:
203,138,98231,1,0,2:0:0:0:
112,124,98365,2,0,P|124:166|150:196,1,65,4|4,2:3|2:3,0:0:0:0:
98,266,98633,2,0,P|144:261|190:237,1,65,8|4,1:0|2:3,2:0:0:0:
239,213,98901,5,12,2:3:0:0:
239,213,99034,2,0,P|315:210|387:246,1,130,2|4,2:1|2:3,0:0:0:0:
389,148,99436,2,0,P|396:107|422:68,2,65,6|4|10,1:0|2:3|1:0,0:0:0:0:
478,140,99838,1,4,2:3:0:0:
478,140,99972,1,4,1:2:0:0:
454,291,100240,5,10,1:2:0:0:
454,291,100374,2,0,P|409:301|370:301,1,65,4|2,2:3|2:0,0:0:0:0:
199,256,100776,1,10,1:2:0:0:
199,256,100909,2,0,P|244:246|283:246,1,65,2|2,2:0|1:2,0:0:0:0:
336,113,101311,1,10,1:2:0:0:
336,113,101445,2,0,P|291:123|252:123,1,65,4|2,2:3|2:0,0:0:0:0:
72,192,101847,1,10,1:2:0:0:
72,192,101981,2,0,P|117:182|156:182,1,65,2|2,2:0|1:2,0:0:0:0:
259,36,102383,1,10,1:2:0:0:
259,36,102517,2,0,P|214:46|175:46,1,65,4|2,2:3|2:0,0:0:0:0:
73,4,102918,1,10,1:2:0:0:
7,120,103186,6,0,P|-3:196|26:255,1,130,2|10,1:0|1:0,0:0:0:0:
86,291,103588,2,0,P|142:258|216:257,1,130,8|8,2:3|2:3,0:0:0:0:
283,295,103990,1,10,1:0:0:0:
363,188,104258,2,0,P|424:213|501:210,2,130,6|8|2,1:0|1:0|2:0,2:0:0:0:
268,208,104927,2,0,P|287:174|290:121,1,65,4|8,2:3|1:0,0:0:0:0:
239,83,105195,1,2,2:0:0:0:
239,83,105329,6,0,P|164:111|155:185,1,130,2|8,1:2|1:0,0:0:0:0:
76,205,105731,2,0,P|118:261|211:256,1,130,4|4,2:3|2:3,0:0:0:0:
241,332,106133,1,10,1:2:0:0:
399,275,106401,6,0,P|395:204|407:116,1,130,6|8,1:2|1:0,2:0:0:0:
315,208,106802,1,4,2:3:0:0:
244,163,106936,2,0,P|207:169|152:165,2,65,2|4|8,2:0|2:3|1:0,2:0:0:0:
67,79,107472,5,12,2:3:0:0:
67,79,107606,1,2,1:0:0:0:
123,194,107874,1,2,1:0:0:0:
54,301,108142,1,2,1:0:0:0:
54,301,108276,1,2,1:0:0:0:
221,258,108543,5,6,1:0:0:0:
221,258,108677,2,0,P|288:274|358:273,2,117,2|2|2,2:1|0:1|2:1,0:0:0:0:
185,174,109347,1,0,1:0:0:0:
278,166,109481,2,0,P|265:120|271:37,1,117,2|2,2:1|2:1,0:0:0:0:
355,82,109883,1,2,1:0:0:0:
355,82,110017,1,2,2:0:0:0:
443,98,110151,2,0,L|350:126,2,87.7500000000001,2|2|2,2:1|2:1|2:1,0:0:0:0:
489,171,110686,6,0,P|434:215|417:266,1,117,2|2,2:1|1:2,0:0:0:0:
343,218,111088,2,0,P|283:240|209:230,1,117,2|2,2:1|2:1,0:0:0:0:
162,195,111490,1,2,1:2:0:0:
162,195,111624,1,2,2:1:0:0:
62,163,111758,6,0,P|108:204|121:272,1,117,2|2,2:1|1:2,0:0:0:0:
97,328,112159,1,2,2:1:0:0:
285,286,112427,2,0,P|329:291|368:290,2,58.5000000000001,2|2|2,2:1|1:2|2:1,0:0:0:0:
256,362,112829,1,2,2:1:0:0:
191,164,113231,1,2,2:1:0:0:
250,59,113499,1,2,2:1:0:0:
250,59,113633,1,2,1:2:0:0:
358,102,113901,5,2,2:1:0:0:
358,102,114034,2,0,P|376:163|369:240,2,117,2|2|2,2:1|2:1|2:1,0:0:0:0:
275,156,114704,2,0,P|237:165|185:162,1,58.5000000000001,2|0,1:2|0:0,0:0:0:0:
145,106,114972,6,0,P|94:141|85:216,1,117,2|2,2:1|1:2,0:0:0:0:
8,263,115374,2,0,P|78:278|115:316,1,117,2|2,2:1|2:1,0:0:0:0:
183,255,115776,1,2,1:0:0:0:
183,255,115909,1,2,2:1:0:0:
275,285,116043,6,0,P|273:238|284:185,1,58.5000000000001,2|2,2:0|2:0,0:0:0:0:
350,135,116311,2,0,P|352:182|341:235,1,58.5000000000001,2|2,1:2|2:1,0:0:0:0:
258,106,116579,2,0,P|256:59|267:6,1,58.5000000000001,4|2,1:3|2:0,0:0:0:0:
161,138,116847,2,0,P|163:91|152:38,1,58.5000000000001,0|4,1:0|2:3,0:0:0:0:
74,58,117115,6,0,P|22:116|40:185,1,117,6|0,1:0|1:0,0:0:0:0:
76,212,117517,1,2,2:1:0:0:
14,333,117784,1,2,2:1:0:0:
14,333,117918,1,2,1:2:0:0:
150,275,118186,6,0,P|214:286|296:282,1,117,2|0,2:1|1:0,0:0:0:0:
344,329,118588,1,2,2:1:0:0:
438,216,118856,1,2,2:1:0:0:
438,216,118990,1,2,1:2:0:0:
278,113,119258,6,0,P|275:162|282:219,2,58.5000000000001,2|2|2,2:1|2:1|1:2,0:0:0:0:
365,148,119659,1,2,2:1:0:0:
431,89,119793,2,0,P|466:90|500:87,2,58.5000000000001,0|2|2,2:0|2:1|1:0,0:0:0:0:
369,25,120195,1,2,2:0:0:0:
303,77,120329,6,0,P|256:78|220:69,1,58.5000000000001,2|2,2:1|2:1,0:0:0:0:
154,151,120597,2,0,P|201:152|237:143,1,58.5000000000001,2|2,1:0|2:1,0:0:0:0:
331,212,120865,2,0,P|284:213|248:204,1,58.5000000000001,0|2,2:0|2:1,0:0:0:0:
166,297,121133,2,0,P|212:291|251:297,1,58.5000000000001,2|2,1:0|2:0,0:0:0:0:
297,353,121401,6,0,P|356:313|443:317,1,117,2|0,2:1|1:0,0:0:0:0:
475,333,121802,1,2,2:1:0:0:
321,243,122070,1,2,2:1:0:0:
321,243,122204,1,2,1:2:0:0:
88,184,122472,6,0,P|155:216|225:205,1,117,2|2,2:1|1:0,0:0:0:0:
284,152,122874,2,0,P|217:120|147:131,1,117,2|2,2:1|2:1,0:0:0:0:
279,47,123276,2,0,P|346:79|416:68,1,117,2|2,1:2|2:1,0:0:0:0:
256,192,123677,12,2,125686,2:3:0:0:
144,242,134258,6,0,P|117:172|140:93,1,117,4|8,1:2|1:0,2:0:0:0:
207,149,134659,1,4,2:3:0:0:
286,185,134793,2,0,P|335:178|390:157,1,65,0|4,2:0|2:3,2:0:0:0:
457,122,135061,2,0,P|430:181|439:249,2,130,8|4|8,1:0|2:3|1:0,2:0:0:0:
388,64,135731,2,0,P|353:72|315:70,1,65,4|0,2:3|2:0,0:0:0:0:
255,22,135999,1,4,2:3:0:0:
255,22,136133,1,8,1:0:0:0:
55,105,136401,6,0,P|128:147|204:141,1,130,4|8,2:3|1:0,2:0:0:0:
227,207,136802,1,0,2:0:0:0:
346,171,136936,2,0,P|304:228|306:305,2,130,4|8|12,2:3|1:0|2:3,2:0:0:0:
386,255,137606,2,0,P|433:269|484:269,1,65,0|8,2:0|1:0,0:0:0:0:
353,342,137874,2,0,P|288:320|212:317,1,130,4|2,2:3|2:1,0:0:0:0:
159,364,138276,1,8,1:0:0:0:
19,263,138543,5,4,1:2:0:0:
137,163,138811,1,8,1:0:0:0:
137,163,138945,2,0,P|199:182|275:184,1,130,4|4,2:3|2:3,2:0:0:0:
357,161,139347,2,0,P|347:196|349:244,1,65,8|0,1:0|2:0,0:0:0:0:
438,158,139615,2,0,P|369:106|359:45,1,130,4|8,2:3|1:0,0:0:0:0:
279,110,140017,1,4,2:3:0:0:
179,17,140284,1,4,2:3:0:0:
179,17,140418,2,0,P|135:23|101:21,1,65,8|4,1:0|2:3,0:0:0:0:
40,52,140686,6,0,B|18:114|18:114|41:182,1,130,4|8,2:3|1:0,2:0:0:0:
26,261,141088,1,0,2:0:0:0:
113,223,141222,2,0,P|155:233|203:234,1,65,4|4,2:3|2:3,0:0:0:0:
255,279,141490,2,0,P|269:235|270:192,1,65,8|4,1:0|2:3,0:0:0:0:
323,145,141758,6,0,P|396:167|406:257,1,130,8|10,2:3|1:2,0:0:0:0:
493,258,142159,2,0,P|448:318|374:314,1,130,2|10,2:0|1:2,0:0:0:0:
325,370,142561,1,0,2:0:0:0:
325,370,142695,1,12,2:3:0:0:
325,370,142829,1,6,1:2:0:0:
99,287,143097,5,10,1:2:0:0:
99,287,143231,2,0,P|145:277|202:274,1,65,4|2,2:3|2:0,0:0:0:0:
303,335,143633,1,10,1:2:0:0:
303,335,143767,2,0,P|293:289|290:232,1,65,2|2,2:0|1:2,0:0:0:0:
345,142,144168,1,10,1:2:0:0:
345,142,144302,2,0,P|299:152|242:155,1,65,4|2,2:3|2:0,0:0:0:0:
141,94,144704,1,10,1:2:0:0:
141,94,144838,2,0,P|151:140|154:197,1,65,2|2,2:0|1:2,0:0:0:0:
99,287,145240,1,10,1:2:0:0:
99,287,145374,2,0,P|145:277|202:274,1,65,4|2,2:3|2:0,0:0:0:0:
303,335,145776,1,10,1:2:0:0:
410,218,146043,6,0,P|333:240|265:236,1,130,2|10,1:0|1:0,0:0:0:0:
112,152,146579,2,0,P|189:130|257:134,1,130,2|10,2:1|1:0,0:0:0:0:
324,37,147115,1,6,1:0:0:0:
433,232,147651,6,0,P|444:279|440:335,2,86.6666666666667,2|2|2,2:0|2:0|2:0,2:0:0:0:
347,262,148186,2,0,P|287:285|197:271,1,130,2|8,1:2|1:0,0:0:0:0:
137,297,148588,1,4,2:3:0:0:
106,201,148722,2,0,P|156:214|189:213,1,65,2|4,2:0|2:3,0:0:0:0:
236,154,148990,2,0,P|215:87|238:1,1,130,10|4,1:2|1:2,0:0:0:0:
256,192,149392,12,4,151401,1:2:0:0:
