osu file format v14

[General]
AudioFilename: audio.mp3
AudioLeadIn: 0
PreviewTime: 108275
Countdown: 0
SampleSet: Soft
StackLeniency: 0.7
Mode: 0
LetterboxInBreaks: 0
WidescreenStoryboard: 1

[Editor]
DistanceSpacing: 2.2
BeatDivisor: 4
GridSize: 4
TimelineZoom: 3.399999

[Metadata]
Title:In the Black
TitleUnicode:イン・ザ・ブラック
Artist:BUTAOTOME
ArtistUnicode:豚乙女
Creator:Luscent
Version:Delis' Extra
Source:東方憑依華 ~ Antinomy of Common Flowers.
Tags:東方project Touhou Project ZUN AoCF Hyouibana th15.5 U2 Uni Akiyama あきやまうに Twilight Frontier Team Shanghai Alice 二ッ岩 マミゾウ Futatsuiwa Mamizou 深緑の狸森にて Shinryoku no Tanuki Mori nite in the deep-green tanuki forest dailycare lude delis mirash ランコ ranko buta otome japanese rock pop video game
BeatmapID:4240719
BeatmapSetID:1833640

[Difficulty]
HPDrainRate:7
CircleSize:5
OverallDifficulty:8
ApproachRate:9
SliderMultiplier:1.7
SliderTickRate:1

[Events]
//Background and Video events
0,0,"2.jpg",0,0
//Break Periods
2,55172,62005
2,126221,132586
//Storyboard Layer 0 (Background)
//Storyboard Layer 1 (Fail)
//Storyboard Layer 2 (Pass)
//Storyboard Layer 3 (Foreground)
//Storyboard Layer 4 (Overlay)
//Storyboard Sound Samples

[TimingPoints]
331,267.857142857143,4,2,1,78,1,0
9973,267.857142857143,4,2,1,72,1,0
11848,-133.333333333333,4,2,1,68,0,0
12115,-100,4,2,1,68,0,0
37830,267.857142857143,4,2,1,80,1,0
91401,267.857142857143,4,2,1,80,1,0

[Colours]
Combo1 : 82,169,140
Combo2 : 94,119,83
Combo3 : 159,113,158
Combo4 : 79,105,106

[HitObjects]
200,268,331,5,4,1:0:0:0:
272,320,464,2,0,P|336:312|360:296,1,85,2|8,2:0|1:0,2:0:0:0:
424,352,732,1,2,1:2:0:0:
428,268,866,2,0,L|456:176,1,85,0|2,2:0|1:2,2:0:0:0:
372,32,1134,2,0,L|344:124,1,85,10|0,1:2|2:0,2:0:0:0:
376,188,1402,5,2,1:2:0:0:
256,96,1536,2,0,P|180:84|112:140,2,170,2|2|2,2:0|1:2|1:2,2:0:0:0:
240,180,2206,1,8,1:0:0:0:
320,220,2339,1,0,2:0:0:0:
328,136,2473,5,2,1:2:0:0:
256,96,2607,2,0,P|212:96|164:128,1,85,2|8,2:0|1:0,2:0:0:0:
116,52,2875,2,0,L|92:144,1,85,2|0,1:2|2:0,2:0:0:0:
12,116,3143,2,0,P|32:208|12:288,1,170,2|0,1:2|2:0,2:0:0:0:
88,332,3545,5,2,1:2:0:0:
104,252,3679,2,0,L|128:148,1,85,2|8,2:0|1:0,2:0:0:0:
196,272,3947,2,0,L|236:84,1,170,2|2,1:2|1:2,2:0:0:0:
148,104,4348,5,10,1:2:0:0:
260,36,4482,1,0,1:0:0:0:
396,64,4616,1,0,1:0:0:0:
360,140,4750,1,2,2:0:0:0:
444,132,4884,5,8,1:0:0:0:
368,100,5018,1,2,1:2:0:0:
288,136,5152,2,0,P|276:192|288:228,1,85,0|2,2:0|1:2,2:0:0:0:
240,284,5420,2,0,P|252:340|240:376,1,85,10|0,1:2|2:0,2:0:0:0:
172,332,5688,5,2,1:2:0:0:
332,332,5822,2,0,P|348:248|300:164,2,170,2|2|2,2:0|1:2|1:2,2:0:0:0:
408,348,6491,2,0,L|436:256,1,85,8|0,1:0|2:0,2:0:0:0:
256,216,6759,5,2,1:2:0:0:
200,272,6893,2,0,P|192:332|208:368,1,85,2|8,2:0|1:0,2:0:0:0:
112,312,7161,1,2,1:2:0:0:
272,296,7295,5,2,2:0:0:0:
200,272,7429,1,2,1:2:0:0:
256,216,7563,2,0,L|264:108,1,85,8|2,1:0|2:0,2:0:0:0:
184,104,7831,6,0,P|272:112|332:48,1,170,0|10,1:0|1:2,2:0:0:0:
124,24,8232,2,0,P|160:100|128:192,1,170,2|2,1:2|1:2,2:0:0:0:
212,208,8634,2,0,L|392:184,1,170,10|0,1:2|1:0,2:0:0:0:
476,156,9036,6,0,P|460:200|468:244,1,85,8|0,1:0|2:0,2:0:0:0:
308,328,9304,2,0,P|348:272|320:176,1,170,8|8,1:0|1:0,2:0:0:0:
252,148,9706,1,8,1:0:0:0:
264,224,9839,1,0,2:0:0:0:
148,364,9973,6,0,P|160:276|128:188,1,170,4|10,1:0|2:0,2:0:0:0:
76,248,10374,1,2,2:0:0:0:
88,56,10508,2,0,P|72:100|72:152,1,85,0|0,2:0|2:0,2:0:0:0:
236,160,10776,1,10,2:0:0:0:
176,120,10910,1,2,2:0:0:0:
328,96,11044,6,0,L|420:112,1,85,0|0,2:0|2:0,2:0:0:0:
432,104,11245,1,0,2:0:0:0:
452,96,11312,2,0,P|444:152|448:188,1,85,10|0,2:0|2:0,2:0:0:0:
388,32,11580,1,0,2:0:0:0:
364,172,11714,1,2,2:0:0:0:
259,90,11848,2,0,P|219:114|159:106,1,95.6250000000002,10|0,2:0|2:0,2:0:0:0:
152,96,12115,6,0,L|180:272,1,170,0|10,2:0|2:0,2:0:0:0:
128,324,12517,1,2,2:0:0:0:
16,240,12651,2,0,P|52:260|112:256,1,85,0|0,2:0|2:0,2:0:0:0:
216,336,12919,2,0,P|260:304|320:308,1,85,10|0,2:0|2:0,2:0:0:0:
460,196,13187,6,0,P|440:272|368:316,1,127.5,4|4,2:3|2:3,2:0:0:0:
405,303,13455,1,8,2:0:0:0:
312,180,13589,1,4,2:3:0:0:
340,104,13723,2,0,P|376:136|424:144,1,85,0|4,2:0|2:3,2:0:0:0:
248,208,13990,2,0,P|212:244|200:292,1,85,8|0,2:0|2:0,2:0:0:0:
256,312,14258,6,0,L|232:140,1,170,2|10,2:0|2:0,2:0:0:0:
168,100,14660,1,2,2:0:0:0:
64,32,14794,2,0,L|76:120,1,85,0|0,2:0|2:0,2:0:0:0:
236,44,15062,2,0,P|280:60|328:56,1,85,10|2,2:0|2:0,2:0:0:0:
380,104,15330,6,0,P|448:76|504:80,1,127.5,0|2,2:0|2:0,2:0:0:0:
500,79,15598,2,0,L|484:176,1,85,10|0,2:0|2:0,2:0:0:0:
376,192,15865,2,0,L|384:284,1,85,2|0,2:0|2:0,2:0:0:0:
176,244,16133,2,0,L|168:344,1,85,10|0,2:0|2:0,2:0:0:0:
72,112,16401,2,0,L|56:296,2,170,2|10|0,2:0|2:0|2:0,2:0:0:0:
12,68,17071,5,0,2:0:0:0:
148,36,17205,1,10,2:0:0:0:
180,168,17339,1,0,2:0:0:0:
112,216,17473,5,2,2:0:0:0:
112,216,17539,1,2,2:0:0:0:
112,216,17606,1,0,2:0:0:0:
84,80,17740,1,8,2:0:0:0:
220,48,17874,2,0,B|316:80|296:20|388:40,1,170,2|2,2:0|2:0,2:0:0:0:
456,76,18276,5,10,2:0:0:0:
392,120,18410,1,2,2:0:0:0:
456,164,18544,2,0,P|460:248|456:340,1,170,2|10,2:0|2:0,2:0:0:0:
384,364,18946,1,2,2:0:0:0:
384,288,19080,2,0,P|384:232|380:184,1,85,0|0,2:0|2:0,2:0:0:0:
312,176,19348,5,10,2:0:0:0:
240,200,19481,1,2,2:0:0:0:
300,252,19615,2,0,P|260:268|208:272,1,85,0|0,2:0|2:0,2:0:0:0:
204,288,19816,1,0,2:0:0:0:
188,304,19883,2,0,P|112:292|76:272,1,85,10|0,2:0|2:0,2:0:0:0:
16,336,20151,2,0,P|16:288|8:224,1,85,0|2,2:0|2:0,2:0:0:0:
76,32,20419,2,0,L|68:128,1,85,10|0,2:0|2:0,2:0:0:0:
80,200,20687,6,0,P|172:192|256:192,1,170,0|10,2:0|2:0,2:0:0:0:
249,191,21089,1,2,2:0:0:0:
232,112,21223,2,0,P|168:112|128:104,1,85,0|0,2:0|2:0,2:0:0:0:
140,272,21490,2,0,P|204:272|244:280,1,85,10|0,2:0|2:0,2:0:0:0:
304,248,21758,6,0,P|368:244|436:208,1,127.5,4|4,2:3|2:3,2:0:0:0:
424,217,22026,1,8,2:0:0:0:
472,276,22160,2,0,P|464:196|472:104,1,170,4|4,2:3|2:3,2:0:0:0:
492,32,22562,5,8,2:0:0:0:
392,64,22696,1,0,2:0:0:0:
280,92,22830,2,0,P|228:100|168:80,1,85,2|0,2:0|2:0,2:0:0:0:
24,124,23098,5,10,2:0:0:0:
128,164,23231,1,2,2:0:0:0:
236,196,23365,2,0,P|284:188|336:196,1,85,0|0,2:0|2:0,2:0:0:0:
412,144,23633,5,10,2:0:0:0:
392,252,23767,1,2,2:0:0:0:
376,360,23901,2,0,P|328:368|288:364,1,85,0|0,2:0|2:0,2:0:0:0:
128,320,24169,2,0,P|88:316|40:324,1,85,10|2,2:0|2:0,2:0:0:0:
168,240,24437,2,0,P|216:244|256:236,1,85,0|0,2:0|2:0,2:0:0:0:
384,68,24705,2,0,P|432:64|472:72,1,85,10|0,2:0|2:0,2:0:0:0:
500,144,24973,5,2,2:0:0:0:
240,64,25240,1,10,2:0:0:0:
248,140,25374,1,0,2:0:0:0:
176,104,25508,2,0,P|168:176|160:208,1,85,2|0,2:0|2:0,2:0:0:0:
112,244,25776,2,0,P|120:300|120:344,1,85,10|0,2:0|2:0,2:0:0:0:
188,368,26044,5,2,2:0:0:0:
248,316,26178,1,2,2:1:0:0:
248,316,26245,1,2,2:0:0:0:
248,316,26312,1,8,2:0:0:0:
308,264,26446,1,2,2:1:0:0:
192,148,26580,5,2,2:1:0:0:
200,224,26714,1,2,2:0:0:0:
312,156,26848,5,10,2:1:0:0:
304,80,26981,1,2,2:1:0:0:
272,232,27115,5,6,1:0:0:0:
428,192,27383,1,0,3:0:0:0:
400,268,27517,1,2,2:0:0:0:
400,268,27785,1,2,2:0:0:0:
364,148,27919,1,0,3:0:0:0:
480,236,28053,1,2,2:0:0:0:
332,220,28187,6,0,P|248:208|144:216,3,170,0|0|0|2,3:0|3:0|3:0|3:2,2:0:0:0:
112,160,29124,1,2,3:2:0:0:
144,284,29258,5,2,1:2:0:0:
252,212,29526,1,0,3:0:0:0:
272,284,29660,1,2,2:0:0:0:
272,284,29928,1,2,2:0:0:0:
292,148,30062,1,0,3:0:0:0:
176,204,30196,1,2,2:0:0:0:
328,220,30330,6,0,P|408:224|504:212,3,170,0|0|0|2,3:0|3:0|3:0|3:2,2:0:0:0:
500,288,31267,1,2,3:2:0:0:
468,144,31401,6,0,L|512:120,2,42.5,2|0|0,1:2|2:0|3:0,2:0:0:0:
276,80,31669,2,0,L|248:32,2,42.5,2|0|0,1:2|2:0|3:0,2:0:0:0:
432,212,31937,2,0,L|484:220,2,42.5,2|0|0,1:2|2:0|3:0,2:0:0:0:
216,136,32205,2,0,L|160:120,2,42.5,2|0|0,1:2|2:0|3:0,2:0:0:0:
392,272,32473,2,0,L|424:324,2,42.5,2|0|0,1:2|2:0|3:0,2:0:0:0:
208,216,32740,2,0,L|156:240,2,42.5,2|0|0,1:2|2:0|3:0,2:0:0:0:
324,300,33008,2,0,L|316:368,2,42.5,2|0|0,1:2|2:0|3:0,2:0:0:0:
232,292,33276,2,0,L|244:360,2,42.5,2|0|0,1:2|2:0|3:0,2:0:0:0:
144,304,33544,6,0,P|112:328|60:336,1,85,2|0,1:2|1:0,2:0:0:0:
48,332,33745,1,0,1:0:0:0:
28,324,33812,1,2,1:2:0:0:
56,256,33946,1,0,1:0:0:0:
20,184,34080,2,0,L|36:92,1,85,2|0,1:2|1:0,2:0:0:0:
56,92,34281,1,0,1:0:0:0:
76,84,34348,1,2,1:2:0:0:
208,140,34481,5,0,1:0:0:0:
208,140,34548,1,0,1:0:0:0:
208,140,34615,1,2,1:2:0:0:
304,248,34749,1,0,1:0:0:0:
304,248,34816,1,2,1:2:0:0:
304,248,34883,1,2,1:2:0:0:
284,120,35017,5,2,1:2:0:0:
284,120,35084,1,0,2:0:0:0:
284,120,35151,1,2,1:2:0:0:
236,284,35285,1,2,1:2:0:0:
236,284,35352,1,2,1:2:0:0:
236,284,35419,1,2,1:2:0:0:
248,208,35553,5,0,1:0:0:0:
252,200,35620,1,0,1:0:0:0:
256,192,35687,1,2,2:1:0:0:
380,212,37428,5,12,2:3:0:0:
132,180,37562,1,2,1:3:0:0:
132,180,37830,2,0,P|204:172|260:176,1,127.5,4|0,1:2|2:0,2:0:0:0:
258,175,38097,2,0,P|256:136|260:84,1,85,8|4,1:0|2:3,2:0:0:0:
212,252,38365,2,0,P|208:308|208:348,1,85,0|4,2:0|2:3,2:0:0:0:
24,212,38633,2,0,P|24:164|32:112,1,85,8|0,1:0|2:0,2:0:0:0:
0,332,38901,2,0,P|52:280|152:288,1,170,4|8,2:3|1:0,2:0:0:0:
104,200,39303,6,0,P|148:196|196:184,1,85,4|0,2:3|2:0,2:0:0:0:
256,212,39571,1,4,2:3:0:0:
496,132,39705,5,8,1:0:0:0:
412,184,39838,1,4,2:3:0:0:
316,164,39972,2,0,P|304:124|312:72,1,85,4|0,2:3|2:0,2:0:0:0:
252,32,40240,1,8,1:0:0:0:
224,104,40374,1,0,2:0:0:0:
104,36,40508,6,0,L|68:140,1,85,4|4,2:3|2:3,2:0:0:0:
132,324,40776,2,0,L|160:236,1,85,8|4,1:0|2:3,2:0:0:0:
84,184,41044,2,0,L|24:368,1,170,12|8,2:3|1:0,2:0:0:0:
132,324,41446,1,4,2:3:0:0:
232,304,41580,2,0,L|252:212,1,85,2|2,2:0|2:1,2:0:0:0:
200,32,41847,5,8,1:0:0:0:
328,96,41981,1,2,2:1:0:0:
204,172,42115,1,4,1:2:0:0:
464,232,42383,6,0,P|424:248|368:248,1,85,8|4,1:0|2:3,2:0:0:0:
312,288,42651,2,0,P|240:248|164:244,1,127.5,0|0,2:0|2:0,2:0:0:0:
196,241,42919,2,0,P|156:272|108:280,1,85,8|0,1:0|2:0,2:0:0:0:
268,168,43187,2,0,P|196:204|108:196,1,170,4|8,2:3|1:0,2:0:0:0:
64,256,43588,2,0,L|48:72,1,170,4|4,2:3|2:3,2:0:0:0:
224,36,43990,1,8,1:0:0:0:
216,108,44124,1,4,2:3:0:0:
368,108,44258,6,0,P|360:156|360:208,1,85,4|0,2:3|2:0,2:0:0:0:
224,316,44526,2,0,P|224:272|220:212,1,85,8|0,1:0|2:0,2:0:0:0:
128,108,44794,2,0,P|124:160|124:208,1,85,4|4,2:3|2:3,2:0:0:0:
16,320,45062,2,0,P|72:324|144:324,1,127.5,8|0,1:0|2:0,2:0:0:0:
143,324,45330,5,12,2:3:0:0:
316,328,45463,1,2,2:1:0:0:
228,308,45597,5,8,1:0:0:0:
352,232,45731,1,4,2:3:0:0:
216,192,45865,1,6,1:0:0:0:
356,124,45999,1,4,2:3:0:0:
288,152,46133,5,10,1:0:0:0:
352,232,46267,1,2,1:0:0:0:
316,328,46401,1,6,1:2:0:0:
288,152,46669,5,10,1:2:0:0:
344,240,46803,1,4,2:3:0:0:
312,340,46937,1,2,2:0:0:0:
288,152,47205,5,10,1:2:0:0:
336,248,47338,1,2,2:0:0:0:
308,352,47472,1,2,1:2:0:0:
288,152,47740,5,10,1:2:0:0:
328,256,47874,1,4,2:3:0:0:
304,364,48008,1,2,2:0:0:0:
300,376,48276,5,10,1:2:0:0:
232,256,48410,1,2,2:0:0:0:
324,168,48544,1,2,1:2:0:0:
332,160,48812,5,10,1:2:0:0:
236,264,48946,1,4,2:3:0:0:
104,216,49080,1,2,2:0:0:0:
100,220,49347,5,2,1:2:0:0:
200,140,49481,1,4,2:3:0:0:
320,176,49615,2,0,L|496:168,2,170,2|10|2,1:0|1:0|2:1,2:0:0:0:
320,176,50285,1,8,2:3:0:0:
320,176,50419,1,10,1:0:0:0:
320,176,50553,1,4,2:3:0:0:
108,80,50687,6,0,P|88:160|112:256,1,170,6|8,1:0|1:0,2:0:0:0:
172,208,51088,1,4,2:3:0:0:
232,304,51222,6,0,P|168:308|112:324,2,113.333333333333,2|2|2,2:0|2:0|2:0,2:0:0:0:
368,180,51758,2,0,P|440:192|504:192,2,113.333333333333,2|2|2,1:2|2:0|2:0,2:0:0:0:
152,108,52294,2,0,L|16:124,2,113.333333333333,2|2|2,2:0|2:0|2:0,2:0:0:0:
260,32,52830,6,0,L|252:224,1,170,6|8,1:2|1:0,2:0:0:0:
248,276,53231,1,4,2:3:0:0:
180,248,53365,1,2,2:0:0:0:
296,220,53499,1,4,2:3:0:0:
192,164,53633,1,8,1:0:0:0:
256,248,53767,1,4,2:3:0:0:
256,116,53901,1,12,2:3:0:0:
256,328,54035,5,2,1:0:0:0:
84,240,54303,5,2,1:0:0:0:
352,312,54571,5,2,1:0:0:0:
172,268,54705,1,2,1:0:0:0:
336,248,54838,5,0,2:0:0:0:
188,340,54972,1,4,1:0:0:0:
256,48,62606,5,8,1:0:0:0:
320,272,62874,1,8,1:0:0:0:
320,272,63142,1,8,1:0:0:0:
220,156,63276,1,8,1:0:0:0:
220,300,63410,1,0,2:0:0:0:
288,200,63544,6,0,P|364:168|464:176,1,170,4|0,2:0|1:0,2:0:0:0:
488,240,63946,1,8,2:3:0:0:
416,272,64080,1,0,2:0:0:0:
292,272,64213,1,8,2:3:0:0:
292,272,64280,1,0,2:0:0:0:
292,272,64347,1,0,1:0:0:0:
220,300,64481,1,0,2:0:0:0:
80,248,64615,6,0,P|92:192|88:112,1,127.5,4|4,2:3|2:3,2:0:0:0:
89,122,64883,1,0,1:3:0:0:
192,28,65017,2,0,P|172:108|192:192,1,170,8|8,2:3|2:3,2:0:0:0:
104,336,65419,2,0,P|148:304|164:256,1,85,0|0,1:0|2:0,2:0:0:0:
320,280,65687,5,4,2:3:0:0:
320,280,65821,1,0,2:0:0:0:
320,280,65888,1,4,2:3:0:0:
320,280,65955,2,0,L|216:248,1,85,0|8,1:0|2:3,2:0:0:0:
400,192,66222,2,0,L|488:168,1,85,0|8,2:0|2:3,2:0:0:0:
332,88,66490,2,0,L|216:128,1,85,0|0,1:0|2:0,2:0:0:0:
180,148,66758,5,4,2:3:0:0:
116,100,66892,1,0,2:0:0:0:
188,68,67026,1,0,1:0:0:0:
180,148,67160,1,8,2:3:0:0:
156,312,67428,1,4,2:3:0:0:
216,360,67562,2,0,P|268:364|316:364,1,85,0|0,1:0|2:0,2:0:0:0:
472,304,67830,6,0,P|408:288|336:300,1,127.5,6|0,2:3|2:0,2:0:0:0:
347,295,68097,1,0,1:0:0:0:
320,136,68231,2,0,B|328:220|328:220|276:240|268:304,1,170,8|0,2:3|2:3,2:0:0:0:
216,228,68633,5,0,1:0:0:0:
132,292,68767,1,0,2:0:0:0:
32,272,68901,2,0,L|40:136,1,127.5,4|0,2:3|2:0,2:0:0:0:
39,144,69169,2,0,P|84:120|128:120,1,85,0|8,1:0|2:3,2:0:0:0:
232,28,69437,2,0,L|196:140,1,85,0|8,2:0|2:3,2:0:0:0:
284,252,69705,2,0,P|236:280|184:276,1,85,0|0,1:0|2:0,2:0:0:0:
144,236,69972,5,4,2:3:0:0:
212,192,70106,1,0,2:0:0:0:
212,192,70173,1,4,2:3:0:0:
212,192,70240,1,0,1:0:0:0:
280,148,70374,1,8,2:3:0:0:
136,108,70508,2,0,P|84:100|44:72,1,85,0|0,2:0|2:3,2:0:0:0:
336,52,70776,2,0,L|436:44,1,85,0|0,1:0|2:0,2:0:0:0:
232,28,71044,6,0,P|220:68|232:116,1,85,4|2,2:3|2:3,2:0:0:0:
288,160,71312,1,0,1:0:0:0:
228,212,71446,1,10,2:3:0:0:
300,244,71580,1,4,2:3:0:0:
232,288,71713,5,4,2:3:0:0:
304,320,71847,1,2,1:3:0:0:
376,352,71981,1,4,2:3:0:0:
452,376,72115,2,0,L|432:244,1,127.5,6|0,2:3|2:0,2:0:0:0:
432,249,72383,5,0,1:0:0:0:
408,116,72517,1,8,2:3:0:0:
432,249,72651,1,0,2:0:0:0:
408,116,72785,1,8,2:3:0:0:
432,249,72919,2,0,P|372:260|332:252,1,85,0|0,1:0|2:0,2:0:0:0:
212,196,73187,5,4,2:3:0:0:
280,284,73321,1,0,2:0:0:0:
280,284,73388,1,0,2:0:0:0:
280,284,73455,1,0,1:0:0:0:
200,344,73588,2,0,P|128:304|32:308,1,170,8|0,2:3|2:3,2:0:0:0:
116,228,73990,2,0,L|96:104,1,85,0|0,1:0|2:0,2:0:0:0:
48,44,74258,6,0,P|136:72|184:56,1,127.5,4|4,2:3|2:3,2:0:0:0:
167,64,74526,1,0,1:0:0:0:
256,44,74660,2,0,L|228:160,1,85,8|0,2:3|2:0,2:0:0:0:
272,196,74928,1,8,2:3:0:0:
236,268,75062,1,0,1:0:0:0:
196,200,75196,1,0,2:0:0:0:
316,264,75330,6,0,P|384:268|416:264,1,85,4|0,2:3|2:0,2:0:0:0:
456,220,75597,1,0,1:0:0:0:
388,192,75731,1,8,2:3:0:0:
504,60,75999,1,4,2:3:0:0:
448,104,76133,2,0,P|400:112|344:108,1,85,0|0,1:0|2:0,2:0:0:0:
240,96,76401,6,0,P|184:80|100:92,1,127.5,6|0,2:3|2:0,2:0:0:0:
115,86,76669,1,0,1:0:0:0:
176,184,76803,2,0,P|256:136|344:160,1,170,8|8,2:3|2:3,2:0:0:0:
272,208,77205,5,0,1:0:0:0:
252,136,77338,1,0,2:0:0:0:
328,148,77472,2,0,P|368:160|424:160,1,85,6|0,2:3|2:0,2:0:0:0:
432,156,77673,1,0,2:0:0:0:
452,148,77740,1,0,1:0:0:0:
496,88,77874,1,8,2:3:0:0:
480,224,78008,2,0,L|468:336,1,85,0|8,2:0|2:3,2:0:0:0:
400,276,78276,2,0,L|408:368,1,85,0|0,1:0|2:0,2:0:0:0:
332,368,78544,5,6,2:3:0:0:
184,364,78678,1,0,2:0:0:0:
120,308,78812,1,0,1:0:0:0:
268,304,78946,1,0,2:0:0:0:
328,252,79080,1,2,2:3:0:0:
180,248,79213,1,0,2:0:0:0:
116,192,79347,1,0,1:0:0:0:
264,188,79481,1,0,2:0:0:0:
320,136,79615,6,0,L|316:32,2,85,6|4|0,2:3|2:3|1:0,2:0:0:0:
412,52,80017,2,0,L|404:236,1,170,8|4,2:3|2:3,2:0:0:0:
496,128,80419,2,0,P|496:192|492:240,1,85,0|0,1:0|2:0,2:0:0:0:
300,216,80687,5,4,1:0:0:0:
328,292,80821,1,2,2:0:0:0:
328,292,80888,1,0,3:0:0:0:
328,292,80955,2,0,P|284:280|216:272,1,85,0|2,3:0|2:0,2:0:0:0:
176,132,81222,2,0,P|180:196|192:232,1,85,0|2,3:0|2:0,2:0:0:0:
254,357,81490,2,0,P|250:293|238:257,1,85,0|2,3:0|2:0,2:0:0:0:
112,216,81758,6,0,L|48:204,1,42.5,0|0,3:0|0:0,2:0:0:0:
172,284,81892,1,0,3:0:0:0:
172,284,82026,2,0,L|224:272,1,42.5,0|0,3:0|2:0,2:0:0:0:
96,320,82160,1,0,3:0:0:0:
96,320,82294,2,0,L|32:308,1,42.5,0|0,3:0|2:0,2:0:0:0:
168,368,82428,1,0,3:0:0:0:
168,368,82562,2,0,L|228:356,1,42.5,2|0,3:2|2:0,2:0:0:0:
284,340,82696,1,2,3:2:0:0:
364,360,82830,5,2,1:2:0:0:
424,308,82963,1,2,2:0:0:0:
424,308,83030,1,0,3:0:0:0:
424,308,83097,2,0,P|380:296|336:256,1,85,0|2,3:0|2:0,2:0:0:0:
192,224,83365,2,0,P|244:192|284:184,1,85,0|2,3:0|2:0,2:0:0:0:
328,32,83633,2,0,P|300:80|260:108,1,85,0|2,3:0|2:0,2:0:0:0:
204,124,83901,5,0,3:0:0:0:
204,124,84035,2,0,L|192:72,1,42.5,0|0,3:0|3:0,2:0:0:0:
116,164,84169,1,0,3:0:0:0:
116,164,84303,2,0,L|128:216,1,42.5,0|0,3:0|3:0,2:0:0:0:
236,244,84437,1,0,3:0:0:0:
236,244,84571,2,0,L|224:192,1,42.5,0|0,3:0|3:0,2:0:0:0:
148,284,84705,1,2,3:2:0:0:
148,284,84838,2,0,L|160:336,1,42.5,2|0,3:2|2:0,2:0:0:0:
260,304,84972,6,0,L|192:308,2,42.5,2|0|0,1:2|2:0|3:0,2:0:0:0:
376,292,85240,2,0,L|444:296,2,42.5,2|0|0,1:2|2:0|3:0,2:0:0:0:
232,236,85508,2,0,L|164:240,2,42.5,2|0|0,1:2|2:0|3:0,2:0:0:0:
380,224,85776,2,0,L|448:228,2,42.5,2|0|0,1:2|2:0|3:0,2:0:0:0:
204,168,86044,2,0,L|136:172,2,42.5,2|0|0,1:2|2:0|3:0,2:0:0:0:
384,156,86312,2,0,L|452:160,2,42.5,2|0|0,1:2|2:0|3:0,2:0:0:0:
176,100,86580,2,0,L|108:104,2,42.5,2|0|0,1:2|2:0|3:0,2:0:0:0:
388,88,86847,2,0,L|456:92,2,42.5,2|0|0,1:2|2:0|3:0,2:0:0:0:
320,32,87115,5,2,1:2:0:0:
244,44,87249,1,0,1:0:0:0:
252,120,87383,1,2,1:2:0:0:
328,108,87517,1,0,1:0:0:0:
176,92,87651,5,2,1:2:0:0:
100,104,87785,1,0,1:0:0:0:
108,180,87919,1,2,1:2:0:0:
184,168,88053,1,0,1:0:0:0:
304,272,88187,5,2,1:2:0:0:
236,308,88321,1,0,1:0:0:0:
216,304,88388,1,2,1:2:0:0:
196,300,88455,1,2,1:2:0:0:
208,224,88588,1,2,1:2:0:0:
188,220,88655,1,0,2:0:0:0:
168,216,88722,1,2,1:2:0:0:
172,144,88856,1,2,1:2:0:0:
152,140,88923,1,2,1:2:0:0:
132,136,88990,1,2,1:2:0:0:
52,104,89124,5,0,1:0:0:0:
60,144,89191,1,0,1:0:0:0:
68,184,89258,1,2,2:1:0:0:
228,288,90999,5,12,2:3:0:0:
280,108,91133,1,2,1:3:0:0:
280,108,91401,2,0,P|276:192|288:248,1,127.5,4|0,1:2|2:0,2:0:0:0:
283,234,91668,2,0,P|232:208|168:196,1,85,8|4,1:0|2:3,2:0:0:0:
348,168,91936,2,0,P|416:216|512:196,1,170,0|8,2:0|1:0,2:0:0:0:
498,205,92338,1,0,2:0:0:0:
292,44,92472,6,0,L|100:76,1,170,4|8,2:3|1:0,2:0:0:0:
60,32,92874,2,0,P|36:108|52:204,1,170,4|4,2:3|2:3,2:0:0:0:
112,236,93276,1,8,1:0:0:0:
164,180,93409,1,4,2:3:0:0:
416,192,93543,6,0,P|376:200|324:200,1,85,4|0,2:3|2:0,2:0:0:0:
256,252,93811,2,0,P|256:208|248:168,1,85,8|0,1:0|2:0,2:0:0:0:
204,84,94079,2,0,P|244:92|296:92,1,85,4|4,2:3|2:3,2:0:0:0:
120,52,94347,2,0,L|132:148,1,85,8|4,1:0|2:3,2:0:0:0:
80,344,94615,6,0,L|256:328,1,170,12|8,2:3|1:0,2:0:0:0:
328,320,95017,1,4,2:3:0:0:
404,300,95151,1,2,2:0:0:0:
240,264,95284,1,2,2:1:0:0:
76,228,95418,1,8,1:0:0:0:
464,168,95686,6,0,B|476:137|476:137|448:76,1,85,4|0,1:2|2:0,2:0:0:0:
220,36,95954,2,0,L|252:132,1,85,8|4,1:0|2:3,2:0:0:0:
168,100,96222,1,0,2:0:0:0:
148,28,96356,1,4,2:3:0:0:
92,268,96490,2,0,P|148:244|196:248,1,85,8|0,1:0|2:0,2:0:0:0:
416,184,96758,6,0,P|336:224|236:192,1,170,4|8,2:3|1:0,2:0:0:0:
248,280,97159,2,0,L|208:84,1,170,4|4,2:3|2:3,2:0:0:0:
288,120,97561,2,0,P|336:80|388:76,1,85,8|4,1:0|2:3,2:0:0:0:
140,36,97829,5,4,2:3:0:0:
140,36,98097,1,8,1:0:0:0:
76,76,98231,1,0,2:0:0:0:
144,108,98365,1,4,2:3:0:0:
16,196,98499,5,4,2:3:0:0:
84,232,98633,1,8,1:0:0:0:
16,272,98767,1,4,2:3:0:0:
184,352,98901,5,12,2:3:0:0:
300,360,99034,1,2,2:1:0:0:
156,324,99168,5,8,1:0:0:0:
332,332,99302,1,4,2:3:0:0:
192,264,99436,5,6,1:0:0:0:
244,316,99570,1,4,2:3:0:0:
360,172,99704,5,10,1:0:0:0:
256,188,99838,1,4,2:3:0:0:
152,204,99972,1,4,1:2:0:0:
370,170,100240,5,10,1:2:0:0:
256,187,100374,1,4,2:3:0:0:
141,205,100508,1,2,2:0:0:0:
381,167,100776,5,10,1:2:0:0:
256,187,100909,1,2,2:0:0:0:
130,206,101043,1,2,1:2:0:0:
394,165,101311,5,10,1:2:0:0:
256,186,101445,1,4,2:3:0:0:
117,207,101579,1,2,2:0:0:0:
100,212,101847,5,10,1:2:0:0:
156,128,101981,1,2,2:0:0:0:
212,44,102115,1,2,1:2:0:0:
152,304,102383,5,10,1:2:0:0:
208,220,102517,1,4,2:3:0:0:
264,136,102651,1,2,2:0:0:0:
224,368,102918,5,10,1:2:0:0:
280,284,103052,1,4,2:3:0:0:
336,200,103186,2,0,P|332:116|336:12,2,170,2|10|2,1:0|1:0|2:1,2:0:0:0:
336,200,103856,1,8,2:3:0:0:
336,200,103990,1,10,1:0:0:0:
336,200,104124,1,4,2:3:0:0:
168,36,104258,6,0,P|168:132|164:228,1,170,6|8,1:0|1:0,2:0:0:0:
92,200,104659,1,4,2:3:0:0:
320,292,104793,6,0,P|392:280|424:224,2,113.333333333333,2|2|2,2:0|2:0|2:0,2:0:0:0:
160,360,105329,2,0,P|88:348|56:292,2,113.333333333333,2|2|2,1:2|2:0|2:0,2:0:0:0:
284,176,105865,2,0,L|268:24,2,113.333333333333,2|2|2,1:2|2:0|2:0,2:0:0:0:
228,340,106401,5,6,1:2:0:0:
284,292,106534,1,0,2:0:0:0:
168,256,106668,1,8,1:0:0:0:
328,232,106802,1,4,2:3:0:0:
240,288,106936,1,2,2:0:0:0:
216,160,107070,1,4,2:3:0:0:
320,200,107204,1,8,1:0:0:0:
188,236,107338,1,4,2:3:0:0:
300,336,107472,1,12,2:3:0:0:
136,152,107606,5,2,1:0:0:0:
208,352,107874,5,2,1:0:0:0:
404,252,108142,5,2,1:0:0:0:
332,232,108276,1,2,1:0:0:0:
256,248,108409,1,2,2:1:0:0:
180,240,108543,1,6,1:0:0:0:
112,220,108677,2,0,L|20:232,1,85,2|0,2:1|1:0,2:0:0:0:
188,112,108945,2,0,L|88:132,1,85,2|0,2:1|2:0,2:0:0:0:
248,192,109213,2,0,L|228:292,1,85,2|0,2:1|1:0,2:0:0:0:
296,120,109481,6,0,P|292:216|304:296,1,170,2|2,2:1|2:1,2:0:0:0:
344,352,109883,1,2,1:0:0:0:
420,336,110017,1,2,2:0:0:0:
302,288,110151,2,0,L|172:300,2,127.5,2|2|2,2:1|2:1|2:1,2:0:0:0:
380,276,110686,5,2,2:1:0:0:
452,220,110820,1,2,2:1:0:0:
340,224,110954,1,2,1:2:0:0:
272,136,111088,1,2,2:1:0:0:
396,184,111222,1,2,2:1:0:0:
468,72,111356,1,2,2:1:0:0:
404,112,111490,1,2,1:2:0:0:
332,88,111624,1,2,2:1:0:0:
392,40,111758,5,2,2:1:0:0:
332,88,111892,1,2,2:1:0:0:
404,112,112026,1,2,1:2:0:0:
468,72,112159,1,2,2:1:0:0:
396,184,112293,1,2,2:1:0:0:
272,136,112427,1,2,2:1:0:0:
340,224,112561,1,2,1:2:0:0:
452,220,112695,1,2,2:1:0:0:
384,296,112829,6,0,B|320:296|320:296|288:312|288:312|200:312,1,170,2|2,2:1|1:2,2:0:0:0:
8,216,113231,2,0,P|128:220|188:196,1,170,2|2,2:1|2:1,2:0:0:0:
120,304,113633,2,0,P|48:308|12:320,1,85,2|2,1:2|2:0,2:0:0:0:
376,280,113901,5,2,2:1:0:0:
216,312,114034,2,0,L|307:296,1,85,2|2,2:1|1:2,2:0:0:0:
272,84,114302,2,0,P|224:148|256:244,1,170,2|2,2:1|2:1,2:0:0:0:
312,268,114704,2,0,P|316:224|300:180,1,85,2|0,1:2|2:0,2:0:0:0:
152,200,114972,5,2,2:1:0:0:
176,272,115106,1,2,2:1:0:0:
232,324,115240,1,2,1:2:0:0:
144,300,115374,1,2,2:1:0:0:
208,240,115508,1,2,2:1:0:0:
96,240,115642,1,2,2:1:0:0:
96,352,115776,1,2,1:0:0:0:
208,352,115909,1,2,2:1:0:0:
88,364,116043,5,2,2:0:0:0:
84,236,116177,1,2,2:0:0:0:
84,236,116244,1,2,2:1:0:0:
84,236,116311,1,2,1:2:0:0:
212,224,116445,1,2,2:1:0:0:
280,176,116579,6,0,L|284:272,1,85,4|2,1:3|2:0,2:0:0:0:
464,164,116847,2,0,L|460:68,1,85,0|4,1:0|2:3,2:0:0:0:
396,40,117115,5,6,1:0:0:0:
396,40,117249,1,2,2:0:0:0:
252,44,117383,1,0,1:0:0:0:
280,116,117517,2,0,P|200:120|104:120,1,170,2|2,2:1|2:1,2:0:0:0:
112,188,117918,1,2,1:2:0:0:
112,52,118052,1,0,2:0:0:0:
36,96,118186,5,2,2:1:0:0:
36,96,118320,2,0,P|28:140|36:184,1,85,2|0,2:0|1:0,2:0:0:0:
180,292,118588,2,0,P|220:216|180:128,1,170,2|2,2:1|2:1,2:0:0:0:
352,204,118990,2,0,P|360:160|352:116,1,85,2|0,1:2|2:0,2:0:0:0:
300,64,119258,5,2,2:1:0:0:
144,32,119392,1,2,2:1:0:0:
228,76,119526,5,2,1:2:0:0:
72,100,119659,1,2,2:1:0:0:
176,128,119793,5,0,2:0:0:0:
28,180,119927,1,2,2:1:0:0:
152,200,120061,5,2,1:0:0:0:
20,280,120195,1,2,2:0:0:0:
12,360,120329,5,2,2:1:0:0:
80,224,120463,1,2,2:1:0:0:
20,280,120597,5,2,1:0:0:0:
124,144,120731,1,2,2:1:0:0:
28,180,120865,5,0,2:0:0:0:
148,80,120999,1,2,2:1:0:0:
72,100,121133,5,2,1:0:0:0:
216,40,121267,1,2,2:0:0:0:
256,116,121401,6,0,L|240:288,1,170,2|0,2:1|1:0,2:0:0:0:
200,344,121802,2,0,P|271:354|351:282,1,170,2|2,2:1|2:1,2:0:0:0:
164,216,122204,2,0,P|92:205|12:277,1,170,2|2,1:2|2:1,2:0:0:0:
18,261,122740,5,2,1:0:0:0:
260,216,122874,2,0,L|440:172,1,170,2|2,2:1|2:1,2:0:0:0:
488,212,123276,1,2,1:2:0:0:
504,108,123409,1,0,2:0:0:0:
400,88,123543,5,2,2:1:0:0:
380,92,123610,1,2,2:1:0:0:
360,96,123677,1,0,2:0:0:0:
340,100,123744,1,0,2:0:0:0:
320,104,123811,1,0,1:0:0:0:
300,108,123878,1,0,2:0:0:0:
280,112,123945,1,2,2:0:0:0:
260,116,124012,1,0,2:0:0:0:
240,120,124079,5,2,2:1:0:0:
264,128,124146,1,2,2:1:0:0:
288,136,124213,1,2,2:0:0:0:
312,144,124280,1,0,2:0:0:0:
336,152,124347,1,0,1:0:0:0:
360,160,124414,1,0,2:0:0:0:
384,168,124481,1,0,2:0:0:0:
408,176,124548,1,0,2:0:0:0:
432,184,124615,5,2,2:1:0:0:
404,192,124682,1,2,2:1:0:0:
376,200,124749,1,8,1:0:0:0:
348,208,124816,1,0,2:0:0:0:
320,216,124883,1,2,2:0:0:0:
292,224,124950,1,0,2:0:0:0:
264,232,125017,1,8,1:0:0:0:
236,240,125084,1,0,2:0:0:0:
208,248,125151,5,10,1:0:0:0:
228,220,125217,1,10,2:1:0:0:
196,208,125284,1,8,1:0:0:0:
220,184,125351,1,8,2:0:0:0:
188,180,125418,1,8,1:0:0:0:
204,148,125485,1,8,2:0:0:0:
172,144,125552,2,0,B|208:120|200:56,1,85,0|2,2:0|2:3,2:0:0:0:
256,192,133186,12,12,133990,2:3:0:0:
192,256,134258,6,0,L|316:128,2,170,4|8|0,1:2|1:0|2:0,2:0:0:0:
144,200,134927,1,4,2:3:0:0:
288,252,135061,2,0,L|280:148,1,85,8|0,1:0|2:0,2:0:0:0:
240,340,135329,2,0,P|320:280|400:300,1,170,4|8,2:3|1:0,2:0:0:0:
172,312,135731,2,0,L|60:288,1,85,4|0,2:3|2:0,2:0:0:0:
328,348,135999,1,4,2:3:0:0:
384,290,136133,2,0,L|372:196,1,85,8|4,1:0|2:3,2:0:0:0:
252,84,136401,6,0,B|236:140|256:208|256:208|236:184|200:180,2,170,4|8|4,2:3|1:0|2:3,2:0:0:0:
320,124,137070,1,4,2:3:0:0:
308,44,137204,1,8,1:0:0:0:
384,72,137338,1,4,2:3:0:0:
184,64,137472,6,0,P|136:72|92:88,1,85,12|0,2:3|2:0,2:0:0:0:
88,156,137740,2,0,P|28:192|0:224,1,85,8|4,1:0|2:3,2:0:0:0:
300,160,138008,6,0,L|396:188,1,85,2|2,2:0|2:1,2:0:0:0:
360,24,138276,2,0,L|372:112,1,85,8|2,1:0|2:1,2:0:0:0:
404,340,138543,6,0,P|352:276|260:268,1,170,4|8,1:2|1:0,2:0:0:0:
204,224,138945,1,4,2:3:0:0:
140,264,139079,2,0,L|40:244,1,85,0|4,2:0|2:3,2:0:0:0:
140,360,139347,2,0,P|192:356|240:332,1,85,8|0,1:0|2:0,2:0:0:0:
296,192,139615,2,0,B|296:128|324:92|324:92|312:12,1,170,4|8,2:3|1:0,2:0:0:0:
80,40,140017,6,0,B|60:112|88:160|88:160|148:180,1,170,4|4,2:3|2:3,2:0:0:0:
192,128,140418,1,8,1:0:0:0:
152,64,140552,1,4,2:3:0:0:
48,312,140686,6,0,P|84:328|140:336,1,85,4|0,2:3|2:0,2:0:0:0:
384,280,140954,2,0,P|348:296|292:304,1,85,8|0,1:0|2:0,2:0:0:0:
104,260,141222,2,0,P|56:232|24:184,1,85,4|4,2:3|2:3,2:0:0:0:
324,228,141490,2,0,P|372:200|404:152,1,85,8|4,1:0|2:3,2:0:0:0:
464,40,141758,5,8,2:3:0:0:
500,116,141892,1,0,2:0:0:0:
500,116,141959,1,2,2:0:0:0:
500,116,142026,1,10,1:2:0:0:
472,192,142159,1,2,2:0:0:0:
220,340,142293,5,12,2:3:0:0:
232,268,142427,1,10,1:2:0:0:
368,124,142561,5,0,2:0:0:0:
356,200,142695,1,12,2:3:0:0:
128,152,142829,5,6,1:2:0:0:
128,152,143097,1,10,1:2:0:0:
256,36,143231,1,4,2:3:0:0:
432,64,143365,1,2,2:0:0:0:
432,64,143633,5,10,1:2:0:0:
280,108,143767,1,2,2:0:0:0:
128,152,143901,1,2,1:2:0:0:
128,152,144168,5,10,1:2:0:0:
216,192,144302,1,4,2:3:0:0:
40,264,144436,1,2,2:0:0:0:
40,264,144704,5,10,1:2:0:0:
136,296,144838,1,2,2:0:0:0:
40,104,144972,1,2,1:2:0:0:
40,104,145240,5,10,1:2:0:0:
184,224,145374,1,4,2:3:0:0:
112,52,145508,1,2,2:0:0:0:
104,240,145642,1,4,2:3:0:0:
192,76,145776,1,10,1:2:0:0:
40,184,145909,1,2,2:0:0:0:
224,152,146043,2,0,P|304:152|340:148,1,85,2|4,1:0|2:3,2:0:0:0:
472,240,146311,2,0,P|392:240|356:236,1,85,10|8,1:0|2:3,2:0:0:0:
176,336,146579,2,0,P|224:336|264:332,1,85,2|8,2:1|2:3,2:0:0:0:
148,204,146847,2,0,P|96:208|56:208,1,85,10|4,1:0|2:3,2:0:0:0:
63,208,147115,5,6,1:0:0:0:
256,192,147383,1,8,1:0:0:0:
256,192,147651,2,0,P|288:144|340:116,1,113.333333333333,2|0,2:0|2:0,2:0:0:0:
335,117,147918,2,0,L|248:92,1,56.6666666666667,8|0,1:0|2:0,2:0:0:0:
88,72,148097,5,0,1:0:0:0:
88,72,148186,2,0,B|144:80|144:80|212:40,1,113.333333333333,2|0,1:2|2:0,2:0:0:0:
192,51,148454,2,0,L|160:135,1,56.6666666666667,8|0,1:0|2:0,2:0:0:0:
112,276,148633,5,0,1:0:0:0:
112,276,148722,2,0,P|84:232|108:152,1,113.333333333333,2|0,2:0|2:0,2:0:0:0:
91,173,148990,2,0,L|3:191,1,56.6666666666667,10|0,1:2|2:0,2:0:0:0:
160,216,149168,5,0,1:0:0:0:
160,216,149258,2,0,P|228:188|336:216,1,170,4|8,1:2|1:0,2:0:0:0:
392,240,149659,1,4,2:3:0:0:
376,160,149793,1,2,2:0:0:0:
464,252,149927,1,4,2:3:0:0:
424,104,150061,1,8,1:0:0:0:
512,200,150195,1,4,2:3:0:0:
492,124,150329,1,12,2:3:0:0:
444,176,150463,5,2,1:0:0:0:
136,84,150731,5,2,1:0:0:0:
376,36,150999,5,2,1:0:0:0:
212,156,151133,5,2,1:0:0:0:
304,188,151267,1,0,2:0:0:0:
232,248,151401,1,4,1:2:0:0:
