osu file format v14

[General]
AudioFilename: audio.mp3
AudioLeadIn: 0
PreviewTime: 108275
Countdown: 0
SampleSet: Soft
StackLeniency: 0.7
Mode: 0
LetterboxInBreaks: 0
WidescreenStoryboard: 1

[Editor]
Bookmarks: 51154,104726,147583
DistanceSpacing: 2.2
BeatDivisor: 4
GridSize: 4
TimelineZoom: 2.599999

[Metadata]
Title:In the Black
TitleUnicode:イン・ザ・ブラック
Artist:BUTAOTOME
ArtistUnicode:豚乙女
Creator:Luscent
Version:Dailycare's Expert
Source:東方憑依華 ~ Antinomy of Common Flowers.
Tags:東方project Touhou Project ZUN AoCF Hyouibana th15.5 U2 Uni Akiyama あきやまうに Twilight Frontier Team Shanghai Alice 二ッ岩 マミゾウ Futatsuiwa Mamizou 深緑の狸森にて Shinryoku no Tanuki Mori nite in the deep-green tanuki forest dailycare lude delis mirash ランコ ranko buta otome japanese rock pop video game
BeatmapID:3764362
BeatmapSetID:1833640

[Difficulty]
HPDrainRate:5.2
CircleSize:4
OverallDifficulty:8.8
ApproachRate:9.6
SliderMultiplier:2
SliderTickRate:1

[Events]
//Background and Video events
0,0,"2.jpg",0,0
//Break Periods
2,125888,133481
//Storyboard Layer 0 (Background)
//Storyboard Layer 1 (Fail)
//Storyboard Layer 2 (Pass)
//Storyboard Layer 3 (Foreground)
//Storyboard Layer 4 (Overlay)
//Storyboard Sound Samples

[TimingPoints]
331,267.857142857143,4,2,1,78,1,0
9973,267.857142857143,4,2,1,72,1,0
9973,-117.647058823529,4,2,1,72,0,0
27249,-117.647058823529,4,2,1,58,0,0
28388,-117.647058823529,4,2,1,62,0,0
29405,-117.647058823529,4,2,1,66,0,0
30531,-117.647058823529,4,2,1,70,0,0
37830,267.857142857143,4,2,1,80,1,0
37830,-95.2380952380952,4,2,1,80,0,0
55106,-100,4,2,1,78,0,0
63544,-117.647058823529,4,2,1,68,0,0
80821,-117.647058823529,4,2,1,58,0,0
81959,-117.647058823529,4,2,1,62,0,0
82976,-117.647058823529,4,2,1,66,0,0
84102,-117.647058823529,4,2,1,70,0,0
91401,267.857142857143,4,2,1,80,1,0
91401,-95.2380952380952,4,2,1,80,0,0
108677,-95.2380952380952,4,2,1,78,0,0
133990,-95.2380952380952,4,2,1,50,0,0
134258,-95.2380952380952,4,2,1,80,0,0
151534,-95.2380952380952,4,2,1,78,0,0
152606,-100,4,2,1,78,0,0
168677,-76.9230769230769,4,2,1,78,0,0

[Colours]
Combo1 : 99,66,54
Combo2 : 201,141,52
Combo3 : 156,73,115
Combo4 : 124,156,58

[HitObjects]
133,18,331,5,4,1:0:0:0:
367,176,464,5,2,2:0:0:0:
238,154,598,1,8,1:0:0:0:
114,129,732,1,2,1:2:0:0:
351,257,866,5,0,2:0:0:0:
303,106,1000,1,2,1:2:0:0:
66,198,1134,5,10,1:2:0:0:
117,351,1268,1,0,2:0:0:0:
301,184,1402,5,2,1:2:0:0:
40,26,1536,2,0,L|19:143,1,100,2|8,2:0|1:0,2:0:0:0:
244,350,1804,2,0,L|265:233,1,100,2|0,1:2|2:0,2:0:0:0:
177,288,2072,1,2,1:2:0:0:
209,111,2206,2,0,L|188:228,1,100,8|0,1:0|2:0,2:0:0:0:
315,383,2473,5,2,1:2:0:0:
191,209,2607,2,0,L|208:110,1,100,2|8,2:0|1:0,2:0:0:0:
399,4,2875,2,0,L|381:102,1,100,2|0,1:2|2:0,2:0:0:0:
462,87,3143,1,2,1:2:0:0:
428,276,3277,2,0,L|445:177,1,100,10|0,1:2|2:0,2:0:0:0:
319,13,3545,5,2,1:2:0:0:
364,188,3679,1,2,2:0:0:0:
364,188,3746,1,2,2:0:0:0:
364,188,3813,1,8,1:0:0:0:
39,63,3947,6,0,L|133:96,1,100,2|0,1:2|2:0,2:0:0:0:
227,368,4214,5,2,1:2:0:0:
256,191,4348,5,10,1:2:0:0:
285,16,4482,5,0,1:0:0:0:
236,76,4616,5,0,1:0:0:0:
440,286,4750,5,2,2:0:0:0:
422,155,4884,1,8,1:0:0:0:
406,26,5018,1,2,1:2:0:0:
357,257,5152,5,0,2:0:0:0:
512,178,5286,1,2,1:2:0:0:
342,83,5420,5,10,1:2:0:0:
192,163,5554,1,0,2:0:0:0:
451,226,5688,5,2,1:2:0:0:
272,11,5822,2,0,L|251:125,1,100,2|8,2:0|1:0,2:0:0:0:
492,381,6089,2,0,L|513:267,1,100,2|0,1:2|2:0,2:0:0:0:
482,154,6357,1,2,1:2:0:0:
276,277,6491,2,0,L|297:163,1,100,8|0,1:0|2:0,2:0:0:0:
190,26,6759,5,2,1:2:0:0:
294,178,6893,2,0,L|276:277,1,100,2|8,2:0|1:0,2:0:0:0:
57,366,7161,5,2,1:2:0:0:
0,163,7295,1,2,2:0:0:0:
185,114,7429,2,0,L|220:236,1,100,2|8,1:2|1:0,2:0:0:0:
199,291,7697,1,2,2:0:0:0:
66,122,7831,6,0,L|101:0,1,100,0|0,1:0|2:0,2:0:0:0:
124,173,8098,1,10,1:2:0:0:
363,57,8232,1,2,1:2:0:0:
298,11,8366,5,0,2:0:0:0:
284,178,8500,2,0,L|256:81,1,100,2|10,1:2|1:2,2:0:0:0:
369,136,8768,1,0,2:0:0:0:
479,191,8902,1,0,1:0:0:0:
250,364,9036,5,8,1:0:0:0:
250,364,9170,1,0,2:0:0:0:
266,281,9304,1,8,1:0:0:0:
266,281,9572,1,8,1:0:0:0:
235,204,9706,1,8,1:0:0:0:
235,204,9973,6,0,L|201:20,1,170.000003242493,4|10,1:0|2:0,2:0:0:0:
153,187,10374,1,2,2:0:0:0:
220,122,10508,6,0,L|43:59,1,170.000000000001,0|10,2:0|2:0,2:0:0:0:
153,187,10910,1,2,2:0:0:0:
141,93,11044,6,0,L|-1:214,2,170.000000000001,0|10|0,2:0|2:0|2:0,2:0:0:0:
11,203,11714,1,2,2:0:0:0:
153,187,11848,2,0,P|177:229|181:295,1,85.0000000000003,10|0,2:0|2:0,2:0:0:0:
2,377,12115,6,0,P|16:310|118:271,1,170.000000000001,0|10,2:0|2:0,2:0:0:0:
248,317,12517,1,2,2:0:0:0:
348,195,12651,1,0,2:0:0:0:
348,195,12785,1,0,2:0:0:0:
259,73,12919,2,0,L|280:192,1,85.0000000000003,10|0,2:0|2:0,2:0:0:0:
313,366,13187,1,4,2:3:0:0:
385,325,13388,5,4,2:3:0:0:
385,325,13455,1,8,2:0:0:0:
427,92,13589,1,4,2:3:0:0:
490,147,13856,5,4,2:3:0:0:
319,270,13990,1,8,2:0:0:0:
385,325,14124,1,0,2:0:0:0:
353,112,14258,6,0,L|163:148,1,170.000000000001,2|10,2:0|2:0,2:0:0:0:
112,105,14660,1,2,2:0:0:0:
361,118,14794,6,0,L|171:154,1,170.000000000001,0|10,2:0|2:0,2:0:0:0:
112,105,15196,1,2,2:0:0:0:
369,124,15330,6,0,L|246:149,1,85.0000000000003,0|0,2:0|2:0,2:0:0:0:
202,157,15531,1,2,2:0:0:0:
202,157,15598,1,10,2:0:0:0:
319,52,15731,1,0,2:0:0:0:
274,221,15865,1,2,2:0:0:0:
429,255,15999,1,0,2:0:0:0:
213,368,16133,2,0,P|222:322|219:269,1,85.0000000000003,10|0,2:0|2:0,2:0:0:0:
369,124,16401,6,0,P|360:169|363:223,1,85.0000000000003,2|0,2:0|2:0,2:0:0:0:
454,333,16669,1,10,2:0:0:0:
499,217,16803,1,2,2:0:0:0:
343,290,16937,1,0,2:0:0:0:
371,368,17071,1,0,2:0:0:0:
445,153,17205,1,10,2:0:0:0:
299,80,17339,1,0,2:0:0:0:
206,227,17473,1,2,2:0:0:0:
206,227,17539,1,2,2:0:0:0:
206,227,17606,1,0,2:0:0:0:
276,188,17740,5,8,2:0:0:0:
109,18,17874,1,2,2:0:0:0:
181,49,18008,5,0,2:0:0:0:
79,91,18142,1,2,2:0:0:0:
126,337,18276,5,10,2:0:0:0:
326,254,18410,1,2,2:0:0:0:
151,119,18544,2,0,P|60:152|25:237,1,170.000000000001,2|10,2:0|2:0,2:0:0:0:
203,196,18946,1,2,2:0:0:0:
89,298,19080,6,0,P|50:224|70:144,1,170.000000000001,0|10,2:0|2:0,2:0:0:0:
203,196,19481,1,2,2:0:0:0:
51,226,19615,6,0,P|125:288|216:276,2,170.000000000001,0|10|0,2:0|2:0|2:0,2:0:0:0:
194,286,20285,1,2,2:0:0:0:
132,367,20419,1,10,2:0:0:0:
121,182,20553,1,0,2:0:0:0:
289,251,20687,6,0,L|491:221,1,170.000000000001,0|10,2:0|2:0,2:0:0:0:
261,326,21089,1,2,2:0:0:0:
344,364,21223,1,0,2:0:0:0:
344,364,21356,1,0,2:0:0:0:
194,286,21490,2,0,L|223:195,1,85.0000000000003,10|0,2:0|2:0,2:0:0:0:
286,8,21758,1,4,2:3:0:0:
209,42,21959,5,4,2:3:0:0:
209,42,22026,1,8,2:0:0:0:
296,244,22160,1,4,2:3:0:0:
360,179,22428,5,4,2:3:0:0:
209,42,22562,1,8,2:0:0:0:
286,8,22696,1,0,2:0:0:0:
219,205,22830,6,0,L|45:173,1,170.000000000001,2|10,2:0|2:0,2:0:0:0:
4,241,23231,1,2,2:0:0:0:
227,199,23365,6,0,L|53:167,1,170.000000000001,0|10,2:0|2:0,2:0:0:0:
4,241,23767,1,2,2:0:0:0:
233,192,23901,6,0,L|113:171,1,85.0000000000003,0|0,2:0|2:0,2:0:0:0:
4,241,24169,1,10,2:0:0:0:
118,282,24303,1,2,2:0:0:0:
182,335,24437,5,0,2:0:0:0:
83,356,24571,1,0,2:0:0:0:
230,110,24705,5,10,2:0:0:0:
308,242,24839,1,0,2:0:0:0:
447,190,24973,2,0,L|463:69,1,85.0000000000003,2|0,2:0|2:0,2:0:0:0:
294,4,25240,6,0,L|310:125,1,85.0000000000003,10|0,2:0|2:0,2:0:0:0:
472,365,25508,1,2,2:0:0:0:
472,365,25776,1,10,2:0:0:0:
385,337,25910,1,0,2:0:0:0:
456,283,26044,1,2,2:0:0:0:
218,237,26178,5,2,2:1:0:0:
218,237,26245,1,2,2:0:0:0:
218,237,26312,1,8,2:0:0:0:
371,208,26446,1,2,2:1:0:0:
246,114,26580,1,2,2:1:0:0:
325,69,26714,5,2,2:0:0:0:
260,9,26848,5,10,2:1:0:0:
284,193,26981,1,2,2:1:0:0:
306,376,27115,1,6,1:0:0:0:
235,334,27249,6,0,L|187:347,2,42.5000000000002,2|0|0,2:0|3:0|3:0,2:0:0:0:
81,295,27517,6,0,L|129:308,2,42.5000000000002,2|0|0,2:0|3:0|3:0,2:0:0:0:
22,348,27785,6,0,L|-20:304,2,42.5000000000002,2|0|0,2:0|3:0|3:0,2:0:0:0:
91,377,28053,5,2,2:0:0:0:
185,250,28187,1,0,3:0:0:0:
136,191,28321,5,0,3:0:0:0:
136,191,28388,1,0,3:0:0:0:
136,191,28455,1,0,3:0:0:0:
60,164,28589,5,0,3:0:0:0:
60,164,28656,1,0,3:0:0:0:
60,164,28723,1,0,3:0:0:0:
0,217,28856,5,0,3:0:0:0:
0,217,28923,1,0,3:0:0:0:
0,217,28990,1,2,3:2:0:0:
209,180,29124,1,2,3:2:0:0:
421,142,29258,1,2,1:2:0:0:
504,166,29392,6,0,L|493:223,2,42.5000000000002,2|0|0,2:0|3:0|3:0,2:0:0:0:
438,295,29660,6,0,L|420:252,2,42.5000000000002,2|0|0,2:0|3:0|3:0,2:0:0:0:
471,375,29928,6,0,L|532:388,2,42.5000008106232,2|0|0,2:0|3:0|3:0,2:0:0:0:
512,293,30196,5,2,2:0:0:0:
358,226,30330,1,0,3:0:0:0:
301,171,30464,5,0,3:0:0:0:
301,171,30531,1,0,3:0:0:0:
301,171,30598,1,0,3:0:0:0:
352,110,30731,5,0,3:0:0:0:
352,110,30798,1,0,3:0:0:0:
352,110,30865,1,0,3:0:0:0:
417,167,30999,5,0,3:0:0:0:
417,167,31066,1,0,3:0:0:0:
417,167,31133,1,2,3:2:0:0:
209,121,31267,1,2,3:2:0:0:
1,75,31401,1,2,1:2:0:0:
88,22,31535,6,0,L|103:94,2,42.5000000000002,0|0|2,3:0|3:0|1:2,2:0:0:0:
119,146,31803,1,0,3:0:0:0:
209,121,31937,1,2,1:2:0:0:
225,24,32071,2,0,L|183:32,2,42.5000000000002,0|0|2,3:0|3:0|1:2,2:0:0:0:
88,39,32339,5,0,3:0:0:0:
109,157,32473,1,2,1:2:0:0:
226,175,32606,2,0,L|211:103,2,42.5000000000002,0|0|2,3:0|3:0|1:2,2:0:0:0:
197,23,32874,1,0,3:0:0:0:
73,26,33008,5,2,1:2:0:0:
64,180,33142,2,0,L|105:171,2,42.5000000000002,0|0|2,3:0|3:0|1:2,2:0:0:0:
234,150,33410,1,0,3:0:0:0:
234,150,33477,1,0,3:0:0:0:
234,150,33544,1,2,1:2:0:0:
241,6,33678,6,0,L|199:14,2,42.5000000000002,0|0|2,1:0|1:0|1:2,1:0:0:0:
56,7,33946,2,0,L|71:79,2,42.5000000000002,0|0|2,1:0|1:0|1:2,1:0:0:0:
52,198,34214,2,0,L|93:189,2,42.5000000000002,0|0|2,1:0|1:0|1:2,1:0:0:0:
245,200,34481,2,0,L|230:128,2,42.5000000000002,0|0|2,1:0|1:0|1:2,1:0:0:0:
247,9,34749,5,0,1:0:0:0:
247,9,34816,1,2,1:2:0:0:
247,9,34883,1,2,1:2:0:0:
54,22,35017,1,2,1:2:0:0:
71,213,35151,1,2,1:2:0:0:
254,198,35285,5,2,1:2:0:0:
253,191,35352,1,2,1:2:0:0:
251,184,35419,1,2,1:2:0:0:
250,177,35486,1,0,1:0:0:0:
249,170,35553,1,0,1:0:0:0:
248,163,35620,1,0,1:0:0:0:
247,156,35687,1,2,2:1:0:0:
247,156,37428,5,12,2:3:0:0:
0,305,37562,1,2,1:3:0:0:
0,305,37830,6,0,P|74:294|168:379,1,209.999993591309,4|8,1:2|1:0,2:0:0:0:
236,307,38231,1,4,2:3:0:0:
206,52,38365,6,0,B|249:20|249:20|310:33,1,105,0|4,2:0|2:3,2:0:0:0:
471,353,38633,2,0,B|397:370|397:370|292:313,1,157.5,8|0,1:0|2:0,2:0:0:0:
325,331,38901,2,0,L|348:207,1,105,4|0,2:3|2:0,2:0:0:0:
417,278,39169,1,8,1:0:0:0:
360,80,39303,5,4,2:3:0:0:
308,144,39437,1,0,2:0:0:0:
502,262,39571,1,4,2:3:0:0:
436,40,39705,1,8,1:0:0:0:
231,175,39838,1,4,2:3:0:0:
449,205,39972,6,0,L|493:83,1,105,4|0,2:3|2:0,2:0:0:0:
294,32,40240,1,8,1:0:0:0:
240,91,40374,1,0,2:0:0:0:
266,273,40508,6,0,L|231:175,1,105,4|4,2:3|2:3,2:0:0:0:
377,221,40776,1,8,1:0:0:0:
431,280,40910,1,4,2:3:0:0:
161,344,41044,6,0,B|151:294|151:294|189:218,1,105,12|0,2:3|2:0,2:0:0:0:
345,286,41312,2,0,B|355:336|355:336|317:412,1,105,8|4,1:0|2:3,2:0:0:0:
260,343,41580,1,2,2:0:0:0:
75,210,41713,5,2,2:1:0:0:
91,289,41847,1,8,1:0:0:0:
294,148,41981,5,2,2:1:0:0:
273,72,42115,2,0,P|170:60|97:144,1,210,4|8,1:2|1:0,2:0:0:0:
256,220,42517,2,0,P|359:208|432:292,1,210,4|4,2:3|2:3,2:0:0:0:
184,379,42919,6,0,L|202:264,1,105,8|0,1:0|2:0,2:0:0:0:
180,196,43187,1,4,2:3:0:0:
180,196,43455,1,8,1:0:0:0:
350,105,43588,5,4,2:3:0:0:
326,186,43722,1,0,2:0:0:0:
144,117,43856,5,4,2:3:0:0:
291,34,43990,1,8,1:0:0:0:
404,165,44124,1,4,2:3:0:0:
257,234,44258,2,0,B|139:209|173:291|45:265,1,210,4|8,2:3|1:0,2:0:0:0:
30,92,44660,5,0,2:0:0:0:
30,92,44794,2,0,L|1:212,1,105,4|4,2:3|2:3,2:0:0:0:
165,384,45062,2,0,L|194:264,1,105,8|4,1:0|2:3,2:0:0:0:
365,60,45330,5,12,2:3:0:0:
242,93,45463,1,2,2:1:0:0:
255,134,45530,1,2,2:0:0:0:
269,175,45597,1,8,1:0:0:0:
145,203,45731,1,4,2:3:0:0:
325,349,45865,5,6,1:0:0:0:
413,123,45999,1,4,2:3:0:0:
187,35,46133,1,10,1:0:0:0:
99,261,46267,1,2,1:0:0:0:
422,384,46401,6,0,L|382:240,1,105,6|0,1:2|2:0,2:0:0:0:
112,0,46669,5,10,1:2:0:0:
0,79,46803,1,4,2:3:0:0:
139,119,46937,1,2,2:0:0:0:
74,159,47071,1,4,2:3:0:0:
75,71,47205,5,10,1:2:0:0:
115,227,47338,1,2,2:0:0:0:
152,384,47472,1,2,1:2:0:0:
76,358,47606,1,0,2:0:0:0:
192,208,47740,5,10,1:2:0:0:
317,253,47874,1,4,2:3:0:0:
271,384,48008,1,2,2:0:0:0:
212,331,48142,5,4,2:3:0:0:
265,173,48276,1,10,1:2:0:0:
116,117,48410,1,2,2:0:0:0:
62,268,48544,1,2,1:2:0:0:
216,239,48678,1,0,2:3:0:0:
40,78,48812,5,10,1:2:0:0:
146,293,48946,1,4,2:3:0:0:
344,175,49080,2,0,L|342:43,1,105,2|4,2:0|2:3,2:0:0:0:
211,0,49347,5,2,1:2:0:0:
211,0,49481,1,4,2:3:0:0:
138,46,49615,5,2,1:0:0:0:
392,152,49749,1,4,2:3:0:0:
226,80,49883,5,10,1:0:0:0:
26,174,50017,1,8,2:3:0:0:
312,113,50151,5,2,2:1:0:0:
427,74,50285,1,8,2:3:0:0:
162,140,50419,5,10,1:0:0:0:
84,107,50553,1,4,2:3:0:0:
105,180,50687,2,0,L|287:152,1,157.5,6|0,1:0|2:0,2:0:0:0:
265,163,50955,2,0,L|135:135,1,105,8|4,1:0|2:3,2:0:0:0:
19,282,51222,6,0,L|121:304,1,105,2|4,2:0|2:3,2:0:0:0:
121,304,51423,1,2,2:0:0:0:
121,304,51490,1,8,1:0:0:0:
209,374,51624,1,2,2:0:0:0:
334,247,51758,1,2,1:2:0:0:
238,281,51892,1,2,2:0:0:0:
238,281,51959,1,2,2:0:0:0:
238,281,52026,1,8,1:0:0:0:
155,82,52160,5,4,2:3:0:0:
262,195,52294,1,2,2:0:0:0:
422,149,52428,1,4,2:3:0:0:
316,126,52562,5,10,1:2:0:0:
185,224,52696,1,4,2:3:0:0:
34,177,52830,2,0,P|7:124|123:23,1,210,6|8,1:2|1:0,2:0:0:0:
199,148,53231,5,4,2:3:0:0:
337,46,53365,2,0,L|229:76,1,105,2|4,2:0|2:3,2:0:0:0:
28,254,53633,5,8,1:0:0:0:
259,222,53767,5,4,2:3:0:0:
485,255,53901,5,12,2:3:0:0:
270,378,54035,5,2,1:0:0:0:
270,378,54169,1,4,2:3:0:0:
229,304,54303,1,2,1:0:0:0:
229,304,54571,1,2,1:0:0:0:
259,222,54705,1,2,1:0:0:0:
259,222,54972,5,4,1:0:0:0:
453,341,55106,5,2,2:0:0:0:
303,313,55240,1,8,1:0:0:0:
154,283,55374,1,2,1:2:0:0:
349,121,55508,5,0,2:0:0:0:
393,286,55642,1,2,1:2:0:0:
191,370,55776,5,10,1:2:0:0:
142,199,55910,1,0,2:0:0:0:
340,221,56044,5,2,1:2:0:0:
84,353,56178,2,0,L|54:242,1,100,2|8,2:0|1:0,2:0:0:0:
244,9,56446,2,0,L|274:120,1,100,2|0,1:2|2:0,2:0:0:0:
186,88,56713,1,2,1:2:0:0:
241,271,56847,2,0,L|215:175,1,100,8|0,1:0|2:0,2:0:0:0:
331,12,57115,5,2,1:2:0:0:
215,175,57249,2,0,L|241:271,1,100,2|8,2:0|1:0,2:0:0:0:
500,373,57517,2,0,L|473:276,1,100,2|0,1:2|2:0,2:0:0:0:
408,335,57785,1,2,1:2:0:0:
358,150,57919,2,0,L|385:247,1,100,8|0,1:0|2:0,2:0:0:0:
188,366,58187,5,2,1:2:0:0:
385,247,58321,2,0,L|358:150,1,100,2|8,2:0|1:0,2:0:0:0:
57,260,58588,6,0,L|153:233,1,100,2|0,1:2|2:0,2:0:0:0:
227,16,58856,5,2,1:2:0:0:
256,191,58990,5,10,1:2:0:0:
285,368,59124,5,0,1:0:0:0:
236,308,59258,5,0,1:0:0:0:
337,163,59392,5,2,2:0:0:0:
200,126,59526,1,8,1:0:0:0:
61,83,59660,1,2,1:2:0:0:
256,191,59794,5,0,2:0:0:0:
351,86,59928,1,2,1:2:0:0:
115,152,60062,5,10,1:2:0:0:
24,243,60196,1,0,2:0:0:0:
280,266,60330,5,2,1:2:0:0:
69,11,60463,2,0,L|51:113,1,100,2|8,2:0|1:0,2:0:0:0:
177,354,60731,2,0,L|194:255,1,100,2|0,1:2|2:0,2:0:0:0:
267,350,60999,1,2,1:2:0:0:
297,167,61133,2,0,L|279:265,1,100,8|0,1:0|2:0,2:0:0:0:
88,358,61401,5,2,1:2:0:0:
279,265,61535,2,0,L|297:167,1,100,2|8,2:0|1:0,2:0:0:0:
136,19,61803,5,2,1:2:0:0:
13,147,61937,1,2,2:0:0:0:
203,190,62071,2,0,L|185:91,1,100,2|8,1:2|1:0,2:0:0:0:
104,97,62338,1,0,2:0:0:0:
281,139,62472,5,0,1:0:0:0:
458,63,62606,5,8,1:0:0:0:
458,63,62740,1,0,2:0:0:0:
377,38,62874,1,8,1:0:0:0:
377,38,63142,1,8,1:0:0:0:
300,63,63276,1,8,1:0:0:0:
300,63,63544,6,0,L|263:269,1,170.000003242493,4|0,2:0|1:0,2:0:0:0:
212,290,63946,1,8,2:3:0:0:
212,290,64213,1,8,2:3:0:0:
135,252,64347,1,0,1:0:0:0:
198,190,64481,1,0,2:0:0:0:
397,274,64615,5,4,2:3:0:0:
397,274,64816,1,4,2:3:0:0:
397,274,64883,1,0,1:3:0:0:
456,333,65017,1,8,2:3:0:0:
377,358,65151,1,0,2:0:0:0:
322,300,65285,1,8,2:3:0:0:
491,135,65419,1,0,1:0:0:0:
422,95,65687,5,4,2:3:0:0:
375,157,65888,1,4,2:3:0:0:
375,157,65955,1,0,1:0:0:0:
327,219,66088,1,8,2:3:0:0:
188,130,66222,1,0,2:0:0:0:
188,130,66356,1,8,2:3:0:0:
284,5,66490,1,0,1:0:0:0:
314,76,66758,5,4,2:3:0:0:
314,76,67026,1,0,1:0:0:0:
165,58,67160,1,8,2:3:0:0:
165,58,67428,1,4,2:3:0:0:
12,35,67562,1,0,1:0:0:0:
12,35,67830,6,0,L|45:235,1,170.000000000001,6|0,2:3|1:0,2:0:0:0:
116,240,68231,1,8,2:3:0:0:
116,240,68499,1,0,2:3:0:0:
181,183,68633,1,0,1:0:0:0:
109,142,68767,1,0,2:0:0:0:
36,352,68901,5,4,2:3:0:0:
36,352,69169,1,0,1:0:0:0:
181,334,69303,1,8,2:3:0:0:
181,334,69571,1,8,2:3:0:0:
332,309,69705,1,0,1:0:0:0:
260,277,69972,5,4,2:3:0:0:
319,228,70173,1,4,2:3:0:0:
319,228,70240,1,0,1:0:0:0:
381,180,70374,1,8,2:3:0:0:
512,261,70508,1,0,2:0:0:0:
512,261,70642,1,0,2:3:0:0:
393,361,70776,1,0,1:0:0:0:
407,283,71044,5,4,2:3:0:0:
237,203,71178,1,2,2:3:0:0:
237,203,71245,1,4,2:3:0:0:
237,203,71312,1,0,1:0:0:0:
222,279,71446,1,10,2:3:0:0:
213,359,71580,1,4,2:3:0:0:
198,283,71713,1,4,2:3:0:0:
252,198,71847,5,2,1:3:0:0:
294,354,71981,1,4,2:3:0:0:
135,328,72115,2,0,L|171:130,1,170.000000000001,6|0,2:3|1:0,2:0:0:0:
96,126,72517,1,8,2:3:0:0:
96,126,72785,1,8,2:3:0:0:
39,185,72919,1,0,1:0:0:0:
112,223,73053,1,0,2:0:0:0:
271,94,73187,5,4,2:3:0:0:
348,72,73321,1,0,2:0:0:0:
370,154,73455,1,0,1:0:0:0:
290,171,73588,1,8,2:3:0:0:
290,171,73856,5,0,2:3:0:0:
166,81,73990,1,0,1:0:0:0:
241,61,74258,5,4,2:3:0:0:
221,142,74459,1,4,2:3:0:0:
221,142,74526,1,0,1:0:0:0:
202,219,74660,1,8,2:3:0:0:
353,288,74794,1,0,2:0:0:0:
353,288,74928,1,8,2:3:0:0:
398,136,75062,1,0,1:0:0:0:
329,171,75330,5,4,2:3:0:0:
329,171,75597,1,0,1:0:0:0:
402,353,75731,1,8,2:3:0:0:
402,353,75999,1,4,2:3:0:0:
512,199,76133,1,0,1:0:0:0:
512,199,76401,6,0,L|328:254,1,170.000000000001,6|0,2:3|1:0,2:0:0:0:
288,303,76803,1,8,2:3:0:0:
288,303,77071,1,8,2:3:0:0:
265,223,77205,1,0,1:0:0:0:
246,146,77338,1,0,2:0:0:0:
64,167,77472,6,0,L|215:209,1,127.5,6|0,2:3|2:0,2:0:0:0:
192,215,77740,1,0,1:0:0:0:
324,157,77874,1,8,2:3:0:0:
218,76,78008,1,0,2:0:0:0:
156,127,78142,1,8,2:3:0:0:
309,233,78276,1,0,1:0:0:0:
309,233,78544,6,0,L|416:213,1,85.0000000000003,6|0,2:3|2:0,2:0:0:0:
487,198,78812,1,0,1:0:0:0:
208,302,79080,6,0,L|101:282,1,85.0000000000003,2|0,2:3|2:0,2:0:0:0:
32,266,79347,1,0,1:0:0:0:
316,356,79615,5,6,2:3:0:0:
391,344,79749,1,4,2:3:0:0:
316,338,79883,1,0,1:0:0:0:
390,328,80017,1,8,2:3:0:0:
317,318,80151,1,0,2:3:0:0:
317,318,80285,1,4,2:3:0:0:
391,309,80419,1,0,1:0:0:0:
206,8,80687,5,4,1:0:0:0:
147,67,80821,6,0,L|160:115,2,42.5000000000002,2|0|0,2:0|3:0|3:0,2:0:0:0:
75,190,81088,6,0,L|88:142,2,42.5000000000002,2|0|0,2:0|3:0|3:0,2:0:0:0:
5,247,81356,6,0,L|24:294,2,42.5000000000002,2|0|0,2:0|3:0|3:0,2:0:0:0:
0,158,81624,5,2,2:0:0:0:
151,217,81758,1,0,3:0:0:0:
225,180,81892,5,0,3:0:0:0:
225,180,81959,1,0,3:0:0:0:
225,180,82026,1,0,3:0:0:0:
277,121,82160,5,0,3:0:0:0:
277,121,82227,1,0,3:0:0:0:
277,121,82294,1,0,3:0:0:0:
298,44,82428,5,0,3:0:0:0:
298,44,82495,1,0,3:0:0:0:
298,44,82562,1,2,3:2:0:0:
323,212,82696,1,2,3:2:0:0:
347,384,82830,1,2,1:2:0:0:
280,330,82963,6,0,L|291:273,2,42.5000000000002,2|0|0,2:0|3:0|3:0,2:0:0:0:
194,328,83231,6,0,L|212:371,2,42.5000000000002,2|0|0,2:0|3:0|3:0,2:0:0:0:
118,291,83499,6,0,L|52:248,2,42.5000000000002,2|0|0,2:0|3:0|3:0,2:0:0:0:
74,361,83767,5,2,2:0:0:0:
220,256,83901,1,0,3:0:0:0:
251,184,84035,5,0,3:0:0:0:
251,184,84102,1,0,3:0:0:0:
251,184,84169,1,0,3:0:0:0:
185,131,84303,5,0,3:0:0:0:
185,131,84370,1,0,3:0:0:0:
185,131,84437,1,0,3:0:0:0:
112,162,84571,5,0,3:0:0:0:
112,162,84638,1,0,3:0:0:0:
112,162,84705,1,2,3:2:0:0:
314,130,84838,1,2,3:2:0:0:
507,93,84972,1,2,1:2:0:0:
427,20,85106,6,0,L|412:92,2,42.5000000000002,0|0|2,3:0|3:0|1:2,2:0:0:0:
396,148,85374,1,0,3:0:0:0:
296,128,85508,1,2,1:2:0:0:
282,20,85642,2,0,L|324:28,2,42.5000000000002,0|0|2,3:0|3:0|1:2,2:0:0:0:
428,42,85910,5,0,3:0:0:0:
409,163,86044,1,2,1:2:0:0:
275,177,86178,2,0,L|290:105,2,42.5000000000002,0|0|2,3:0|3:0|1:2,2:0:0:0:
310,20,86446,1,0,3:0:0:0:
439,39,86580,5,2,1:2:0:0:
454,188,86713,2,0,L|413:179,2,42.5000000000002,0|0|2,3:0|3:0|1:2,2:0:0:0:
266,146,86981,1,0,3:0:0:0:
266,146,87048,1,0,3:0:0:0:
266,146,87115,1,2,1:2:0:0:
257,0,87249,6,0,L|299:8,2,42.5000000000002,0|0|2,1:0|1:0|1:2,2:0:0:0:
461,0,87517,2,0,L|446:72,2,42.5000000000002,0|0|2,1:0|1:0|1:2,2:0:0:0:
466,202,87785,2,0,L|425:193,2,42.5000000000002,0|0|2,1:0|1:0|1:2,2:0:0:0:
240,196,88053,2,0,L|255:124,2,42.5000000000002,0|0|2,1:0|1:0|1:2,2:0:0:0:
257,0,88321,5,0,1:0:0:0:
257,0,88388,1,2,1:2:0:0:
257,0,88455,1,2,1:2:0:0:
460,22,88588,1,2,1:2:0:0:
433,217,88722,1,2,1:2:0:0:
223,189,88856,5,2,1:2:0:0:
224,182,88923,1,2,1:2:0:0:
225,175,88990,1,2,1:2:0:0:
226,168,89057,1,0,1:0:0:0:
227,161,89124,1,0,1:0:0:0:
228,154,89191,1,0,1:0:0:0:
230,147,89258,1,2,2:1:0:0:
230,147,90999,5,12,2:3:0:0:
512,305,91133,1,2,1:3:0:0:
512,305,91401,6,0,P|454:335|353:224,1,209.999993591309,4|8,1:2|1:0,2:0:0:0:
281,307,91802,1,4,2:3:0:0:
499,99,91936,6,0,B|514:44|514:44|467:-26,1,105,0|4,2:0|2:3,2:0:0:0:
110,117,92204,6,0,B|89:194|89:194|144:287,1,157.5,8|0,1:0|2:0,2:0:0:0:
128,260,92472,2,0,L|257:238,1,105,4|0,2:3|2:0,2:0:0:0:
301,189,92740,1,8,1:0:0:0:
156,344,92874,5,4,2:3:0:0:
73,320,93008,1,0,2:0:0:0:
176,167,93142,1,4,2:3:0:0:
356,243,93276,1,8,1:0:0:0:
245,384,93409,1,4,2:3:0:0:
77,237,93543,6,0,L|98:111,1,105,4|0,2:3|2:0,2:0:0:0:
328,38,93811,1,8,1:0:0:0:
250,13,93945,1,0,2:0:0:0:
332,166,94079,6,0,L|311:40,1,105,4|4,2:3|2:3,2:0:0:0:
84,115,94347,1,8,1:0:0:0:
162,90,94481,1,4,2:3:0:0:
258,321,94615,6,0,B|278:273|278:273|266:221,1,105,12|0,2:3|2:0,2:0:0:0:
94,133,94883,2,0,B|73:180|73:180|85:232,1,105,8|4,1:0|2:3,2:0:0:0:
163,209,95151,1,2,2:0:0:0:
360,247,95284,5,2,2:1:0:0:
344,336,95418,1,8,1:0:0:0:
224,151,95552,5,2,2:1:0:0:
291,98,95686,2,0,P|375:94|450:192,1,210,4|8,1:2|1:0,2:0:0:0:
248,237,96088,2,0,P|164:233|89:331,1,210,4|4,2:3|2:3,2:0:0:0:
158,363,96490,1,8,1:0:0:0:
211,304,96624,1,0,2:0:0:0:
146,158,96758,1,4,2:3:0:0:
146,158,97026,5,8,1:0:0:0:
12,105,97159,5,4,2:3:0:0:
60,170,97293,1,0,2:0:0:0:
128,15,97427,5,4,2:3:0:0:
46,29,97561,1,8,1:0:0:0:
178,81,97695,5,4,2:3:0:0:
304,3,97829,6,0,P|367:20|396:141,1,157.5,4|0,2:3|2:0,2:0:0:0:
403,120,98097,1,8,1:0:0:0:
246,252,98231,2,0,L|226:143,1,105,0|4,2:0|2:3,2:0:0:0:
471,185,98499,1,4,2:3:0:0:
471,185,98633,2,0,L|451:294,1,105,8|4,1:0|2:3,2:0:0:0:
325,191,98901,5,12,2:3:0:0:
165,260,99034,1,2,2:1:0:0:
165,260,99101,1,2,2:0:0:0:
165,260,99168,1,8,1:0:0:0:
43,117,99302,1,4,2:3:0:0:
21,192,99436,5,6,1:0:0:0:
201,151,99570,1,4,2:3:0:0:
486,274,99704,5,10,1:0:0:0:
403,292,99838,1,4,2:3:0:0:
139,361,99972,6,0,L|175:218,1,105,4|0,1:2|2:0,2:0:0:0:
403,0,100240,5,10,1:2:0:0:
386,163,100374,1,4,2:3:0:0:
512,74,100508,1,2,2:0:0:0:
464,135,100642,1,4,2:3:0:0:
340,57,100776,5,10,1:2:0:0:
445,215,100909,1,2,2:0:0:0:
309,342,101043,1,2,1:2:0:0:
265,270,101177,1,0,2:0:0:0:
512,294,101311,5,10,1:2:0:0:
386,369,101445,1,4,2:3:0:0:
331,225,101579,1,2,2:0:0:0:
396,272,101713,5,4,2:3:0:0:
511,156,101847,1,10,1:2:0:0:
376,79,101981,1,2,2:0:0:0:
261,192,102115,1,2,1:2:0:0:
402,160,102249,1,0,2:0:0:0:
300,36,102383,5,10,1:2:0:0:
305,260,102517,1,4,2:3:0:0:
185,130,102651,2,0,L|187:-16,1,105,2|4,2:0|2:3,2:0:0:0:
306,125,102918,5,10,1:2:0:0:
306,125,103052,1,4,2:3:0:0:
261,192,103186,5,2,1:0:0:0:
31,79,103320,1,4,2:3:0:0:
192,241,103454,5,10,1:0:0:0:
387,160,103588,1,8,2:3:0:0:
186,163,103722,5,2,2:1:0:0:
68,212,103856,1,8,2:3:0:0:
226,313,103990,5,10,1:0:0:0:
302,340,104124,1,4,2:3:0:0:
162,361,104258,2,0,P|57:357|19:267,1,210,6|8,1:0|1:0,2:0:0:0:
68,212,104659,1,4,2:3:0:0:
175,18,104793,6,0,L|197:138,1,105,2|4,2:0|2:3,2:0:0:0:
193,121,104994,1,2,2:0:0:0:
193,121,105061,1,8,1:0:0:0:
112,109,105195,1,2,2:0:0:0:
259,186,105329,1,2,1:2:0:0:
344,163,105463,1,2,2:0:0:0:
344,163,105530,1,2,2:0:0:0:
344,163,105597,1,8,1:0:0:0:
490,299,105731,5,4,2:3:0:0:
324,246,105865,1,2,2:0:0:0:
214,370,105999,1,4,2:3:0:0:
326,334,106133,5,10,1:2:0:0:
178,211,106267,1,4,2:3:0:0:
12,268,106401,2,0,P|-16:201|102:126,1,210,6|8,1:2|1:0,2:0:0:0:
260,229,106802,5,4,2:3:0:0:
224,384,106936,2,0,L|208:280,1,105,2|4,2:0|2:3,2:0:0:0:
278,15,107204,5,8,1:0:0:0:
246,151,107338,5,4,2:3:0:0:
290,303,107472,5,12,2:3:0:0:
139,365,107606,5,2,1:0:0:0:
139,365,107740,1,4,2:3:0:0:
71,308,107874,1,2,1:0:0:0:
71,308,108142,1,2,1:0:0:0:
52,321,108276,5,2,1:0:0:0:
155,350,108409,1,2,2:1:0:0:
231,208,108543,5,6,1:0:0:0:
143,250,108677,1,2,2:1:0:0:
143,250,108945,1,2,2:1:0:0:
143,250,109213,1,2,2:1:0:0:
143,250,109481,1,2,2:1:0:0:
143,250,109749,5,2,2:1:0:0:
163,142,109883,1,2,1:0:0:0:
272,163,110017,1,2,2:0:0:0:
209,206,110151,5,2,2:1:0:0:
245,33,110351,1,2,2:1:0:0:
245,33,110418,1,2,1:2:0:0:
81,4,110552,1,2,2:1:0:0:
44,79,110686,5,2,2:1:0:0:
149,53,110820,1,2,2:1:0:0:
204,172,110954,1,2,1:2:0:0:
128,141,111088,1,2,2:1:0:0:
18,236,111222,1,2,2:1:0:0:
97,211,111356,1,2,2:1:0:0:
37,156,111490,5,2,1:2:0:0:
80,295,111624,1,2,2:1:0:0:
215,252,111758,1,2,2:1:0:0:
196,332,111892,5,2,2:1:0:0:
299,232,112026,1,2,1:2:0:0:
347,367,112159,1,2,2:1:0:0:
281,331,112293,5,2,2:1:0:0:
383,297,112427,1,2,2:1:0:0:
454,318,112561,1,2,1:2:0:0:
508,169,112695,5,2,2:1:0:0:
435,200,112829,1,2,2:1:0:0:
435,200,113097,1,2,1:2:0:0:
384,135,113231,1,2,2:1:0:0:
316,168,113499,5,2,2:1:0:0:
210,115,113633,1,2,1:2:0:0:
210,115,113767,1,2,2:0:0:0:
267,56,113901,5,2,2:1:0:0:
251,223,114034,1,2,2:1:0:0:
130,102,114168,1,2,1:2:0:0:
246,297,114302,1,2,2:1:0:0:
317,265,114570,5,2,2:1:0:0:
105,173,114704,1,2,1:2:0:0:
128,248,114972,5,2,2:1:0:0:
28,151,115106,1,2,2:1:0:0:
137,99,115240,1,2,1:2:0:0:
61,73,115374,5,2,2:1:0:0:
200,141,115508,1,2,2:1:0:0:
270,14,115642,1,2,2:1:0:0:
335,81,115776,1,2,1:0:0:0:
419,52,115909,1,2,2:1:0:0:
486,196,116043,5,2,2:0:0:0:
377,158,116177,1,2,2:0:0:0:
377,158,116244,1,2,2:1:0:0:
377,158,116311,1,2,1:2:0:0:
305,251,116445,1,2,2:1:0:0:
415,289,116579,1,4,1:3:0:0:
461,222,116713,1,2,2:0:0:0:
457,191,116780,1,8,2:3:0:0:
453,160,116847,1,0,1:0:0:0:
510,104,116981,1,4,2:3:0:0:
337,0,117115,5,6,1:0:0:0:
198,37,117249,1,2,2:0:0:0:
299,129,117383,1,0,1:0:0:0:
440,81,117517,1,2,2:1:0:0:
440,81,117784,5,2,2:1:0:0:
274,56,117918,1,2,1:2:0:0:
274,56,118186,5,2,2:1:0:0:
116,117,118320,1,2,2:0:0:0:
254,220,118454,1,0,1:0:0:0:
420,151,118588,1,2,2:1:0:0:
420,151,118856,5,2,2:1:0:0:
195,127,118990,1,2,1:2:0:0:
195,127,119258,5,2,2:1:0:0:
161,228,119392,1,2,2:1:0:0:
266,277,119526,1,2,1:2:0:0:
303,165,119659,1,2,2:1:0:0:
111,153,119793,5,0,2:0:0:0:
195,307,119927,1,2,2:1:0:0:
345,238,120061,1,2,1:0:0:0:
275,84,120195,1,2,2:0:0:0:
88,234,120329,5,2,2:1:0:0:
223,287,120463,5,2,2:1:0:0:
333,187,120597,1,2,1:0:0:0:
195,139,120731,1,2,2:1:0:0:
155,320,120865,5,0,2:0:0:0:
116,159,120999,1,2,2:1:0:0:
289,113,121133,1,2,1:0:0:0:
335,283,121267,1,2,2:0:0:0:
23,255,121401,5,2,2:1:0:0:
23,255,121802,1,2,2:1:0:0:
23,255,122070,1,2,2:1:0:0:
23,255,122204,1,2,1:2:0:0:
489,129,122472,5,2,2:1:0:0:
489,129,122740,1,2,1:0:0:0:
489,129,122874,1,2,2:1:0:0:
489,129,123142,1,2,2:1:0:0:
489,129,123276,1,2,1:2:0:0:
229,10,123543,6,0,L|240:73,7,52.4999983978272,2|2|0|0|0|0|2|0,2:1|2:1|2:0|2:0|1:0|2:0|2:0|2:0,2:0:0:0:
370,145,124079,6,0,L|304:125,7,52.4999983978272,2|2|2|0|0|0|0|0,2:1|2:1|2:0|2:0|1:0|2:0|2:0|2:0,2:0:0:0:
181,208,124615,6,0,L|230:153,7,52.4999983978272,2|2|8|0|2|0|8|0,2:1|2:1|1:0|2:0|2:0|2:0|1:0|2:0,2:0:0:0:
250,302,125151,5,2,1:0:0:0:
251,309,125217,1,2,2:1:0:0:
253,318,125284,1,8,1:0:0:0:
255,326,125351,1,0,2:0:0:0:
256,334,125418,1,8,1:0:0:0:
258,343,125485,1,0,2:0:0:0:
260,351,125552,1,0,2:0:0:0:
261,359,125619,1,0,2:0:0:0:
256,384,125686,5,2,2:3:0:0:
256,384,133990,5,12,2:3:0:0:
256,384,134258,6,0,P|310:323|443:350,1,210,4|8,1:2|1:0,2:0:0:0:
470,271,134659,1,4,2:3:0:0:
380,11,134793,6,0,B|350:55|350:55|370:131,1,105,0|4,2:0|2:3,2:0:0:0:
77,288,135061,6,0,L|248:268,1,157.5,8|0,1:0|2:0,2:0:0:0:
233,269,135329,2,0,B|191:231|191:231|133:257,1,105,4|0,2:3|2:0,2:0:0:0:
0,322,135597,1,8,1:0:0:0:
82,202,135731,5,4,2:3:0:0:
125,277,135865,1,0,2:0:0:0:
0,181,135999,1,4,2:3:0:0:
153,122,136133,1,8,1:0:0:0:
276,222,136267,1,4,2:3:0:0:
44,113,136401,6,0,L|64:7,1,105,4|0,2:3|2:0,2:0:0:0:
341,140,136668,1,8,1:0:0:0:
320,60,136802,1,0,2:0:0:0:
276,222,136936,6,0,L|256:116,1,105,4|4,2:3|2:3,2:0:0:0:
62,264,137204,1,8,1:0:0:0:
83,184,137338,1,4,2:3:0:0:
330,345,137472,6,0,B|284:371|284:371|187:343,1,105,12|0,2:3|2:0,2:0:0:0:
45,261,137740,2,0,B|91:235|91:235|188:263,1,105,8|4,1:0|2:3,2:0:0:0:
109,328,138008,1,2,2:0:0:0:
280,278,138142,5,2,2:1:0:0:
236,203,138276,1,8,1:0:0:0:
470,148,138409,5,2,2:1:0:0:
431,224,138543,2,0,P|368:223|302:102,1,210,4|8,1:2|1:0,2:0:0:0:
115,351,138945,2,0,P|178:350|236:255,1,157.5,4|0,2:3|2:0,2:0:0:0:
234,281,139213,2,0,L|216:164,1,105,4|8,2:3|1:0,2:0:0:0:
283,362,139481,1,0,2:0:0:0:
139,246,139615,5,4,2:3:0:0:
139,246,139883,1,8,1:0:0:0:
22,116,140017,5,4,2:3:0:0:
102,100,140151,1,0,2:0:0:0:
38,193,140284,5,4,2:3:0:0:
3,35,140418,1,8,1:0:0:0:
160,3,140552,1,4,2:3:0:0:
235,232,140686,6,0,L|17:180,1,210,4|8,2:3|1:0,2:0:0:0:
65,277,141088,1,0,2:0:0:0:
158,256,141222,1,4,2:3:0:0:
298,168,141356,1,4,2:3:0:0:
456,331,141490,1,8,1:0:0:0:
337,365,141624,1,4,2:3:0:0:
281,264,141758,5,8,2:3:0:0:
290,226,141825,1,2,2:0:0:0:
300,189,141892,1,0,2:0:0:0:
310,152,141959,1,2,2:0:0:0:
319,115,142026,1,10,1:2:0:0:
357,9,142159,1,2,2:0:0:0:
196,114,142293,5,12,2:3:0:0:
498,116,142427,1,10,1:2:0:0:
451,212,142561,5,0,2:0:0:0:
450,26,142695,1,12,2:3:0:0:
270,32,142829,2,0,L|293:154,1,105,6|0,1:2|2:0,2:0:0:0:
48,328,143097,5,10,1:2:0:0:
176,282,143231,1,4,2:3:0:0:
101,163,143365,1,2,2:0:0:0:
76,245,143499,1,4,2:3:0:0:
215,360,143633,5,10,1:2:0:0:
263,183,143767,1,2,2:0:0:0:
443,229,143901,1,2,1:2:0:0:
343,246,144034,1,0,2:0:0:0:
196,114,144168,5,10,1:2:0:0:
365,158,144302,1,4,2:3:0:0:
401,0,144436,1,2,2:0:0:0:
323,35,144570,5,4,2:3:0:0:
392,237,144704,1,10,1:2:0:0:
458,64,144838,1,2,2:0:0:0:
280,108,144972,1,2,1:2:0:0:
322,303,145106,1,0,2:0:0:0:
452,167,145240,5,10,1:2:0:0:
255,209,145374,1,4,2:3:0:0:
60,167,145508,2,0,L|98:50,1,105,2|4,2:0|2:3,2:0:0:0:
162,136,145776,5,10,1:2:0:0:
162,136,145909,1,2,2:0:0:0:
110,248,146043,5,2,1:0:0:0:
40,8,146177,1,4,2:3:0:0:
288,136,146311,5,10,1:0:0:0:
346,306,146445,1,8,2:3:0:0:
148,356,146579,5,2,2:1:0:0:
182,216,146713,1,8,2:3:0:0:
368,134,146847,5,10,1:0:0:0:
345,227,146981,1,4,2:3:0:0:
283,183,147115,2,0,B|397:159|364:247|493:218,1,210,6|8,1:0|1:0,2:0:0:0:
457,144,147517,1,4,2:3:0:0:
318,320,147651,6,0,L|204:340,1,105,2|4,2:0|2:3,2:0:0:0:
214,338,147851,1,2,2:0:0:0:
214,338,147918,1,8,1:0:0:0:
145,384,148052,1,2,2:0:0:0:
50,258,148186,1,2,1:2:0:0:
136,281,148320,1,2,2:0:0:0:
136,281,148387,1,2,2:0:0:0:
136,281,148454,1,8,1:0:0:0:
263,147,148588,5,4,2:3:0:0:
105,194,148722,1,2,2:0:0:0:
223,69,148856,1,4,2:3:0:0:
386,248,148990,5,10,1:2:0:0:
512,366,149124,1,4,2:3:0:0:
353,322,149258,2,0,L|335:101,1,210,4|8,1:2|1:0,2:0:0:0:
29,88,149659,5,4,2:3:0:0:
91,140,149793,2,0,B|140:129|140:129|206:155,1,105,2|4,2:0|2:3,2:0:0:0:
494,240,150061,5,8,1:0:0:0:
251,204,150195,5,4,2:3:0:0:
14,244,150329,5,12,2:3:0:0:
261,367,150463,5,2,1:0:0:0:
261,367,150597,1,4,2:3:0:0:
223,289,150731,1,2,1:0:0:0:
223,289,150999,1,2,1:0:0:0:
251,204,151133,1,2,1:0:0:0:
251,204,151401,5,4,1:2:0:0:
429,67,151534,5,2,2:0:0:0:
399,199,151668,1,8,1:0:0:0:
370,331,151802,1,2,1:2:0:0:
358,116,151936,5,0,2:0:0:0:
483,177,152070,1,2,1:2:0:0:
301,279,152204,5,10,1:2:0:0:
190,334,152338,1,0,2:0:0:0:
440,382,152472,5,2,1:2:0:0:
272,96,152606,2,0,L|290:220,1,100,2|8,2:0|1:0,2:0:0:0:
115,367,152874,2,0,L|97:243,1,100,2|0,1:2|2:0,2:0:0:0:
28,310,153142,1,2,1:2:0:0:
0,124,153276,2,0,L|14:222,1,100,8|0,1:0|2:0,2:0:0:0:
222,242,153543,5,2,1:2:0:0:
14,222,153677,2,0,L|0:124,1,100,2|8,2:0|1:0,2:0:0:0:
257,0,153945,2,0,L|271:98,1,100,2|0,1:2|2:0,2:0:0:0:
191,64,154213,1,2,1:2:0:0:
222,242,154347,2,0,L|207:143,1,100,8|0,1:0|2:0,2:0:0:0:
135,257,154615,5,2,1:2:0:0:
368,333,154749,1,2,2:0:0:0:
368,333,154816,1,2,2:0:0:0:
368,333,154883,1,8,1:0:0:0:
407,44,155017,6,0,L|392:142,1,100,2|0,1:2|2:0,2:0:0:0:
285,368,155284,5,2,1:2:0:0:
256,191,155418,5,10,1:2:0:0:
227,16,155552,5,0,1:0:0:0:
295,67,155686,5,0,1:0:0:0:
114,277,155820,5,2,2:0:0:0:
96,146,155954,1,8,1:0:0:0:
80,17,156088,1,2,1:2:0:0:
184,233,156222,5,0,2:0:0:0:
4,184,156356,1,2,1:2:0:0:
231,117,156490,5,10,1:2:0:0:
398,167,156624,1,0,2:0:0:0:
191,315,156758,5,2,1:2:0:0:
162,61,156892,2,0,L|139:161,1,100,2|8,2:0|1:0,2:0:0:0:
352,365,157159,2,0,L|375:265,1,100,2|0,1:2|2:0,2:0:0:0:
443,337,157427,1,2,1:2:0:0:
487,158,157561,2,0,L|464:258,1,100,8|0,1:0|2:0,2:0:0:0:
265,361,157829,5,2,1:2:0:0:
464,255,157963,2,0,L|487:158,1,100,2|8,2:0|1:0,2:0:0:0:
256,8,158231,5,2,1:2:0:0:
384,159,158365,1,2,2:0:0:0:
192,228,158499,2,0,L|169:130,1,100,2|8,1:2|1:0,2:0:0:0:
312,72,158767,5,2,2:0:0:0:
267,281,158901,1,0,1:0:0:0:
363,187,159034,5,2,2:0:0:0:
396,26,159168,1,8,1:0:0:0:
245,121,159302,5,2,1:2:0:0:
225,203,159436,1,0,2:0:0:0:
383,106,159570,5,2,1:2:0:0:
232,41,159704,1,10,1:2:0:0:
148,184,159838,1,2,1:2:0:0:
379,366,159972,5,4,1:2:0:0:
218,224,160106,5,2,2:0:0:0:
351,202,160240,1,8,1:0:0:0:
480,180,160374,1,2,1:2:0:0:
259,159,160508,5,0,2:0:0:0:
207,325,160642,1,2,1:2:0:0:
401,266,160776,5,10,1:2:0:0:
453,100,160909,1,0,2:0:0:0:
336,206,161043,5,2,1:2:0:0:
168,17,161177,2,0,L|186:115,1,100,2|8,2:0|1:0,2:0:0:0:
46,361,161445,2,0,L|27:262,1,100,2|0,1:2|2:0,2:0:0:0:
117,300,161713,1,2,1:2:0:0:
81,119,161847,2,0,L|99:217,1,100,8|0,1:0|2:0,2:0:0:0:
292,299,162115,5,2,1:2:0:0:
99,217,162249,2,0,L|81:119,1,100,2|8,2:0|1:0,2:0:0:0:
359,7,162517,2,0,L|377:105,1,100,2|0,1:2|2:0,2:0:0:0:
283,40,162784,1,2,1:2:0:0:
320,222,162918,2,0,L|301:123,1,100,8|0,1:0|2:0,2:0:0:0:
462,127,163186,5,2,1:2:0:0:
409,196,163320,1,2,2:0:0:0:
409,196,163387,1,2,2:0:0:0:
409,196,163454,1,8,1:0:0:0:
124,81,163588,6,0,L|234:116,1,100,2|0,1:2|2:0,2:0:0:0:
493,212,163856,5,2,1:2:0:0:
257,187,163990,5,10,1:2:0:0:
19,212,164124,5,0,1:0:0:0:
72,146,164258,5,0,1:0:0:0:
172,347,164392,5,2,2:0:0:0:
331,291,164526,1,8,1:0:0:0:
489,236,164659,1,2,1:2:0:0:
196,267,164793,5,0,2:0:0:0:
333,374,164927,1,2,1:2:0:0:
425,189,165061,5,10,1:2:0:0:
271,76,165195,1,0,2:0:0:0:
279,217,165329,5,2,1:2:0:0:
436,10,165463,2,0,L|312:34,1,100,2|8,2:0|1:0,2:0:0:0:
97,286,165731,2,0,L|195:266,1,100,2|0,1:2|2:0,2:0:0:0:
164,364,165999,1,2,1:2:0:0:
351,329,166133,2,0,L|252:348,1,100,8|0,1:0|2:0,2:0:0:0:
31,219,166401,5,2,1:2:0:0:
252,348,166534,2,0,L|351:329,1,100,2|8,2:0|1:0,2:0:0:0:
509,191,166802,5,2,1:2:0:0:
351,105,166936,1,2,2:0:0:0:
270,258,167070,1,2,1:2:0:0:
423,205,167204,5,8,1:0:0:0:
267,121,167338,1,2,2:0:0:0:
186,276,167472,2,0,P|82:289|34:181,1,200,4|8,1:2|1:0,2:0:0:0:
73,152,167874,1,2,1:2:0:0:
73,152,168142,1,2,1:2:0:0:
221,200,168276,1,8,1:0:0:0:
322,31,168409,5,2,2:0:0:0:
243,50,168543,1,0,1:0:0:0:
475,303,168677,6,0,L|498:175,1,129.999994049073,2|0,1:0|2:0,2:0:0:0:
37,81,168945,6,0,L|13:208,1,130,2|0,1:0|2:0,2:0:0:0:
168,363,169213,5,2,1:0:0:0:
298,136,169347,1,2,1:0:0:0:
219,120,169481,1,0,2:0:0:0:
349,343,169615,1,12,2:0:0:0:
