osu file format v14

[General]
AudioFilename: audio.mp3
AudioLeadIn: 0
PreviewTime: 80882
Countdown: 0
SampleSet: Soft
StackLeniency: 0.4
Mode: 2
LetterboxInBreaks: 0
WidescreenStoryboard: 1

[Editor]
Bookmarks: 153991,170687
DistanceSpacing: 1
BeatDivisor: 12
GridSize: 4
TimelineZoom: 2.2

[Metadata]
Title:Gensou no Satellite
TitleUnicode:幻想のサテライト
Artist:BUTAOTOME
ArtistUnicode:豚乙女
Creator:Spectator
Version:Xetopia's Platter
Source:東方Project
Tags:Xetopia Buta-Otome 大空魔術 ~ Magical Astronomy 幻想ホモ・ルーデンス Illusionary Homo Ludens Gensou Ruudensu 天空のグリニッジ ランコ RANKO コンプ COMP パプリカ PAPRIKA ランコの姉 RANKO no ANE Touhou Jazz ZUN SOUND VOLTEX BOOTH SDVX
BeatmapID:1615649
BeatmapSetID:699439

[Difficulty]
HPDrainRate:4
CircleSize:3.5
OverallDifficulty:8
ApproachRate:8
SliderMultiplier:1.1
SliderTickRate:1

[Events]
//Background and Video events
0,0,"fantasy satellite.jpg",0,0
//Break Periods
2,37933,40546
2,179035,186632
//Storyboard Layer 0 (Background)
//Storyboard Layer 1 (Fail)
//Storyboard Layer 2 (Pass)
//Storyboard Layer 3 (Foreground)
//Storyboard Sound Samples

[TimingPoints]
14296,750,4,2,1,45,1,0
32296,-55.5555555555556,4,2,1,45,0,0
41296,260.869565217391,4,2,1,60,1,0
49643,-100,4,2,1,70,0,1
57991,-100,4,2,1,50,0,0
63209,-100,4,2,1,40,0,0
64252,-100,4,2,1,60,0,0
80948,-125,4,2,1,60,0,0
86165,-125,4,2,1,50,0,0
86948,-125,4,2,1,60,0,0
87469,-125,4,2,1,40,0,0
88252,-125,4,2,1,55,0,0
89295,-100,4,2,1,60,0,1
105991,-111.111111111111,4,2,1,60,0,0
112252,-100,4,2,1,60,0,0
128948,-111.111111111111,4,2,1,60,0,0
129991,-125,4,2,1,60,0,0
136382,-125,4,2,1,45,0,0
137295,-100,4,2,1,60,0,1
153991,-100,4,2,1,56,0,0
170687,-125,4,2,1,60,0,0
176948,-100,4,2,1,60,0,0
179035,-125,4,2,1,50,0,0
194556,-100,4,2,1,55,0,0
195730,-100,4,2,1,60,0,1
212426,-166.666666666667,4,2,1,20,0,0
218426,-100,4,2,1,20,0,0
218687,-100,4,2,1,60,0,1
220774,-111.111111111111,4,2,1,60,0,0
222339,-111.111111111111,4,2,1,60,0,1
222469,-111.111111111111,4,2,1,60,0,0
222861,-111.111111111111,4,2,1,55,0,0
223382,-111.111111111111,4,2,1,50,0,0
223904,-111.111111111111,4,2,1,45,0,0
224426,-111.111111111111,4,2,1,40,0,0
224948,-111.111111111111,4,2,1,35,0,0
225469,-111.111111111111,4,2,1,30,0,0
225991,-111.111111111111,4,1,1,25,0,0

[Colours]
Combo1 : 95,115,197
Combo2 : 103,220,193
Combo3 : 92,207,138

[HitObjects]
256,52,14296,5,4,0:0:0:0:
400,88,14671,2,0,L|410:100,6,9.16666666666667
228,312,15421,1,2,0:0:0:0:
214,288,15514,1,0,0:0:0:0:
208,260,15608,1,0,0:0:0:0:
211,232,15702,1,0,0:0:0:0:
224,207,15796,1,0,1:0:0:0:
392,300,16171,5,2,0:0:0:0:
248,300,16546,1,2,0:0:0:0:
104,300,16921,1,2,0:0:0:0:
248,192,17296,5,0,1:0:0:0:
104,44,17671,2,0,L|93:57,6,9.16666666666667
336,152,18421,1,2,0:0:0:0:
351,186,18514,1,0,0:0:0:0:
346,223,18608,1,0,0:0:0:0:
322,252,18702,1,0,0:0:0:0:
286,263,18796,1,0,1:0:0:0:
96,312,19171,5,2,0:0:0:0:
88,208,19358,1,2,0:0:0:0:
192,208,19546,1,0,1:0:0:0:
80,108,19733,1,0,1:0:0:0:
420,52,20296,5,4,0:0:0:0:
252,52,20671,1,2,0:0:0:0:
420,128,21046,1,0,1:0:0:0:
456,200,21233,1,0,0:0:0:0:
420,268,21421,1,2,0:0:0:0:
164,148,21796,5,0,1:0:0:0:
332,316,22171,1,2,0:0:0:0:
228,316,22358,1,0,0:0:0:0:
124,312,22546,1,0,1:0:0:0:
196,276,22733,1,0,1:0:0:0:
124,236,22921,1,2,0:0:0:0:
396,108,23296,5,0,1:0:0:0:
228,60,23671,1,0,0:0:0:0:
144,60,23858,1,2,0:0:0:0:
252,96,24046,1,0,1:0:0:0:
260,180,24233,1,0,1:0:0:0:
28,284,24796,5,0,1:0:0:0:
256,228,25358,1,0,0:0:0:0:
172,192,25546,1,0,1:0:0:0:
168,120,25733,1,0,1:0:0:0:
436,56,26296,6,0,L|444:144,1,82.5,4|0,0:0|0:0,0:0:0:0:
360,168,27046,1,0,1:0:0:0:
52,352,27796,6,0,L|48:268,1,82.5,0|2,1:0|0:0,0:0:0:0:
132,244,28546,1,0,0:0:0:0:
436,40,29296,6,0,L|440:124,1,82.5,4|2,2:0|0:0,0:0:0:0:
356,152,30046,1,0,0:0:0:0:
440,216,30233,1,0,0:0:0:0:
224,48,30796,5,0,1:0:0:0:
196,128,30983,1,0,0:0:0:0:
220,208,31171,1,2,0:0:0:0:
316,128,31358,1,0,0:0:0:0:
412,48,31546,1,0,1:0:0:0:
440,128,31733,1,0,1:0:0:0:
416,208,31921,1,2,0:0:0:0:
144,208,32296,6,0,L|140:308,1,98.9999969787599,4|2,0:0|0:0,0:0:0:0:
312,336,33046,2,0,L|412:332,1,98.9999969787599,0|2,1:0|0:0,0:0:0:0:
236,248,33796,2,0,L|232:148,1,98.9999969787599,0|2,1:0|2:0,0:0:0:0:
408,56,34546,2,0,L|476:52,2,49.4999984893799,0|0|2,1:0|1:0|2:0,0:0:0:0:
136,128,35296,6,0,L|132:232,1,98.9999969787599,0|0,1:0|0:0,0:0:0:0:
304,292,36046,2,0,L|356:288,2,49.4999984893799,0|0|0,1:0|1:0|0:0,0:0:0:0:
32,272,36796,5,0,1:0:0:0:
192,220,37171,1,2,0:0:0:0:
32,148,37546,1,0,1:0:0:0:
28,204,37733,1,0,1:0:0:0:
424,192,41296,5,4,0:0:0:0:
84,188,43382,1,0,1:0:0:0:
364,332,45209,5,0,1:0:0:0:
112,332,45469,1,0,1:0:0:0:
48,152,47295,5,0,1:0:0:0:
300,156,47556,1,0,1:0:0:0:
416,52,49122,5,0,1:0:0:0:
492,92,49252,1,0,1:0:0:0:
500,120,49317,1,0,1:0:0:0:
492,148,49382,1,4,1:3:0:0:
152,316,49643,6,0,L|144:204,1,110,4|8,0:0|1:0,0:0:0:0:
232,216,50035,2,0,L|344:212,1,110,0|0,1:0|1:0,0:0:0:0:
280,176,50426,1,8,1:0:0:0:
48,72,50687,2,0,L|164:76,2,110,6|8|6,1:0|1:0|1:0,0:0:0:0:
169,75,51469,1,8,1:0:0:0:
496,80,51730,6,0,L|504:136,2,55,6|0|8,1:0|0:0|1:0,0:0:0:0:
384,52,52122,1,0,1:0:0:0:
320,52,52252,1,0,0:0:0:0:
384,52,52382,1,0,1:0:0:0:
448,52,52513,1,8,1:0:0:0:
240,328,52774,2,0,L|128:324,2,110,6|8|2,1:0|1:0|1:0,0:0:0:0:
376,328,53556,1,10,1:0:0:0:
48,40,53817,6,0,P|24:100|48:144,1,110,4|8,1:2|1:0,0:0:0:0:
120,128,54209,2,0,L|236:132,1,110,0|0,1:0|1:0,0:0:0:0:
168,192,54600,1,8,1:0:0:0:
376,288,54861,2,0,L|488:284,2,110,6|8|6,1:0|1:0|1:0,0:0:0:0:
512,284,55643,1,8,1:0:0:0:
168,56,55904,6,0,L|163:165,1,110,6|8,1:0|1:0,0:0:0:0:
228,164,56295,1,0,0:0:0:0:
292,164,56426,1,4,1:0:0:0:
148,260,56687,1,8,1:0:0:0:
364,56,56948,6,0,L|368:168,1,110,4|8,1:0|1:0,0:0:0:0:
276,148,57339,1,0,0:0:0:0:
212,168,57469,1,0,1:0:0:0:
188,236,57599,1,0,1:0:0:0:
214,302,57730,1,8,1:0:0:0:
276,320,57860,1,0,1:0:0:0:
364,320,57991,5,2,2:0:0:0:
244,240,58252,1,2,0:0:0:0:
244,240,58382,1,2,0:0:0:0:
364,236,58643,1,0,0:0:0:0:
156,328,58904,1,0,0:0:0:0:
92,304,59035,1,2,0:0:0:0:
68,228,59165,1,0,0:0:0:0:
92,152,59295,1,2,0:0:0:0:
320,56,59556,1,2,0:0:0:0:
72,64,60078,5,4,1:2:0:0:
316,60,63209,5,0,1:0:0:0:
384,104,63339,1,8,1:0:0:0:
392,148,63404,1,0,0:0:0:0:
384,184,63469,1,0,1:0:0:0:
144,252,63730,1,8,1:0:0:0:
64,212,63861,1,8,1:3:0:0:
64,120,63991,1,4,1:3:0:0:
140,76,64122,1,4,1:3:0:0:
384,112,64252,6,0,L|388:224,1,110,4|8,1:2|1:0,0:0:0:0:
324,224,64643,1,0,0:0:0:0:
260,224,64774,1,0,1:0:0:0:
392,336,65035,2,0,L|276:340,1,110,2|0,1:0|1:0,0:0:0:0:
80,296,65556,1,8,1:0:0:0:
32,270,65686,1,0,0:0:0:0:
11,220,65816,1,0,1:0:0:0:
26,168,65947,1,0,2:0:0:0:
71,137,66077,1,8,1:0:0:0:
396,32,66339,6,0,L|400:144,1,110,4|8,1:2|1:0,0:0:0:0:
276,116,66861,1,0,1:0:0:0:
136,212,67122,2,0,L|252:216,1,110,2|0,1:0|1:0,0:0:0:0:
460,148,67643,1,8,1:0:0:0:
488,194,67773,1,0,0:0:0:0:
488,248,67903,1,0,1:0:0:0:
459,294,68034,1,0,0:0:0:0:
410,318,68164,1,8,1:0:0:0:
80,104,68426,6,0,L|76:216,1,110,4|8,1:2|1:0,0:0:0:0:
140,216,68817,1,0,0:0:0:0:
204,216,68948,1,0,1:0:0:0:
352,72,69209,2,0,L|240:76,1,110,2|0,1:0|1:0,0:0:0:0:
456,252,69730,1,8,1:0:0:0:
496,215,69860,1,0,0:0:0:0:
506,162,69990,1,0,1:0:0:0:
483,113,70121,1,0,0:0:0:0:
435,88,70251,1,8,1:0:0:0:
104,48,70513,6,0,L|96:168,1,110,4|8,1:2|1:0,0:0:0:0:
160,160,70904,1,0,0:0:0:0:
224,160,71035,1,0,1:0:0:0:
40,268,71295,1,8,1:0:0:0:
264,332,71556,1,0,1:0:0:0:
293,287,71686,1,2,2:2:0:0:
287,233,71816,1,0,0:0:0:0:
248,196,71947,1,2,1:2:0:0:
140,200,72078,2,0,L|84:196,2,55,0|0|8,1:0|0:0|1:0,0:0:0:0:
464,40,72600,6,0,L|468:152,1,110,4|8,1:2|1:0,0:0:0:0:
320,80,73122,1,0,1:0:0:0:
464,248,73382,2,0,L|352:252,1,110,2|0,1:0|1:0,0:0:0:0:
120,112,73904,1,8,1:0:0:0:
82,151,74034,1,0,0:0:0:0:
67,203,74164,1,0,1:0:0:0:
77,257,74295,1,0,2:0:0:0:
111,300,74425,1,8,1:0:0:0:
436,56,74687,6,0,L|440:172,1,110,4|8,1:2|1:0,0:0:0:0:
316,168,75209,1,0,1:0:0:0:
168,52,75469,2,0,L|284:56,1,110,2|0,1:0|1:0,0:0:0:0:
484,96,75991,1,8,1:0:0:0:
511,142,76121,1,0,0:0:0:0:
508,196,76251,1,0,1:0:0:0:
474,239,76382,1,0,0:0:0:0:
423,256,76512,1,8,1:0:0:0:
96,68,76774,6,0,L|88:184,1,110,4|8,1:2|1:0,0:0:0:0:
204,156,77295,1,0,1:0:0:0:
348,304,77556,2,0,P|368:240|348:204,1,110,2|0,1:0|2:0,1:0:0:0:
148,48,78078,1,8,1:0:0:0:
97,66,78208,1,0,0:0:0:0:
66,111,78338,1,0,1:0:0:0:
66,165,78469,1,0,0:0:0:0:
96,209,78599,1,8,1:0:0:0:
460,80,78861,6,0,L|464:196,1,110,4|8,1:2|1:0,0:0:0:0:
400,192,79252,1,0,0:0:0:0:
336,192,79382,1,4,0:0:0:0:
192,192,79643,1,10,1:0:0:0:
340,332,79904,6,0,L|348:272,1,55,0|0,1:0|1:0,0:0:0:0:
276,240,80165,2,0,L|220:244,2,55,0|0|8,0:1|1:0|1:0,0:0:0:0:
476,240,80687,1,4,3:0:0:0:
272,112,80948,6,0,L|180:116,1,88,4|2,0:0|1:2,0:0:0:0:
360,192,81469,2,0,L|372:280,1,88,8|2,1:0|1:2,0:0:0:0:
196,312,81991,2,0,P|152:256|176:200,1,132,0|0,1:0|1:0,0:0:0:0:
236,176,82513,1,8,1:0:0:0:
376,180,82774,1,2,1:2:0:0:
164,60,83035,6,0,L|68:64,1,88,4|2,1:2|1:2,0:0:0:0:
216,180,83556,2,0,L|128:176,1,88,8|8,1:1|1:0,0:0:0:0:
320,88,84078,1,0,1:0:0:0:
340,132,84208,1,0,1:0:0:0:
324,168,84338,1,2,1:2:0:0:
180,156,84600,1,8,1:1:0:0:
316,252,84861,1,2,1:2:0:0:
120,328,85122,6,0,L|28:332,2,88,4|0|8,0:0|0:0|1:0,0:0:0:0:
320,296,85904,2,0,L|332:240,1,44,2|0,1:2|0:0,0:0:0:0:
252,184,86165,2,0,L|156:188,1,88,4|2,1:2|1:2,0:0:0:0:
160,148,86556,1,0,1:0:0:0:
273,53,86687,2,0,L|320:55,2,44,0|0|8,1:0|1:0|1:0,0:0:0:0:
50,51,87209,5,4,0:0:0:0:
256,192,87469,12,0,89035,0:0:0:0:
256,88,89295,6,0,L|260:200,1,110,4|8,0:0|1:0,0:0:0:0:
148,244,89687,1,0,0:0:0:0:
72,212,89817,1,2,0:0:0:0:
72,140,89947,1,0,1:0:0:0:
148,100,90078,1,8,1:0:0:0:
368,140,90339,2,0,L|484:136,2,110,6|8|6,1:0|1:0|1:0,0:0:0:0:
496,128,91122,1,8,1:0:0:0:
128,56,91382,6,0,L|72:56,2,55,6|0|8,1:0|0:0|1:0,0:0:0:0:
208,56,91774,1,0,0:0:0:0:
248,132,91904,1,0,1:0:0:0:
228,208,92034,1,0,0:0:0:0:
160,224,92165,1,8,1:0:0:0:
388,208,92426,2,0,L|276:204,2,110,6|8|6,1:0|1:0|1:0,0:0:0:0:
512,212,93209,1,8,1:0:0:0:
188,40,93469,6,0,L|180:100,1,55,4|0,0:0|0:0,0:0:0:0:
244,96,93730,1,8,1:0:0:0:
344,120,93861,1,0,0:0:0:0:
400,160,93991,2,0,L|400:220,1,55,0|0,1:0|0:0,0:0:0:0:
344,240,94252,1,8,1:0:0:0:
124,272,94513,2,0,L|236:276,2,110,6|8|6,1:0|1:0|1:0,0:0:0:0:
12,268,95295,1,8,1:0:0:0:
344,116,95556,6,0,L|404:112,2,55,6|0|8,1:0|0:0|1:0,0:0:0:0:
232,56,95948,2,0,L|228:112,1,55,0|0,0:0|1:0,0:0:0:0:
328,176,96209,2,0,L|392:168,1,55,0|8,0:0|1:0,0:0:0:0:
160,288,96600,2,0,L|48:284,2,110,6|8|8,1:0|1:0|1:0,0:0:0:0:
32,276,97382,1,8,1:0:0:0:
408,48,97643,6,0,L|412:160,1,110,4|8,1:2|1:0,0:0:0:0:
300,152,98035,2,0,L|296:216,1,55,2|0,1:0|0:0,0:0:0:0:
380,268,98295,2,0,L|444:264,1,55,2|10,1:0|1:0,0:0:0:0:
216,324,98687,2,0,L|332:328,2,110,6|8|6,1:0|1:0|1:0,0:0:0:0:
380,328,99469,1,8,1:0:0:0:
40,100,99730,6,0,L|0:140,2,55,6|0|8,1:1|0:0|1:0,0:0:0:0:
152,60,100122,1,0,1:0:0:0:
224,112,100252,1,0,0:0:0:0:
224,200,100382,1,0,1:0:0:0:
152,252,100513,1,8,1:0:0:0:
388,336,100774,2,0,L|276:332,2,110,6|8|0,1:0|1:0|1:0,0:0:0:0:
512,340,101556,1,10,1:0:0:0:
184,56,101817,6,0,L|180:168,1,110,4|8,1:2|1:0,0:0:0:0:
272,200,102209,2,0,L|384:196,1,110,0|0,1:0|1:0,0:0:0:0:
352,160,102600,1,8,1:0:0:0:
132,112,102861,2,0,L|20:108,2,110,6|8|6,1:0|1:0|1:0,0:0:0:0:
2,108,103643,1,8,1:0:0:0:
360,56,103904,6,0,L|368:172,1,110,6|8,1:0|1:0,0:0:0:0:
304,168,104295,1,0,0:0:0:0:
240,168,104426,1,2,1:0:0:0:
420,164,104687,1,10,1:0:0:0:
96,336,104948,6,0,P|72:288|104:228,1,110,6|8,1:0|1:0,0:0:0:0:
188,196,105339,2,0,L|196:136,1,55,0|0,1:0|1:0,0:0:0:0:
92,96,105600,2,0,L|88:36,1,55,0|8,1:0|1:0,0:0:0:0:
168,36,105861,1,0,0:0:0:0:
421,42,105991,6,0,L|425:102,1,49.4999984893799,0|0,1:0|1:0,0:0:0:0:
228,164,106382,1,0,1:0:0:0:
376,164,106643,1,0,1:0:0:0:
220,164,106904,1,0,1:0:0:0:
384,164,107165,1,0,1:0:0:0:
220,256,107426,2,0,L|220:312,1,49.4999984893799,0|0,1:0|1:0,0:0:0:0:
360,280,107817,1,8,1:0:0:0:
133,341,108078,6,0,L|33:337,2,98.9999969787599,4|4|0,0:0|3:0|3:0,0:0:0:0:
265,301,108861,1,0,0:0:0:0:
120,244,109122,1,2,0:0:0:0:
108,220,109252,1,0,0:0:0:0:
120,188,109382,1,4,3:0:0:0:
296,180,109643,1,0,3:0:0:0:
308,156,109773,1,0,0:0:0:0:
296,124,109903,1,0,0:0:0:0:
120,56,110165,6,0,L|220:60,2,98.9999969787599,0|4|2,3:0|3:0|3:0,0:0:0:0:
304,104,110948,2,0,L|308:156,1,49.4999984893799,0|0,3:0|0:0,0:0:0:0:
220,160,111209,2,0,L|216:216,1,49.4999984893799,0|0,3:0|3:0,0:0:0:0:
448,300,111730,5,2,0:3:0:0:
200,328,112252,6,0,L|88:324,1,110,4|8,0:0|1:0,0:0:0:0:
152,280,112643,1,0,0:0:0:0:
216,280,112774,1,0,1:0:0:0:
388,188,113035,2,0,L|272:192,1,110,10|0,1:0|1:0,0:0:0:0:
56,24,113556,1,8,1:0:0:0:
28,70,113686,1,0,0:0:0:0:
32,124,113816,1,0,1:0:0:0:
66,167,113947,1,0,0:0:0:0:
117,183,114077,1,8,1:0:0:0:
448,56,114339,6,0,L|452:168,1,110,4|8,1:2|1:0,0:0:0:0:
388,168,114730,1,0,0:0:0:0:
324,168,114861,1,0,1:0:0:0:
152,56,115122,2,0,P|150:95|206:128,1,110,10|0,1:0|1:0,0:0:0:0:
428,116,115643,1,8,1:0:0:0:
471,147,115773,1,0,0:0:0:0:
491,198,115903,1,0,1:0:0:0:
479,251,116034,1,0,0:0:0:0:
441,289,116164,1,8,1:0:0:0:
112,116,116426,6,0,L|108:228,1,110,4|8,1:2|1:0,0:0:0:0:
240,172,116948,1,0,1:0:0:0:
68,328,117209,2,0,L|180:332,1,110,10|0,1:0|1:0,0:0:0:0:
424,284,117730,1,8,1:0:0:0:
455,239,117860,1,0,0:0:0:0:
459,185,117990,1,0,1:0:0:0:
434,137,118121,1,0,0:0:0:0:
387,110,118251,1,8,1:0:0:0:
52,40,118513,6,0,L|48:152,1,110,4|8,1:2|1:0,0:0:0:0:
112,148,118904,1,2,1:1:0:0:
176,148,119035,1,0,0:0:0:0:
336,144,119295,1,8,1:0:0:0:
136,288,119556,2,0,L|128:232,1,55,0|2,1:0|1:0,0:0:0:0:
228,216,119817,2,0,L|236:160,1,55,8|2,1:0|1:0,0:0:0:0:
136,96,120078,2,0,L|20:92,1,110,8|8,1:0|1:0,0:0:0:0:
380,40,120600,6,0,L|492:36,1,110,4|8,1:2|1:0,0:0:0:0:
428,88,120991,1,0,0:0:0:0:
364,88,121122,1,0,1:0:0:0:
192,176,121382,2,0,L|188:296,1,110,10|0,1:0|1:0,0:0:0:0:
408,336,121904,1,8,1:0:0:0:
453,306,122034,1,0,0:0:0:0:
472,256,122164,1,0,1:0:0:0:
455,204,122295,1,0,0:0:0:0:
411,173,122425,1,8,1:0:0:0:
88,44,122687,6,0,L|84:156,1,110,4|8,1:2|1:0,0:0:0:0:
148,152,123078,1,0,0:0:0:0:
212,152,123209,1,0,1:0:0:0:
384,224,123469,2,0,L|272:228,1,110,10|0,1:0|1:0,0:0:0:0:
52,332,123991,1,8,1:0:0:0:
32,281,124121,1,0,0:0:0:0:
39,227,124251,1,0,1:0:0:0:
70,182,124382,1,0,0:0:0:0:
119,157,124512,1,8,1:0:0:0:
448,48,124774,6,0,L|452:160,1,110,4|8,1:2|1:0,0:0:0:0:
320,104,125295,1,0,1:0:0:0:
496,244,125556,2,0,L|384:248,1,110,10|0,1:0|1:0,0:0:0:0:
140,300,126078,1,0,1:0:0:0:
91,276,126208,1,0,2:0:0:0:
71,226,126338,1,0,1:0:0:0:
91,176,126469,1,0,1:0:0:0:
139,152,126599,1,0,1:0:0:0:
464,332,126861,6,0,L|468:216,1,110,4|8,1:2|1:0,0:0:0:0:
404,216,127252,1,0,1:0:0:0:
340,216,127382,1,4,1:2:0:0:
184,216,127643,1,8,1:0:0:0:
384,52,127904,6,0,L|392:112,1,55,0|0,1:0|1:0,0:0:0:0:
292,136,128165,2,0,L|228:132,1,55,8|0,1:0|1:0,0:0:0:0:
328,208,128426,2,0,L|448:200,1,110,2|8,1:0|1:0,0:0:0:0:
236,324,128948,6,0,L|136:320,1,98.9999969787599,4|2,0:0|1:2,0:0:0:0:
308,252,129469,2,0,L|312:148,1,98.9999969787599,8|2,1:0|1:2,0:0:0:0:
160,60,129991,2,0,L|300:56,1,132,2|0,0:0|1:0,0:0:0:0:
232,96,130513,1,8,1:0:0:0:
88,156,130774,1,2,1:2:0:0:
308,276,131035,6,0,L|312:188,1,88,4|2,1:2|0:0,0:0:0:0:
156,88,131556,2,0,L|248:84,1,88,8|0,1:0|1:0,0:0:0:0:
380,88,132078,2,0,L|400:132,2,44,0|0|2,1:0|1:0|1:2,0:0:0:0:
244,88,132600,1,8,1:0:0:0:
380,88,132861,1,2,1:2:0:0:
148,164,133122,6,0,L|60:160,2,88,4|2|8,0:0|0:0|1:0,0:0:0:0:
320,272,133904,2,0,L|380:264,1,44,2|0,2:2|0:0,0:0:0:0:
284,232,134165,2,0,L|192:228,1,88,4|0,1:2|1:0,0:0:0:0:
240,208,134556,1,2,1:2:0:0:
358,126,134687,2,0,L|407:124,2,44,0|0|0,1:0|0:0|1:0,0:0:0:0:
170,46,135209,6,0,L|258:50,2,88,4|0|8,1:0|0:0|1:0,0:0:0:0:
50,50,135991,1,8,1:0:0:0:
240,304,136252,1,8,1:0:0:0:
258,264,136382,1,0,0:0:0:0:
251,222,136512,1,0,0:0:0:0:
222,190,136643,1,0,0:0:0:0:
164,176,136774,2,0,L|104:180,2,44,2|0|0,0:0|0:0|0:0,0:0:0:0:
488,56,137295,6,0,L|492:168,1,110,4|8,1:2|1:0,0:0:0:0:
388,172,137687,2,0,L|384:232,1,55,0|0,1:0|0:0,0:0:0:0:
484,244,137948,2,0,L|488:304,1,55,0|8,1:0|1:0,0:0:0:0:
272,288,138339,2,0,L|160:284,2,110,6|8|6,1:0|1:0|1:0,0:0:0:0:
420,288,139122,1,8,1:0:0:0:
96,300,139382,5,6,1:0:0:0:
32,268,139512,1,0,0:0:0:0:
32,200,139642,1,8,1:0:0:0:
96,160,139773,1,0,1:0:0:0:
212,128,139904,2,0,L|216:68,1,55,0|0,0:0|1:0,0:0:0:0:
156,72,140165,1,8,1:0:0:0:
384,40,140426,2,0,L|260:44,2,110,6|8|4,1:0|1:0|1:0,0:0:0:0:
508,40,141209,1,10,1:0:0:0:
184,64,141469,6,0,L|124:68,2,55,4|0|8,1:0|0:0|1:0,0:0:0:0:
304,72,141861,1,0,0:0:0:0:
353,92,141991,1,0,1:0:0:0:
376,141,142121,1,0,0:0:0:0:
362,193,142252,1,8,1:0:0:0:
152,192,142513,2,0,L|264:196,2,110,6|8|6,1:0|1:0|1:0,0:0:0:0:
16,184,143295,1,8,1:0:0:0:
348,56,143556,6,0,L|352:120,1,55,6|0,1:0|0:0,0:0:0:0:
292,112,143817,1,8,1:0:0:0:
192,128,143948,1,0,0:0:0:0:
136,152,144078,1,0,1:0:0:0:
120,208,144209,1,0,0:0:0:0:
140,252,144339,1,8,1:0:0:0:
344,304,144600,2,0,L|232:308,2,110,6|8|4,1:0|1:0|1:3,0:0:0:0:
476,296,145382,1,8,1:0:0:0:
116,56,145643,6,0,L|108:168,1,110,4|8,1:2|1:0,0:0:0:0:
220,212,146035,1,2,1:0:0:0:
284,212,146165,1,0,0:0:0:0:
220,212,146295,1,2,1:0:0:0:
156,212,146426,1,10,1:0:0:0:
368,64,146687,2,0,L|480:60,2,110,6|8|6,1:0|1:0|1:0,0:0:0:0:
508,52,147469,1,8,1:0:0:0:
168,160,147730,6,0,L|112:164,2,55,6|0|8,1:0|0:0|1:0,0:0:0:0:
272,228,148122,2,0,L|280:172,1,55,0|0,1:0|0:0,0:0:0:0:
176,128,148382,2,0,L|172:68,1,55,0|8,1:0|1:0,0:0:0:0:
384,60,148774,2,0,L|272:56,2,110,6|8|0,1:0|1:0|1:0,0:0:0:0:
508,64,149556,1,10,1:0:0:0:
184,112,149817,6,0,L|180:228,1,110,4|8,1:2|1:0,0:0:0:0:
264,268,150209,2,0,L|376:264,1,110,0|0,1:0|1:0,0:0:0:0:
344,232,150600,1,8,1:0:0:0:
120,96,150861,2,0,L|232:92,2,110,6|8|6,1:0|1:0|1:0,0:0:0:0:
4,100,151643,1,8,1:0:0:0:
332,84,151904,6,0,L|392:80,2,55,6|0|8,1:0|0:0|1:0,0:0:0:0:
140,44,152426,2,0,L|136:156,1,110,0|10,1:0|1:0,0:0:0:0:
468,56,152948,6,0,L|472:112,1,55,4|0,1:0|1:0,0:0:0:0:
296,200,153339,2,0,L|264:200,2,27.5,0|0|4,1:0|1:0|1:0,0:0:0:0:
372,200,153600,1,4,1:3:0:0:
448,200,153730,1,8,1:3:0:0:
120,52,153991,6,0,L|116:164,1,110,4|8,1:0|1:0,0:0:0:0:
216,192,154382,2,0,L|328:184,1,110,2|0,1:0|1:0,0:0:0:0:
288,208,154774,1,10,1:0:0:0:
72,312,155035,6,0,L|16:308,2,55,4|0|8,1:0|0:0|1:0,0:0:0:0:
236,248,155556,2,0,L|124:252,1,110,2|10,1:0|1:0,0:0:0:0:
332,132,156078,6,0,L|392:136,2,55,4|0|8,0:2|0:0|1:0,0:0:0:0:
176,28,156600,1,0,0:0:0:0:
152,75,156730,1,0,0:0:0:0:
168,126,156860,1,10,1:0:0:0:
216,151,156991,1,0,1:0:0:0:
328,132,157122,6,0,L|336:196,1,55,0|2,0:0|1:0,0:0:0:0:
224,240,157382,2,0,L|168:236,2,55,8|0|2,1:1|1:0|1:0,0:0:0:0:
368,248,157904,1,10,1:0:0:0:
148,316,158165,6,0,L|36:312,1,110,4|8,1:2|1:0,0:0:0:0:
132,244,158556,2,0,L|248:240,1,110,2|0,1:0|1:0,0:0:0:0:
246,185,158948,1,10,1:0:0:0:
28,96,159209,5,4,1:2:0:0:
84,92,159339,1,0,0:0:0:0:
140,88,159469,1,8,1:0:0:0:
312,168,159730,2,0,L|328:228,2,55,2|0|10,1:0|1:0|1:0,0:0:0:0:
81,72,160252,6,0,L|77:128,1,55,4|0,1:2|0:0,0:0:0:0:
137,128,160513,1,8,1:0:0:0:
286,74,160774,1,0,0:0:0:0:
308,122,160904,1,0,1:0:0:0:
287,171,161034,1,10,1:0:0:0:
237,189,161165,1,0,0:0:0:0:
144,220,161295,5,0,1:0:0:0:
122,268,161425,1,2,1:0:0:0:
143,317,161555,1,8,1:0:0:0:
193,335,161687,1,2,1:0:0:0:
294,332,161817,2,0,L|406:327,1,110,2|10,1:0|1:0,0:0:0:0:
68,60,162339,6,0,L|64:176,1,110,4|8,0:0|1:0,0:0:0:0:
128,172,162730,1,6,1:1:0:0:
304,184,162991,2,0,L|304:240,1,55,0|10,0:0|1:0,0:0:0:0:
88,328,163382,5,4,1:2:0:0:
148,328,163513,1,2,0:0:0:0:
208,328,163643,1,10,1:0:0:0:
76,232,163904,1,4,1:3:0:0:
296,220,164165,2,0,L|304:164,1,55,8|2,1:0|0:0,0:0:0:0:
208,96,164426,6,0,L|92:100,2,110,4|8|2,0:0|1:0|1:2,0:0:0:0:
340,88,165209,1,8,1:0:0:0:
120,284,165469,6,0,L|64:280,2,55,4|0|8,1:2|0:0|1:0,0:0:0:0:
264,292,165991,1,2,0:0:0:0:
112,288,166252,1,8,1:0:0:0:
440,312,166513,6,0,L|448:196,1,110,4|8,1:2|1:0,0:0:0:0:
364,176,166904,2,0,L|252:180,1,110,2|0,1:0|1:0,0:0:0:0:
324,236,167295,1,10,1:0:0:0:
120,316,167556,6,0,L|64:312,2,55,4|2|8,1:2|0:0|1:0,0:0:0:0:
272,228,168078,2,0,L|152:232,1,110,2|10,0:0|1:0,0:0:0:0:
368,128,168600,6,0,L|428:132,2,55,4|0|8,1:2|0:0|1:0,0:0:0:0:
216,66,169122,1,0,0:0:0:0:
185,110,169252,1,0,0:0:0:0:
183,164,169382,1,0,0:0:0:0:
217,208,169513,1,0,0:0:0:0:
317,237,169643,2,0,L|373:233,2,55,0|10|8,1:0|1:1|1:0,0:0:0:0:
100,312,170165,2,0,L|36:308,2,55,4|0|8,1:3|1:0|1:0,0:0:0:0:
344,244,170687,6,0,L|248:248,2,88,4|2|8,1:2|1:2|1:0,0:0:0:0:
192,164,171469,1,2,1:2:0:0:
348,68,171730,2,0,L|368:112,2,44,0|0|2,0:0|0:0|1:2,0:0:0:0:
172,40,172252,1,8,1:0:0:0:
128,41,172382,1,0,0:0:0:0:
84,43,172512,1,2,1:2:0:0:
292,144,172774,5,4,0:0:0:0:
336,145,172904,1,0,0:0:0:0:
380,147,173034,1,2,1:2:0:0:
216,264,173295,1,8,1:0:0:0:
392,320,173556,2,0,L|400:272,1,44,2|0,1:2|0:0,0:0:0:0:
304,232,173817,2,0,L|256:228,2,44,0|0|2,0:0|0:0|1:2,0:0:0:0:
464,156,174339,2,0,L|512:152,2,44,8|0|2,1:0|0:0|1:2,0:0:0:0:
236,96,174861,6,0,L|148:92,2,88,4|2|8,1:2|1:2|1:0,0:0:0:0:
420,240,175643,1,2,1:2:0:0:
457,217,175773,1,0,0:0:0:0:
472,177,175903,1,4,0:0:0:0:
459,136,176034,1,0,0:0:0:0:
424,112,176164,1,2,1:2:0:0:
272,48,176426,2,0,L|368:44,1,88,0|2,1:0|1:2,0:0:0:0:
24,180,176948,6,0,L|8:244,2,55,4|0|8,1:2|0:0|1:0,0:0:0:0:
224,116,177469,2,0,L|228:176,1,55,8|0,1:1|1:0,0:0:0:0:
136,204,177730,2,0,L|132:264,1,55,8|0,1:1|1:0,0:0:0:0:
380,264,177991,5,0,1:0:0:0:
464,48,187382,6,0,L|472:104,1,44,4|0,1:2|0:0,0:0:0:0:
400,112,187643,1,8,1:0:0:0:
324,116,187774,2,0,L|320:164,1,44,0|0,0:0|1:0,0:0:0:0:
448,224,188165,1,8,1:0:0:0:
252,296,188426,6,0,L|164:292,2,88,4|0|4,1:0|0:0|1:0,0:0:0:0:
392,304,189209,1,8,1:0:0:0:
176,60,189469,6,0,L|168:116,1,44,4|0,1:0|0:0,0:0:0:0:
264,164,189730,2,0,L|320:160,2,44,8|0|0,1:0|2:0|1:0,0:0:0:0:
128,180,190252,1,8,1:0:0:0:
328,324,190513,6,0,L|256:324,2,66,4|0|0,1:0|0:0|0:0,0:0:0:0:
384,324,191035,1,2,0:0:0:0:
236,252,191295,1,8,1:0:0:0:
452,291,191556,6,0,L|460:235,1,44,4|0,1:0|0:0,0:0:0:0:
388,227,191817,1,8,1:0:0:0:
312,223,191948,2,0,L|308:175,1,44,0|0,0:0|1:0,0:0:0:0:
440,119,192339,1,8,1:0:0:0:
272,56,192600,2,0,L|360:60,2,88,4|8|4,1:0|1:0|1:0,0:0:0:0:
404,64,193382,1,8,1:0:0:0:
160,52,193643,6,0,L|156:100,1,44,0|0,1:0|0:0,0:0:0:0:
244,148,193904,2,0,L|292:144,2,44,0|4|0,1:0|1:0|0:0,0:0:0:0:
112,164,194426,1,10,1:0:0:0:
392,308,194687,5,6,1:0:0:0:
442,288,194817,1,0,0:0:0:0:
477,246,194947,1,8,1:0:0:0:
489,193,195078,1,0,1:0:0:0:
473,141,195208,1,0,1:0:0:0:
434,103,195339,1,0,1:0:0:0:
382,88,195469,1,0,1:0:0:0:
48,64,195730,6,0,L|44:176,1,110,4|8,1:2|1:0,0:0:0:0:
144,172,196122,2,0,L|152:232,1,55,0|0,0:0|1:0,0:0:0:0:
64,244,196382,2,0,L|56:304,1,55,0|8,1:0|1:0,0:0:0:0:
280,320,196774,2,0,L|392:316,2,110,6|8|6,1:0|1:0|1:0,0:0:0:0:
140,324,197556,1,8,1:0:0:0:
468,48,197817,6,0,L|472:160,1,110,6|8,1:0|1:0,0:0:0:0:
408,160,198209,1,0,1:3:0:0:
344,160,198339,1,0,0:0:0:0:
184,164,198600,1,8,1:0:0:0:
396,292,198861,2,0,L|284:296,2,110,6|8|6,1:0|1:0|1:0,0:0:0:0:
512,284,199643,1,10,1:0:0:0:
184,64,199904,6,0,L|72:60,1,110,4|8,1:2|1:0,0:0:0:0:
172,148,200295,2,0,L|176:204,1,55,0|0,1:0|0:0,0:0:0:0:
72,232,200556,2,0,L|68:292,1,55,0|8,1:0|1:0,0:0:0:0:
284,332,200948,2,0,L|396:328,2,110,6|8|6,1:0|1:0|1:0,0:0:0:0:
148,328,201730,1,8,1:0:0:0:
472,56,201991,6,0,L|504:104,2,55,6|0|8,1:0|0:0|1:0,0:0:0:0:
264,228,202513,1,0,1:0:0:0:
262,173,202643,1,0,0:0:0:0:
260,118,202773,1,8,1:0:0:0:
464,36,203035,6,0,L|468:148,1,110,6|8,1:0|1:0,0:0:0:0:
276,224,203556,1,0,1:0:0:0:
330,225,203686,1,0,0:0:0:0:
385,227,203816,1,8,1:0:0:0:
48,336,204078,6,0,L|44:220,1,110,4|8,1:2|1:0,0:0:0:0:
156,196,204469,1,2,1:0:0:0:
220,196,204599,1,0,0:0:0:0:
156,196,204729,1,2,1:0:0:0:
92,196,204860,1,10,1:0:0:0:
312,72,205122,2,0,L|428:68,2,110,6|8|6,1:0|1:0|1:0,0:0:0:0:
144,72,205904,1,8,1:0:0:0:
472,164,206165,6,0,L|476:280,1,110,6|8,1:0|1:0,0:0:0:0:
364,240,206556,2,0,L|360:300,1,55,0|0,1:0|1:0,0:0:0:0:
440,340,206817,2,0,L|496:336,1,55,0|8,1:0|1:0,0:0:0:0:
248,224,207209,2,0,L|136:220,2,110,6|8|0,1:0|1:0|1:0,0:0:0:0:
412,216,207991,1,10,1:0:0:0:
84,52,208252,6,0,L|76:168,1,110,4|8,1:2|1:0,0:0:0:0:
192,148,208643,2,0,L|200:216,1,55,2|0,1:0|0:0,0:0:0:0:
96,248,208904,2,0,L|88:316,1,55,0|10,1:0|1:0,0:0:0:0:
312,328,209295,2,0,L|192:332,2,110,6|8|6,1:0|1:0|1:0,0:0:0:0:
156,332,210078,1,8,1:0:0:0:
484,80,210339,6,0,L|492:136,2,55,6|0|8,1:0|0:0|1:0,0:0:0:0:
304,32,210861,2,0,L|188:36,1,110,0|10,1:0|1:0,0:0:0:0:
400,152,211382,2,0,L|456:156,2,55,0|8|4,1:0|1:0|1:3,0:0:0:0:
204,120,211904,1,8,1:0:0:0:
148,156,212034,1,8,1:3:0:0:
148,220,212164,1,4,1:3:0:0:
208,248,212295,1,4,2:3:0:0:
304,248,212426,5,4,2:2:0:0:
408,64,213209,5,0,0:0:0:0:
276,64,213470,1,2,0:0:0:0:
444,96,213731,1,0,0:0:0:0:
461,123,213861,1,0,0:0:0:0:
468,156,213991,1,0,0:0:0:0:
463,188,214122,1,0,0:0:0:0:
449,217,214252,1,0,0:0:0:0:
276,64,214514,1,2,0:0:0:0:
68,88,215295,5,0,0:0:0:0:
200,88,215556,1,2,0:0:0:0:
32,120,215817,1,0,0:0:0:0:
15,147,215947,1,0,0:0:0:0:
8,180,216077,1,0,0:0:0:0:
13,212,216208,1,0,0:0:0:0:
27,241,216338,1,0,0:0:0:0:
200,88,216600,1,2,0:0:0:0:
436,304,217382,5,0,0:0:0:0:
304,296,217643,1,2,0:0:0:0:
436,304,217904,1,0,0:0:0:0:
444,276,218034,1,0,0:0:0:0:
436,244,218164,1,0,0:0:0:0:
316,160,218426,2,0,L|252:156,1,55,0|0,1:0|0:0,0:0:0:0:
52,44,218687,6,0,L|48:100,1,55,0|12,1:0|1:0,1:0:0:0:
232,216,219078,2,0,L|288:212,1,55,0|12,1:0|1:0,1:0:0:0:
112,84,219469,2,0,L|168:88,1,55,0|12,1:0|1:1,0:0:0:0:
344,120,219861,2,0,L|348:52,1,55,0|12,1:0|1:1,0:0:0:0:
132,272,220252,1,4,1:2:0:0:
332,272,220513,1,4,1:2:0:0:
132,96,220774,6,0,L|124:212,1,98.9999969787599,2|2,0:0|0:0,0:0:0:0:
188,196,221165,1,0,0:0:0:0:
252,196,221295,1,2,0:0:0:0:
316,196,221426,1,0,0:0:0:0:
124,44,221687,2,0,L|12:48,1,98.9999969787599,2|0,0:0|0:0,0:0:0:0:
20,112,222078,1,2,1:0:0:0:
372,188,222339,5,4,1:2:0:0:
256,192,222600,12,0,226643,1:0:0:0:
