osu file format v14

[General]
AudioFilename: audio.mp3
AudioLeadIn: 0
PreviewTime: 80882
Countdown: 0
SampleSet: Soft
StackLeniency: 0.7
Mode: 2
LetterboxInBreaks: 0
WidescreenStoryboard: 1

[Editor]
Bookmarks: 155035
DistanceSpacing: 1
BeatDivisor: 6
GridSize: 4
TimelineZoom: 2.2

[Metadata]
Title:Gensou no Satellite
TitleUnicode:幻想のサテライト
Artist:BUTAOTOME
ArtistUnicode:豚乙女
Creator:Spectator
Version:Cup
Source:東方Project
Tags:Xetopia Buta-Otome 大空魔術 ~ Magical Astronomy 幻想ホモ・ルーデンス Illusionary Homo Ludens Gensou Ruudensu 天空のグリニッジ ランコ RANKO コンプ COMP パプリカ PAPRIKA ランコの姉 RANKO no ANE Touhou Jazz ZUN SOUND VOLTEX BOOTH SDVX
BeatmapID:1614201
BeatmapSetID:699439

[Difficulty]
HPDrainRate:2
CircleSize:2
OverallDifficulty:6
ApproachRate:6
SliderMultiplier:0.85
SliderTickRate:1

[Events]
//Background and Video events
0,0,"fantasy satellite.jpg",0,0
//Break Periods
2,37933,40246
2,179035,186332
2,212626,217376
//Storyboard Layer 0 (Background)
//Storyboard Layer 1 (Fail)
//Storyboard Layer 2 (Pass)
//Storyboard Layer 3 (Foreground)
//Storyboard Sound Samples

[TimingPoints]
14296,750,4,2,1,45,1,0
41296,260.869565217391,4,2,1,60,1,0
49643,-100,4,2,1,70,0,1
57991,-100,4,2,1,50,0,0
63209,-100,4,2,1,40,0,0
64252,-100,4,2,1,60,0,0
80948,-100,4,2,1,60,0,0
86165,-100,4,2,1,50,0,0
86948,-100,4,2,1,60,0,0
87469,-100,4,2,1,40,0,0
88252,-100,4,2,1,55,0,0
89295,-100,4,2,1,60,0,1
105991,-100,4,2,1,60,0,0
112252,-100,4,2,1,60,0,0
128948,-100,4,2,1,60,0,0
129991,-100,4,2,1,60,0,0
137295,-100,4,2,1,60,0,1
153991,-100,4,2,1,56,0,0
170687,-100,4,2,1,60,0,0
176948,-100,4,2,1,60,0,0
179035,-100,4,2,1,50,0,0
194556,-100,4,2,1,55,0,0
195730,-100,4,2,1,60,0,1
212426,-100,4,2,1,20,0,0
218426,-100,4,2,1,20,0,0
218687,-100,4,2,1,60,0,1
220774,-100,4,2,1,60,0,0
222339,-100,4,2,1,60,0,1
222469,-100,4,2,1,60,0,0
222861,-100,4,2,1,55,0,0
223382,-100,4,2,1,50,0,0
223904,-100,4,2,1,45,0,0
224426,-100,4,2,1,40,0,0
224948,-100,4,2,1,35,0,0
225469,-100,4,2,1,30,0,0
225991,-100,4,1,1,25,0,0

[Colours]
Combo1 : 95,115,197
Combo2 : 103,220,193
Combo3 : 92,207,138

[HitObjects]
81,94,14296,5,4,0:0:0:0:
215,141,14671,2,0,L|223:87,1,42.5,2|0,0:0|1:0,0:0:0:0:
98,170,15421,2,0,L|91:127,1,42.5,2|0,0:0|1:0,0:0:0:0:
221,130,16171,1,2,0:0:0:0:
363,133,16546,1,2,0:0:0:0:
221,130,16921,1,2,0:0:0:0:
362,308,17671,6,0,L|420:307,1,42.5,2|0,0:0|1:0,0:0:0:0:
299,211,18421,2,0,L|245:210,1,42.5,2|0,0:0|1:0,0:0:0:0:
131,84,19171,2,0,L|181:87,1,42.5,2|0,0:0|1:0,0:0:0:0:
216,90,19733,1,0,1:0:0:0:
420,283,20296,6,0,L|423:214,1,42.5,4|2,0:0|0:0,0:0:0:0:
297,219,21046,2,0,L|293:153,1,42.5,0|2,1:0|0:0,0:0:0:0:
419,95,21796,2,0,L|349:92,1,42.5,0|2,1:0|0:0,0:0:0:0:
260,232,22546,2,0,L|309:228,1,42.5,0|2,1:0|0:0,0:0:0:0:
165,307,23296,6,0,L|159:208,1,85,0|0,1:0|1:0,0:0:0:0:
346,172,24796,1,0,1:0:0:0:
167,184,25546,1,0,1:0:0:0:
149,127,25733,1,0,1:0:0:0:
370,265,26296,6,0,P|381:197|368:172,1,85,4|0,0:0|1:0,0:0:0:0:
236,214,27796,1,0,1:0:0:0:
124,209,28358,1,2,0:0:0:0:
236,214,28921,1,2,0:0:0:0:
301,215,29296,1,4,2:0:0:0:
413,210,29858,1,2,0:0:0:0:
301,215,30421,1,2,0:0:0:0:
196,227,30796,6,0,L|191:130,1,85,0|0,1:0|1:0,0:0:0:0:
301,124,31921,1,2,0:0:0:0:
427,144,32296,6,0,L|370:139,1,42.5,4|2,0:0|0:0,0:0:0:0:
255,218,33046,2,0,L|312:210,1,42.5,0|2,1:0|0:0,0:0:0:0:
446,332,33796,6,0,L|440:274,1,42.5,0|2,1:0|2:0,0:0:0:0:
309,282,34546,2,0,L|252:288,1,42.5,0|2,1:0|2:0,0:0:0:0:
140,295,35296,6,0,P|118:242|141:207,1,85,0|0,1:0|1:0,0:0:0:0:
294,209,36796,1,0,1:0:0:0:
134,121,37546,1,0,1:0:0:0:
130,196,37733,1,0,1:0:0:0:
106,209,41296,5,4,0:0:0:0:
406,209,43382,5,0,1:0:0:0:
134,276,45209,5,0,1:0:0:0:
118,196,45469,1,0,1:0:0:0:
377,276,47295,5,0,1:0:0:0:
393,196,47555,1,0,1:0:0:0:
113,266,49122,6,0,L|110:139,1,85,0|4,1:0|1:3,0:0:0:0:
225,228,49643,6,0,L|422:225,1,170,4|0,0:0|1:0,0:0:0:0:
499,145,50426,1,8,1:0:0:0:
399,97,50687,1,6,1:0:0:0:
191,102,51208,1,6,1:0:0:0:
416,96,51730,6,0,P|441:174|398:272,1,170,6|0,1:0|1:0,0:0:0:0:
325,259,52513,1,8,1:0:0:0:
430,282,52774,2,0,L|244:275,1,170,6|2,1:0|1:0,0:0:0:0:
372,267,53556,1,8,1:0:0:0:
252,301,53817,6,0,P|190:258|233:152,1,170,4|0,1:2|1:0,0:0:0:0:
305,159,54600,1,8,1:0:0:0:
408,147,54861,1,6,1:0:0:0:
179,114,55382,1,6,1:0:0:0:
367,122,55904,6,0,P|406:188|340:263,1,170,6|4,1:0|1:0,0:0:0:0:
256,230,56687,1,8,1:0:0:0:
358,213,56948,2,0,L|457:202,1,85,4|8,1:0|1:0,0:0:0:0:
321,166,57469,2,0,L|223:148,1,85,0|8,1:0|1:0,0:0:0:0:
128,164,57991,5,2,2:0:0:0:
385,124,60078,1,4,1:2:0:0:
159,327,63209,6,0,P|127:257|163:149,1,170,0|8,1:0|1:0,0:0:0:0:
253,190,63991,1,4,1:3:0:0:
362,181,64252,6,0,L|266:173,2,85,4|8|0,1:2|1:0|1:0,0:0:0:0:
476,137,65035,2,0,L|490:334,1,170,2|8,1:0|1:0,0:0:0:0:
356,324,65817,2,0,L|261:311,1,85,0|8,1:0|1:0,0:0:0:0:
395,179,66339,6,0,L|479:170,2,85,4|8|0,1:2|1:0|1:0,0:0:0:0:
269,241,67122,2,0,P|200:179|296:128,1,170,2|8,1:0|1:0,0:0:0:0:
341,82,67904,2,0,L|353:167,1,85,0|0,1:0|1:0,1:0:0:0:
211,192,68426,6,0,L|122:224,2,85,4|8|0,1:2|1:0|1:0,0:0:0:0:
325,226,69209,2,0,P|359:181|286:120,1,170,2|0,1:0|1:0,0:0:0:0:
164,150,69991,2,0,L|149:59,1,85,0|8,1:0|1:0,0:0:0:0:
294,214,70513,6,0,L|390:211,1,85,4|8,1:2|1:0,0:0:0:0:
267,318,71035,2,0,L|164:319,1,85,0|8,1:0|1:0,0:0:0:0:
296,326,71556,2,0,L|308:207,1,85,0|8,1:0|1:0,0:0:0:0:
188,216,72078,2,0,L|179:122,1,85,0|8,1:0|1:0,0:0:0:0:
303,129,72600,6,0,L|413:127,2,85,4|8|0,1:2|1:0|1:0,0:0:0:0:
189,227,73382,2,0,L|391:241,1,170,2|8,1:0|1:0,0:0:0:0:
254,308,74165,2,0,L|237:197,1,85,0|8,1:0|1:0,0:0:0:0:
369,191,74687,6,0,L|465:185,2,85,4|8|0,1:2|1:0|1:0,0:0:0:0:
251,222,75469,2,0,P|186:197|225:118,1,170,2|8,1:0|1:0,0:0:0:0:
328,101,76252,2,0,L|218:89,1,85,0|8,1:0|1:0,0:0:0:0:
140,88,76774,6,0,L|131:186,1,85,4|8,1:2|1:0,0:0:0:0:
239,200,77295,1,0,1:0:0:0:
346,206,77556,2,0,P|415:241|348:306,1,170,2|8,1:0|1:0,0:0:0:0:
264,343,78339,2,0,L|170:335,1,85,0|8,1:0|1:0,0:0:0:0:
281,273,78861,5,4,1:2:0:0:
380,230,79122,1,8,1:0:0:0:
266,330,79382,1,4,0:0:0:0:
152,287,79643,1,10,1:0:0:0:
286,283,79904,6,0,P|353:238|279:193,1,170,0|8,1:0|1:0,0:0:0:0:
197,157,80687,1,4,3:0:0:0:
325,153,80948,6,0,L|327:350,1,170,4|8,0:0|1:0,0:0:0:0:
145,302,81991,1,0,1:0:0:0:
340,350,82513,1,8,1:0:0:0:
192,288,83035,6,0,P|106:285|32:330,2,170,4|8|0,1:2|1:0|1:0,0:0:0:0:
391,264,84600,1,8,1:1:0:0:
171,253,85122,6,0,P|115:208|196:144,1,170,4|8,0:0|1:0,0:0:0:0:
349,260,86165,2,0,P|405:215|324:151,1,170,4|8,1:2|1:0,0:0:0:0:
147,118,87209,1,4,0:0:0:0:
256,192,87469,12,0,88774,0:0:0:0:
185,321,89295,6,0,P|144:254|218:199,1,170,4|2,0:0|0:0,0:0:0:0:
301,179,90078,1,8,1:0:0:0:
401,161,90339,1,6,1:0:0:0:
196,101,90861,1,6,1:0:0:0:
393,145,91382,6,0,P|445:178|396:267,1,170,6|0,1:0|1:0,0:0:0:0:
318,248,92165,1,8,1:0:0:0:
421,258,92426,2,0,P|313:239|230:279,1,170,6|6,1:0|1:0,0:0:0:0:
162,223,93209,1,8,1:0:0:0:
271,269,93469,6,0,P|338:236|267:180,1,170,4|0,0:0|1:0,0:0:0:0:
192,168,94252,1,8,1:0:0:0:
294,168,94513,1,6,1:0:0:0:
462,100,95035,1,6,1:0:0:0:
266,78,95556,6,0,P|203:148|278:202,1,170,6|0,1:0|1:0,0:0:0:0:
336,228,96339,1,8,1:0:0:0:
240,262,96600,2,0,L|143:264,1,85,6|8,1:0|1:0,0:0:0:0:
58,208,97122,2,0,L|49:301,1,85,8|4,1:0|1:3,0:0:0:0:
178,326,97643,6,0,P|248:289|190:215,1,170,4|0,1:2|1:0,0:0:0:0:
115,208,98426,1,10,1:0:0:0:
216,200,98687,1,6,1:0:0:0:
415,124,99209,1,6,1:0:0:0:
231,259,99730,6,0,P|156:234|136:124,1,170,6|0,1:1|1:0,0:0:0:0:
226,127,100513,1,8,1:0:0:0:
323,97,100774,2,0,P|390:157|324:197,1,170,6|0,1:0|1:0,0:0:0:0:
248,178,101556,1,8,1:0:0:0:
148,152,101817,6,0,L|144:336,1,170,4|0,1:2|1:0,0:0:0:0:
244,300,102600,1,8,1:0:0:0:
344,280,102861,1,6,1:0:0:0:
152,212,103382,1,6,1:0:0:0:
367,263,103904,6,0,P|419:218|332:166,1,170,6|2,1:0|1:0,0:0:0:0:
266,129,104687,1,10,1:0:0:0:
377,165,104948,2,0,L|381:259,1,85,6|8,1:0|1:0,0:0:0:0:
270,258,105469,2,0,L|265:350,1,85,0|8,1:0|1:0,0:0:0:0:
152,314,105991,6,0,P|112:263|160:216,1,127.5,0|0,1:0|1:0,0:0:0:0:
274,158,106643,2,0,L|273:268,1,85,0|0,1:0|1:0,0:0:0:0:
144,193,107165,2,0,L|145:303,1,85,0|0,1:0|1:0,0:0:0:0:
186,315,107556,1,0,1:0:0:0:
308,311,107817,1,8,1:0:0:0:
182,239,108078,6,0,P|151:171|288:78,1,255,4|0,0:0|0:0,0:0:0:0:
402,129,109122,2,0,P|437:184|399:277,1,170,2|0,0:0|3:0,0:0:0:0:
296,299,109904,1,0,0:0:0:0:
181,312,110165,6,0,P|148:259|275:150,1,255,0|0,3:0|3:0,0:0:0:0:
380,144,111209,2,0,L|385:243,1,85,0|0,3:0|0:0,0:0:0:0:
264,259,111730,1,2,0:3:0:0:
182,225,112252,6,0,L|86:217,2,85,4|8|0,0:0|1:0|1:0,0:0:0:0:
296,147,113035,2,0,L|117:170,1,170,10|8,1:0|1:0,0:0:0:0:
224,258,113817,2,0,L|319:245,1,85,0|8,1:0|1:0,0:0:0:0:
422,234,114339,6,0,L|438:132,2,85,4|8|0,1:2|1:0|1:0,0:0:0:0:
308,246,115122,2,0,P|239:184|310:138,1,170,10|8,1:0|1:0,0:0:0:0:
403,75,115904,2,0,L|308:80,1,85,0|8,1:0|1:0,0:0:0:0:
208,127,116426,6,0,L|122:133,2,85,4|8|0,1:2|1:0|1:0,0:0:0:0:
320,266,117209,2,0,P|370:222|297:161,1,170,10|8,1:0|1:0,0:0:0:0:
209,210,117991,2,0,L|117:199,1,85,0|8,1:0|1:0,0:0:0:0:
280,55,118513,6,0,L|368:56,1,85,4|8,1:2|1:0,0:0:0:0:
263,149,119035,2,0,L|366:150,1,85,0|8,1:0|1:0,0:0:0:0:
457,149,119556,2,0,L|463:217,1,42.5,0|2,1:0|1:0,0:0:0:0:
316,301,119948,2,0,L|169:301,1,127.5,2|8,1:0|1:0,0:0:0:0:
318,250,120600,6,0,L|428:248,2,85,4|8|0,1:2|1:0|1:0,0:0:0:0:
219,154,121382,2,0,L|421:168,1,170,10|8,1:0|1:0,0:0:0:0:
287,91,122165,2,0,L|192:85,1,85,0|8,1:0|1:0,0:0:0:0:
341,182,122687,6,0,L|437:176,2,85,4|8|0,1:2|1:0|1:0,0:0:0:0:
225,245,123469,2,0,P|160:220|199:141,1,170,10|8,1:0|1:0,0:0:0:0:
318,142,124252,2,0,L|224:122,1,85,0|8,1:0|1:0,0:0:0:0:
103,97,124774,6,0,L|91:193,2,85,4|8|0,1:2|1:0|1:0,0:0:0:0:
224,221,125556,2,0,P|286:175|213:146,1,170,10|0,1:0|1:0,0:0:0:0:
118,121,126339,2,0,L|105:216,1,85,0|0,1:0|1:0,0:0:0:0:
231,273,126861,5,4,1:2:0:0:
242,177,127122,1,8,1:0:0:0:
358,189,127382,1,4,1:2:0:0:
345,287,127643,1,8,1:0:0:0:
239,131,127904,2,0,L|134:118,1,85,0|8,1:0|1:0,0:0:0:0:
266,228,128426,2,0,L|374:240,1,85,2|8,1:0|1:0,0:0:0:0:
224,328,128948,6,0,L|212:128,1,170,4|8,0:0|1:0,0:0:0:0:
439,159,129991,1,2,0:0:0:0:
216,163,130513,1,8,1:0:0:0:
440,277,131035,6,0,L|264:262,1,170,4|8,1:2|1:0,0:0:0:0:
80,308,132078,1,0,1:0:0:0:
71,201,132600,1,8,1:0:0:0:
237,123,133122,6,0,P|281:172|226:271,1,170,4|8,0:0|1:0,0:0:0:0:
103,216,134165,2,0,P|59:265|114:364,1,170,4|8,1:2|1:0,0:0:0:0:
260,314,135209,5,4,1:0:0:0:
456,236,135730,1,0,1:0:0:0:
354,221,135991,1,0,1:0:0:0:
252,206,136252,1,8,1:0:0:0:
96,309,137295,6,0,P|70:261|155:171,1,170,4|0,1:2|1:0,0:0:0:0:
221,171,138078,1,8,1:0:0:0:
129,172,138339,1,6,1:0:0:0:
332,206,138861,1,6,1:0:0:0:
125,238,139382,6,0,P|72:200|110:100,1,170,6|0,1:0|1:0,0:0:0:0:
187,97,140165,1,8,1:0:0:0:
279,80,140426,2,0,L|295:273,1,170,6|4,1:0|1:0,0:0:0:0:
199,250,141209,1,10,1:0:0:0:
292,247,141469,6,0,P|352:220|323:121,1,170,4|0,1:0|1:0,0:0:0:0:
244,124,142252,1,8,1:0:0:0:
150,118,142513,1,6,1:0:0:0:
362,122,143035,1,6,1:0:0:0:
147,110,143556,6,0,P|97:152|167:240,1,170,6|0,1:0|1:0,0:0:0:0:
228,229,144339,1,8,1:0:0:0:
321,225,144600,2,0,L|326:125,1,85,6|8,1:0|1:0,0:0:0:0:
209,88,145122,2,0,L|125:76,1,85,0|8,1:0|1:0,0:0:0:0:
251,194,145643,6,0,L|443:182,1,170,4|0,1:2|1:0,0:0:0:0:
328,165,146426,1,10,1:0:0:0:
236,147,146687,1,6,1:0:0:0:
438,229,147209,1,6,1:0:0:0:
228,311,147730,6,0,L|217:114,1,170,6|0,1:0|1:0,0:0:0:0:
312,138,148513,1,8,1:0:0:0:
218,138,148774,2,0,P|153:155|191:252,1,170,6|0,1:0|1:0,0:0:0:0:
257,230,149556,1,8,1:0:0:0:
349,218,149817,6,0,P|403:166|332:94,1,170,4|0,1:2|1:0,0:0:0:0:
265,89,150600,1,8,1:0:0:0:
171,81,150861,1,6,1:0:0:0:
372,174,151382,1,6,1:0:0:0:
162,176,151904,6,0,L|146:270,1,85,6|8,1:0|1:0,0:0:0:0:
274,248,152426,1,0,1:0:0:0:
284,348,152687,1,8,1:0:0:0:
413,276,152948,2,0,P|450:218|331:124,1,255,6|8,1:0|1:3,0:0:0:0:
217,197,153991,6,0,P|166:166|232:72,1,170,4|2,1:0|0:0,0:0:0:0:
289,90,154774,1,10,1:0:0:0:
380,110,155035,2,0,L|195:128,1,170,4|2,1:0|0:0,0:0:0:0:
401,147,156078,6,0,P|445:180|375:196,1,127.5,4|2,0:2|1:0,0:0:0:0:
270,273,156861,2,0,P|226:306|296:322,1,127.5,10|2,1:0|1:0,0:0:0:0:
411,331,157643,1,2,1:0:0:0:
414,244,157904,1,10,1:0:0:0:
302,236,158165,6,0,P|258:187|334:116,1,170,4|2,1:2|0:0,0:0:0:0:
423,115,158948,1,10,1:0:0:0:
329,106,159209,2,0,L|128:97,1,170,4|2,1:2|0:0,0:0:0:0:
251,82,159991,1,10,1:0:0:0:
343,65,160252,6,0,P|404:89|426:168,1,127.5,4|2,1:2|1:0,0:0:0:0:
288,215,161035,2,0,P|227:239|205:318,1,127.5,10|2,1:0|1:0,0:0:0:0:
342,337,161817,2,0,L|353:245,1,85,2|10,1:0|1:0,0:0:0:0:
235,197,162339,5,4,0:0:0:0:
153,317,162861,1,2,1:2:0:0:
346,344,163382,2,0,P|338:273|239:233,1,170,4|2,1:2|0:0,0:0:0:0:
104,262,164426,6,0,P|106:204|205:140,1,170,4|2,0:0|1:2,0:0:0:0:
282,147,165209,1,8,1:0:0:0:
374,158,165469,2,0,P|420:227|359:315,1,170,4|2,1:2|0:0,0:0:0:0:
294,290,166252,1,8,1:0:0:0:
392,298,166513,6,0,L|192:311,1,170,4|2,1:2|0:0,0:0:0:0:
58,228,167556,2,0,L|258:241,1,170,4|2,1:2|0:0,0:0:0:0:
372,287,168600,6,0,P|417:232|371:194,1,127.5,4|2,1:2|1:0,0:0:0:0:
245,200,169382,2,0,P|200:145|246:107,1,127.5,10|10,1:0|1:1,0:0:0:0:
382,88,170165,2,0,L|391:177,1,85,4|8,1:3|1:0,0:0:0:0:
281,239,170687,6,0,P|217:213|260:126,1,170,4|8,1:2|1:0,0:0:0:0:
334,141,171469,1,2,1:2:0:0:
240,131,171730,1,0,1:0:0:0:
62,181,172252,1,8,1:0:0:0:
254,289,172774,6,0,P|316:254|293:169,1,170,4|8,0:0|1:0,0:0:0:0:
201,162,173556,1,2,1:2:0:0:
107,155,173817,1,0,1:0:0:0:
304,133,174339,1,8,1:0:0:0:
105,145,174861,6,0,L|103:330,1,170,4|8,1:2|1:0,0:0:0:0:
194,294,175643,1,2,1:2:0:0:
285,273,175904,1,0,1:0:0:0:
476,311,176426,1,8,1:0:0:0:
275,296,176948,6,0,P|226:253|302:184,1,170,4|8,1:2|1:1,0:0:0:0:
371,180,177730,1,8,1:1:0:0:
279,181,177991,1,0,1:0:0:0:
246,315,187382,6,0,P|192:268|272:211,1,170,4|0,1:2|1:0,0:0:0:0:
345,187,188165,1,8,1:0:0:0:
351,101,188426,1,4,1:0:0:0:
209,185,188948,2,0,L|204:292,1,85,4|8,1:0|1:0,0:0:0:0:
327,278,189469,6,0,P|363:218|269:157,1,170,4|0,1:0|1:0,0:0:0:0:
185,141,190252,1,8,1:0:0:0:
179,227,190513,1,4,1:0:0:0:
348,260,191035,2,0,L|245:266,1,85,2|8,0:0|1:0,0:0:0:0:
153,305,191556,6,0,L|336:322,1,170,4|0,1:0|1:0,0:0:0:0:
433,282,192339,1,8,1:0:0:0:
437,199,192600,1,4,1:0:0:0:
273,152,193122,2,0,L|374:136,1,85,4|8,1:0|1:0,0:0:0:0:
263,258,193643,6,0,P|195:229|236:125,1,170,4|4,1:0|1:0,0:0:0:0:
296,148,194426,1,10,1:0:0:0:
396,147,194687,6,0,P|471:202|378:315,1,255,6|0,1:0|1:0,0:0:0:0:
291,305,195730,6,0,L|111:322,1,170,4|0,1:2|1:0,0:0:0:0:
209,287,196513,1,8,1:0:0:0:
116,302,196774,1,6,1:0:0:0:
309,297,197295,1,6,1:0:0:0:
106,245,197817,6,0,P|86:174|174:115,1,170,6|0,1:0|1:0,0:0:0:0:
243,127,198600,1,8,1:0:0:0:
336,133,198861,2,0,L|348:309,1,170,6|6,1:0|1:0,0:0:0:0:
254,299,199643,1,8,1:0:0:0:
347,299,199904,6,0,P|400:266|320:200,1,170,4|0,1:2|1:0,0:0:0:0:
259,185,200687,1,8,1:0:0:0:
165,180,200948,1,6,1:0:0:0:
351,134,201469,1,6,1:0:0:0:
157,284,201991,6,0,P|115:218|189:169,1,170,6|0,1:0|1:0,0:0:0:0:
265,145,202774,1,8,1:0:0:0:
356,127,203035,2,0,L|366:231,1,85,6|8,1:0|1:0,0:0:0:0:
249,222,203556,2,0,L|241:333,1,85,0|8,1:0|1:0,0:0:0:0:
368,350,204078,6,0,P|422:316|341:249,1,170,4|0,1:2|1:0,0:0:0:0:
284,223,204861,1,10,1:0:0:0:
191,206,205122,1,6,1:0:0:0:
385,135,205643,1,6,1:0:0:0:
196,291,206165,6,0,P|176:219|262:173,1,170,6|0,1:0|1:0,0:0:0:0:
339,168,206948,1,8,1:0:0:0:
245,165,207209,2,0,L|50:149,1,170,6|0,1:0|1:0,0:0:0:0:
168,138,207991,1,8,1:0:0:0:
265,126,208252,6,0,P|326:177|251:244,1,170,4|0,1:2|1:0,0:0:0:0:
192,234,209035,1,10,1:0:0:0:
285,237,209295,1,6,1:0:0:0:
486,168,209817,1,6,1:0:0:0:
275,214,210339,5,6,1:0:0:0:
260,113,210600,1,8,1:0:0:0:
375,218,210861,1,0,1:0:0:0:
390,117,211122,1,10,1:0:0:0:
246,290,211382,2,0,P|160:245|265:161,1,255,6|4,1:0|1:3,0:0:0:0:
355,151,212426,5,4,2:2:0:0:
189,131,218426,5,0,1:0:0:0:
316,128,218687,2,0,L|326:275,1,127.5,0|0,1:0|1:0,0:0:0:0:
147,219,219469,2,0,L|137:366,1,127.5,0|0,1:0|1:0,0:0:0:0:
326,297,220252,2,0,L|334:200,1,85,4|4,1:2|1:2,0:0:0:0:
216,205,220774,6,0,P|162:166|233:101,1,170,2|2,0:0|0:0,0:0:0:0:
331,154,221687,2,0,L|335:263,1,85,2|0,0:0|0:0,0:0:0:0:
271,315,222078,1,2,1:0:0:0:
133,317,222339,1,4,1:2:0:0:
256,192,222600,12,0,226643,1:0:0:0:
