osu file format v14

[General]
AudioFilename: audio.mp3
AudioLeadIn: 0
PreviewTime: 49122
Countdown: 1
SampleSet: Soft
StackLeniency: 0.7
Mode: 0
LetterboxInBreaks: 0
WidescreenStoryboard: 0

[Editor]
Bookmarks: 14296,49643,57991,80948,89295
DistanceSpacing: 2
BeatDivisor: 4
GridSize: 4
TimelineZoom: 2.6

[Metadata]
Title:Gensou no Satellite
TitleUnicode:幻想のサテライト
Artist:BUTAOTOME
ArtistUnicode:豚乙女
Creator:Aeril
Version:Extra
Source:東方Project
Tags:Xetopia Buta-Otome 大空魔術 ~ Magical Astronomy 幻想ホモ・ルーデンス Illusionary Homo Ludens Gensou Ruudensu 天空のグリニッジ ランコ RANKO コンプ COMP パプリカ PAPRIKA ランコの姉 RANKO no ANE Touhou Jazz ZUN SOUND VOLTEX BOOTH SDVX
BeatmapID:1875181
BeatmapSetID:897572

[Difficulty]
HPDrainRate:5
CircleSize:4
OverallDifficulty:8
ApproachRate:9
SliderMultiplier:1.8
SliderTickRate:1

[Events]
//Background and Video events
0,0,"fantasy satellite.jpg",0,0
//Break Periods
2,38121,40696
2,179035,186782
//Storyboard Layer 0 (Background)
//Storyboard Layer 1 (Fail)
//Storyboard Layer 2 (Pass)
//Storyboard Layer 3 (Foreground)
//Storyboard Sound Samples

[TimingPoints]
14296,750,4,2,1,70,1,0
35483,-125,4,2,1,70,0,0
35858,-83.3333333333333,4,2,1,70,0,0
36233,-62.5,4,2,1,70,0,0
41296,260.869565217391,4,2,1,70,1,0
49643,-83.3333333333333,4,2,1,70,0,1
57991,-166.666666666667,4,2,1,70,0,0
59295,-125,4,2,1,70,0,0
64252,-100,4,2,1,70,0,0
80948,-200,4,2,1,70,0,0
89295,-83.3333333333333,4,2,1,70,0,1
97382,-83.3333333333333,4,2,1,70,0,0
97643,-83.3333333333333,4,2,1,70,0,1
105991,-100,4,2,1,70,0,0
108078,-200,4,2,1,70,0,0
112252,-100,4,2,1,70,0,0
128948,-200,4,2,1,70,0,0
136252,-133.333333333333,4,2,1,70,0,0
137295,-83.3333333333333,4,2,1,70,0,1
145382,-83.3333333333333,4,2,1,70,0,0
145643,-83.3333333333333,4,2,1,70,0,1
153991,-100,4,2,1,70,0,0
161817,-71.4285714285714,4,2,1,70,0,0
161882,-71.4285714285714,4,2,1,5,0,0
161948,-71.4285714285714,4,2,1,70,0,0
162339,-83.3333333333333,4,2,1,70,0,0
166513,-125,4,2,1,70,0,0
166969,-83.3333333333333,4,2,1,70,0,0
167556,-125,4,2,1,70,0,0
168013,-83.3333333333333,4,2,1,70,0,0
168600,-100,4,2,1,70,0,0
170165,-71.4285714285714,4,2,1,70,0,0
170230,-71.4285714285714,4,2,1,5,0,0
170295,-71.4285714285714,4,2,1,70,0,0
170687,-125,4,2,1,70,0,0

[Colours]
Combo1 : 206,191,140
Combo2 : 170,85,255
Combo3 : 255,100,100
Combo4 : 115,236,253

[HitObjects]
50,73,14296,5,0,0:0:0:0:
50,73,14671,1,0,0:0:0:0:
83,60,14764,1,0,0:0:0:0:
119,61,14858,1,0,0:0:0:0:
151,76,14952,1,0,0:0:0:0:
175,103,15046,1,0,0:0:0:0:
11,218,15421,1,0,0:0:0:0:
33,190,15514,1,0,0:0:0:0:
65,173,15608,1,0,0:0:0:0:
100,170,15702,1,0,0:0:0:0:
134,181,15796,1,0,0:0:0:0:
470,66,16171,5,0,0:0:0:0:
385,101,16546,1,0,0:0:0:0:
385,101,16921,1,0,0:0:0:0:
453,360,17296,5,0,0:0:0:0:
453,360,17671,1,0,0:0:0:0:
466,327,17764,1,0,0:0:0:0:
465,291,17858,1,0,0:0:0:0:
450,259,17952,1,0,0:0:0:0:
423,235,18046,1,0,0:0:0:0:
248,369,18421,1,0,0:0:0:0:
283,363,18514,1,0,0:0:0:0:
313,344,18608,1,0,0:0:0:0:
333,315,18702,1,0,0:0:0:0:
341,280,18796,1,0,0:0:0:0:
71,124,19171,5,0,0:0:0:0:
56,32,19358,1,0,0:0:0:0:
71,124,19546,1,0,0:0:0:0:
86,216,19733,1,0,0:0:0:0:
467,47,20296,5,0,0:0:0:0:
377,73,20671,1,0,0:0:0:0:
339,158,21046,1,0,0:0:0:0:
362,248,21421,1,0,0:0:0:0:
362,248,22171,5,0,0:0:0:0:
339,158,22358,1,0,0:0:0:0:
377,73,22546,1,0,0:0:0:0:
467,47,22733,1,0,0:0:0:0:
444,137,22921,1,0,0:0:0:0:
43,335,23296,5,0,0:0:0:0:
43,335,23858,1,0,0:0:0:0:
116,277,24045,1,0,0:0:0:0:
203,312,24233,1,0,0:0:0:0:
103,185,24796,1,0,0:0:0:0:
469,335,25546,5,0,0:0:0:0:
396,277,25733,1,0,0:0:0:0:
467,44,26296,5,0,0:0:0:0:
424,262,27046,1,0,0:0:0:0:
67,154,27796,5,0,0:0:0:0:
45,44,28358,1,0,0:0:0:0:
88,262,28921,1,0,0:0:0:0:
216,370,29296,5,0,0:0:0:0:
245,221,29859,1,0,0:0:0:0:
267,114,30421,1,0,0:0:0:0:
336,62,30796,5,0,0:0:0:0:
336,62,31546,1,0,0:0:0:0:
423,63,31921,1,0,0:0:0:0:
499,273,32296,6,0,B|400:240|436:297|324:259,1,180
323,258,33421,1,0,0:0:0:0:
13,273,33796,6,0,P|60:269|125:305,1,90
140,359,34358,1,0,0:0:0:0:
140,359,34733,1,0,0:0:0:0:
99,283,34921,1,0,0:0:0:0:
43,45,35296,5,0,0:0:0:0:
109,92,35483,2,0,P|133:83|156:59,1,36
222,123,35858,2,0,P|235:89|227:37,1,53.9999983520508
349,117,36233,1,0,0:0:0:0:
324,9,36421,2,0,P|345:42|348:101,1,72
469,129,36796,5,0,0:0:0:0:
469,129,37171,1,0,0:0:0:0:
429,229,37358,1,0,0:0:0:0:
475,302,37546,1,0,0:0:0:0:
453,346,37733,1,0,0:0:0:0:
460,370,37921,1,0,0:0:0:0:
41,206,41296,5,0,0:0:0:0:
45,221,43382,5,0,0:0:0:0:
462,237,45209,5,0,0:0:0:0:
256,192,45469,1,0,0:0:0:0:
55,268,47295,5,0,0:0:0:0:
255,173,47556,1,0,0:0:0:0:
39,14,49122,5,0,0:0:0:0:
42,31,49187,1,0,0:0:0:0:
44,48,49252,1,0,0:0:0:0:
47,65,49317,1,0,0:0:0:0:
50,82,49382,1,0,0:0:0:0:
53,99,49448,1,0,0:0:0:0:
55,116,49513,1,0,0:0:0:0:
58,133,49578,1,0,0:0:0:0:
31,180,49643,6,0,P|98:174|150:208,1,107.999996704102
332,285,49904,1,0,0:0:0:0:
210,317,50035,2,0,P|277:323|329:289,1,107.999996704102
388,221,50295,1,0,0:0:0:0:
229,0,50426,2,0,L|245:190,1,161.999995056153
263,182,50687,5,0,0:0:0:0:
47,168,50861,1,0,0:0:0:0:
263,182,51035,1,0,0:0:0:0:
127,306,51209,5,0,0:0:0:0:
289,295,51382,1,0,0:0:0:0:
127,306,51556,1,0,0:0:0:0:
410,364,51730,6,0,L|418:245,2,107.999996704102
436,144,52122,2,0,L|446:260,1,107.999996704102
476,64,52382,1,0,0:0:0:0:
269,148,52513,2,0,P|217:135|101:200,1,161.999995056153
138,259,52774,5,0,0:0:0:0:
137,18,52904,2,0,P|155:80|147:179,1,161.999995056153
119,174,53165,1,0,0:0:0:0:
24,57,53295,2,0,P|2:132|40:300,1,215.999993408203
468,329,53817,6,0,P|420:304|366:306,1,107.999996704102
165,308,54078,1,0,0:0:0:0:
287,262,54209,2,0,P|215:291|163:283,1,107.999996704102
123,193,54469,1,0,0:0:0:0:
294,384,54600,2,0,L|310:186,1,161.999995056153
250,147,54861,5,0,0:0:0:0:
466,120,55035,1,0,0:0:0:0:
250,147,55209,1,0,0:0:0:0:
169,278,55382,5,0,0:0:0:0:
6,257,55556,1,0,0:0:0:0:
169,278,55730,1,0,0:0:0:0:
46,384,55904,6,0,L|34:262,2,107.999996704102
66,197,56295,2,0,P|64:147|7:113,1,107.999996704102
91,213,56556,1,0,0:0:0:0:
78,40,56687,2,0,L|302:61,1,215.999993408203
293,60,57209,5,0,0:0:0:0:
494,32,57339,1,0,0:0:0:0:
365,0,57469,5,0,0:0:0:0:
395,180,57600,1,0,0:0:0:0:
395,180,57665,1,0,0:0:0:0:
395,180,57730,1,0,0:0:0:0:
425,360,57861,1,0,0:0:0:0:
411,270,57991,6,0,L|307:286,1,80.9999975280763
316,304,58252,1,0,0:0:0:0:
124,264,58382,2,0,L|236:279,1,107.999996704102
231,278,58905,1,0,0:0:0:0:
146,306,59035,2,0,L|150:377,1,53.9999983520508
26,161,59295,2,0,L|37:-9,1,144
101,214,60078,5,0,0:0:0:0:
96,227,63209,5,0,0:0:0:0:
24,111,63339,1,0,0:0:0:0:
24,131,63404,1,0,0:0:0:0:
23,151,63469,1,0,0:0:0:0:
96,227,63600,1,0,0:0:0:0:
283,29,63730,2,0,L|209:33,1,72
125,118,63991,1,0,0:0:0:0:
162,107,64122,1,0,0:0:0:0:
443,37,64252,6,0,L|434:137,1,90
298,100,64513,2,0,L|307:200,1,90
452,154,64774,2,0,L|443:254,1,90
168,298,65035,2,0,L|361:273,1,180
194,322,65426,1,0,0:0:0:0:
354,381,65556,2,0,P|345:341|302:297,1,90
91,359,65817,2,0,L|216:380,2,90
126,31,66339,6,0,L|143:138,1,90
14,237,66600,2,0,L|34:110,1,90
115,218,66795,1,0,0:0:0:0:
134,213,66860,1,0,0:0:0:0:
54,167,66991,1,0,0:0:0:0:
224,60,67122,2,0,L|410:85,1,180
245,89,67513,1,0,0:0:0:0:
415,108,67643,2,0,P|424:55|407:17,1,90
311,154,67904,1,0,0:0:0:0:
505,110,68035,2,0,P|487:159|493:229,2,90
392,255,68426,6,0,L|374:343,1,90
239,221,68687,2,0,L|257:320,1,90
100,309,68948,2,0,L|158:378,1,90
0,127,69209,2,0,L|190:145,1,180
27,99,69600,1,0,0:0:0:0:
197,5,69730,2,0,P|172:56|120:62,1,90
195,224,69991,2,0,L|210:120,1,90
59,227,70252,2,0,L|79:380,1,135
15,205,70513,6,0,L|219:226,1,180
293,105,70904,1,0,0:0:0:0:
293,105,70969,1,0,0:0:0:0:
293,105,71035,2,0,L|312:-3,1,90
352,291,71295,2,0,L|376:422,1,90
481,115,71556,6,0,L|349:122,1,90
257,263,71817,1,0,0:0:0:0:
320,19,71948,2,0,L|288:117,1,90
278,244,72209,1,0,0:0:0:0:
466,250,72339,1,0,0:0:0:0:
424,346,72469,1,0,0:0:0:0:
183,305,72600,6,0,L|167:201,1,90
27,238,72861,2,0,L|36:123,1,90
190,120,73122,2,0,L|176:4,1,90
10,257,73382,2,0,L|224:278,1,180
29,283,73774,1,0,0:0:0:0:
177,175,73904,2,0,P|163:119|116:93,1,90
138,354,74165,2,0,L|155:255,2,90
305,37,74687,6,0,L|294:127,1,90
467,249,74948,2,0,L|453:146,1,90
386,283,75143,1,0,0:0:0:0:
394,302,75209,1,0,0:0:0:0:
491,239,75339,1,0,0:0:0:0:
278,335,75469,2,0,L|74:357,1,180
255,319,75861,1,0,0:0:0:0:
168,180,75991,2,0,P|155:246|113:272,1,90
173,88,76252,1,0,0:0:0:0:
58,187,76382,2,0,P|35:120|-9:90,2,90
196,102,76774,6,0,L|191:-11,1,90
308,168,77035,2,0,L|332:71,1,90
450,236,77295,2,0,L|429:132,1,90
151,288,77556,2,0,L|348:308,1,180
175,316,77948,1,0,0:0:0:0:
330,375,78078,2,0,P|340:323|297:274,1,90
23,377,78339,2,0,L|125:366,2,90
52,48,78861,6,0,L|41:159,1,90
150,293,79122,2,0,L|139:182,1,90
143,108,79317,1,0,0:0:0:0:
161,98,79382,1,0,0:0:0:0:
23,121,79513,1,0,0:0:0:0:
261,4,79643,2,0,L|252:123,1,90
361,352,79904,5,0,0:0:0:0:
411,274,80035,1,0,0:0:0:0:
367,193,80165,1,0,0:0:0:0:
452,40,80295,2,0,L|438:155,1,90
227,20,80556,1,0,0:0:0:0:
278,114,80687,1,0,0:0:0:0:
275,148,80817,1,0,0:0:0:0:
48,206,80948,5,0,0:0:0:0:
48,206,81339,1,0,0:0:0:0:
192,197,81469,2,0,P|202:255|200:299,1,90
155,363,81861,1,0,0:0:0:0:
155,363,81991,6,0,P|126:366|103:372,1,45
297,259,82252,1,0,0:0:0:0:
288,354,82382,2,0,P|317:351|340:345,1,45
435,129,82774,1,0,0:0:0:0:
435,129,82904,1,0,0:0:0:0:
435,129,83035,6,0,P|432:177|435:231,1,90
277,132,83426,1,0,0:0:0:0:
358,65,83556,2,0,P|362:33|361:2,1,45
205,40,83817,2,0,P|205:62|209:84,1,45
291,155,84078,6,0,P|295:187|282:262,1,90
199,198,84469,1,0,0:0:0:0:
301,266,84600,2,0,P|342:270|364:279,1,45
177,310,84861,1,0,0:0:0:0:
489,141,85122,6,0,P|491:73|466:11,2,135
435,210,86035,1,0,0:0:0:0:
495,373,86165,5,0,0:0:0:0:
495,373,86295,2,0,L|490:265,1,90
419,134,86687,1,0,0:0:0:0:
419,134,86817,2,0,L|411:193,1,45
433,315,87209,5,0,0:0:0:0:
181,267,87470,1,0,0:0:0:0:
306,292,87730,1,0,0:0:0:0:
160,348,87991,1,0,0:0:0:0:
160,348,88122,1,0,0:0:0:0:
129,104,88252,5,0,0:0:0:0:
239,247,88382,1,0,0:0:0:0:
60,270,88513,1,0,0:0:0:0:
231,158,88643,5,0,0:0:0:0:
255,142,88709,1,0,0:0:0:0:
283,134,88773,1,0,0:0:0:0:
312,136,88838,1,0,0:0:0:0:
340,146,88904,1,0,0:0:0:0:
362,165,88969,1,0,0:0:0:0:
389,152,89035,6,0,L|383:236,1,67.5
407,316,89295,6,0,P|420:263|398:192,1,107.999996704102
291,361,89556,1,0,0:0:0:0:
181,193,89687,2,0,P|168:140|190:69,1,107.999996704102
256,16,89948,1,0,0:0:0:0:
497,135,90078,2,0,L|335:146,1,161.999995056153
318,172,90339,5,0,0:0:0:0:
150,209,90513,1,0,0:0:0:0:
32,82,90687,1,0,0:0:0:0:
300,195,90861,5,0,0:0:0:0:
138,186,91035,1,0,0:0:0:0:
147,24,91209,1,0,0:0:0:0:
187,261,91382,6,0,L|173:370,2,107.999996704102
39,362,91774,2,0,L|147:355,1,107.999996704102
15,228,92035,1,0,0:0:0:0:
262,304,92165,2,0,L|435:286,1,161.999995056153
493,341,92426,5,0,0:0:0:0:
477,125,92556,1,0,0:0:0:0:
477,125,92622,1,0,0:0:0:0:
493,341,92752,1,0,0:0:0:0:
493,341,92817,1,0,0:0:0:0:
420,32,92948,2,0,P|435:115|365:260,1,215.999993408203
65,367,93469,6,0,P|38:307|48:239,1,107.999996704102
116,74,93730,1,0,0:0:0:0:
52,171,93861,2,0,P|90:117|154:92,1,107.999996704102
173,13,94122,1,0,0:0:0:0:
219,323,94252,2,0,L|207:126,1,161.999995056153
185,138,94513,5,0,0:0:0:0:
358,147,94687,1,0,0:0:0:0:
490,33,94861,1,0,0:0:0:0:
193,117,95035,5,0,0:0:0:0:
346,168,95209,1,0,0:0:0:0:
397,15,95382,1,0,0:0:0:0:
441,251,95556,6,0,P|375:267|329:324,2,107.999996704102
288,356,95948,2,0,P|242:313|246:254,1,107.999996704102
363,314,96209,1,0,0:0:0:0:
173,209,96339,2,0,L|-24:234,1,161.999995056153
20,202,96600,5,0,0:0:0:0:
241,173,96774,1,0,0:0:0:0:
462,144,96948,1,0,0:0:0:0:
277,105,97122,5,0,0:0:0:0:
337,335,97252,1,0,0:0:0:0:
338,350,97317,1,0,0:0:0:0:
339,365,97382,1,0,0:0:0:0:
365,261,97513,1,0,0:0:0:0:
180,11,97643,6,0,P|155:69|167:162,1,107.999996704102
53,324,97904,1,0,0:0:0:0:
90,183,98035,2,0,P|109:247|163:285,1,107.999996704102
224,255,98295,1,0,0:0:0:0:
470,274,98426,2,0,P|389:294|326:385,1,161.999995056153
353,370,98687,5,0,0:0:0:0:
393,202,98861,1,0,0:0:0:0:
262,85,99035,1,0,0:0:0:0:
369,384,99209,5,0,0:0:0:0:
371,223,99382,1,0,0:0:0:0:
210,221,99556,1,0,0:0:0:0:
18,361,99730,6,0,L|135:351,2,107.999996704102
278,274,100122,2,0,L|169:262,1,107.999996704102
145,366,100382,1,0,0:0:0:0:
0,151,100513,2,0,P|60:151|167:65,1,161.999995056153
119,4,100774,5,0,0:0:0:0:
150,211,100904,1,0,0:0:0:0:
150,211,100969,1,0,0:0:0:0:
119,4,101100,1,0,0:0:0:0:
119,4,101165,1,0,0:0:0:0:
192,303,101295,2,0,P|192:231|309:101,1,215.999993408203
461,366,101817,6,0,P|466:300|433:248,1,107.999996704102
275,127,102078,1,0,0:0:0:0:
390,2,102209,2,0,P|386:65|342:122,1,107.999996704102
345,211,102469,1,0,0:0:0:0:
101,347,102600,2,0,L|280:326,1,161.999995056153
281,303,102861,5,0,0:0:0:0:
37,261,103035,1,0,0:0:0:0:
281,303,103209,1,0,0:0:0:0:
196,159,103382,5,0,0:0:0:0:
390,130,103556,1,0,0:0:0:0:
196,159,103730,1,0,0:0:0:0:
417,41,103904,6,0,L|408:163,2,107.999996704102
483,221,104295,2,0,P|463:274|397:287,1,107.999996704102
504,237,104556,1,0,0:0:0:0:
306,125,104687,2,0,L|80:149,1,215.999993408203
74,168,105209,5,0,0:0:0:0:
28,0,105339,1,0,0:0:0:0:
164,36,105469,5,0,0:0:0:0:
155,118,105600,1,0,0:0:0:0:
323,103,105730,5,0,0:0:0:0:
323,103,105991,1,0,0:0:0:0:
447,7,106122,5,0,0:0:0:0:
413,86,106382,1,0,0:0:0:0:
367,205,106643,1,0,0:0:0:0:
431,374,106904,5,0,0:0:0:0:
25,326,107165,1,0,0:0:0:0:
261,103,107426,5,0,0:0:0:0:
256,12,107556,1,0,0:0:0:0:
261,103,107687,1,0,0:0:0:0:
271,285,107817,1,0,0:0:0:0:
266,194,108078,5,0,0:0:0:0:
184,152,108339,1,0,0:0:0:0:
102,110,108600,1,0,0:0:0:0:
102,110,108861,1,0,0:0:0:0:
179,59,109122,5,0,0:0:0:0:
179,59,109252,1,0,0:0:0:0:
107,203,109513,1,0,0:0:0:0:
107,203,109643,2,0,L|122:356,1,135
120,337,110165,5,0,0:0:0:0:
202,295,110426,1,0,0:0:0:0:
284,337,110687,1,0,0:0:0:0:
393,220,110948,6,0,P|367:221|343:224,1,45
447,297,111209,1,0,0:0:0:0:
466,300,111339,1,0,0:0:0:0:
485,303,111469,1,0,0:0:0:0:
468,49,111730,5,0,0:0:0:0:
468,49,112252,6,0,L|454:159,1,90
287,108,112513,2,0,L|301:215,1,90
402,267,112774,2,0,L|387:381,1,90
475,152,113035,2,0,L|263:176,1,180
465,176,113426,1,0,0:0:0:0:
320,59,113556,2,0,P|262:57|212:96,1,90
265,267,113817,2,0,P|300:226|304:159,1,90
121,252,114078,2,0,P|141:321|133:403,1,135
116,301,114339,6,0,L|123:196,1,90
28,16,114600,2,0,L|35:121,1,90
212,123,114795,1,0,0:0:0:0:
220,103,114861,2,0,L|132:117,1,90
320,17,115122,2,0,L|527:38,1,180
484,54,115513,1,0,0:0:0:0:
291,167,115643,2,0,P|320:124|383:118,1,90
450,280,115904,2,0,L|466:405,2,90
56,344,116426,6,0,L|169:331,1,90
139,185,116687,2,0,L|252:198,1,90
264,366,116948,2,0,L|374:346,1,90
260,169,117209,2,0,L|248:354,1,180
278,197,117600,1,0,0:0:0:0:
372,257,117730,2,0,P|428:252|469:216,1,90
462,60,117991,2,0,P|434:120|444:176,1,90
193,107,118252,2,0,P|262:112|339:72,1,135
145,36,118513,6,0,L|159:232,1,180
20,323,118904,1,0,0:0:0:0:
20,323,118969,1,0,0:0:0:0:
20,323,119035,1,0,0:0:0:0:
142,246,119165,1,0,0:0:0:0:
334,360,119295,1,0,0:0:0:0:
419,375,119426,1,0,0:0:0:0:
389,292,119556,1,0,0:0:0:0:
455,129,119687,6,0,L|442:241,1,90
446,24,119948,2,0,L|424:208,1,180
223,22,120339,1,0,0:0:0:0:
248,121,120469,1,0,0:0:0:0:
60,57,120600,6,0,L|46:183,1,90
183,177,120861,2,0,L|194:299,1,90
44,269,121122,2,0,L|31:380,1,90
33,131,121382,2,0,L|243:160,1,180
52,109,121774,1,0,0:0:0:0:
251,67,121904,2,0,P|222:25|155:10,1,90
138,203,122165,2,0,P|188:153|198:103,1,90
0,252,122426,2,0,P|63:262|126:311,1,135
165,373,122687,6,0,L|259:354,1,90
453,282,122948,2,0,L|343:263,1,90
183,233,123143,1,0,0:0:0:0:
199,250,123209,2,0,L|210:118,1,90
498,130,123469,2,0,L|297:154,1,180
336,132,123861,1,0,0:0:0:0:
493,300,123991,2,0,P|487:242|452:207,1,90
431,10,124252,2,0,P|412:70|433:134,2,90
439,354,124774,6,0,L|326:343,1,90
311,201,125035,2,0,L|203:214,1,90
176,384,125295,2,0,L|79:377,1,90
175,104,125556,2,0,L|192:298,1,180
158,123,125948,1,0,0:0:0:0:
15,257,126078,2,0,P|70:248|114:203,1,90
84,18,126339,2,0,P|69:63|88:128,1,90
298,188,126600,2,0,P|268:154|273:34,1,135
301,148,126861,6,0,L|293:265,1,90
95,345,127122,2,0,L|199:331,1,90
78,317,127317,1,0,0:0:0:0:
59,313,127382,1,0,0:0:0:0:
194,308,127513,1,0,0:0:0:0:
389,384,127643,2,0,L|395:284,1,90
433,41,127904,5,0,0:0:0:0:
348,130,128035,1,0,0:0:0:0:
468,160,128165,1,0,0:0:0:0:
226,11,128295,2,0,P|246:57|244:198,1,180
37,87,128687,5,0,0:0:0:0:
77,79,128817,1,0,0:0:0:0:
83,243,128948,5,0,0:0:0:0:
83,243,129339,1,0,0:0:0:0:
218,321,129469,2,0,P|250:294|309:272,1,90
374,334,129861,1,0,0:0:0:0:
374,334,129991,6,0,P|372:363|377:396,1,45
414,182,130252,1,0,0:0:0:0:
488,286,130382,2,0,P|490:257|485:224,1,45
291,28,130774,1,0,0:0:0:0:
291,28,131035,6,0,P|294:73|287:135,1,90
435,212,131426,1,0,0:0:0:0:
395,125,131556,2,0,P|406:97|426:77,1,45
363,273,131817,2,0,P|331:284|314:284,1,45
139,206,132078,6,0,P|181:205|244:219,1,90
173,299,132469,1,0,0:0:0:0:
118,192,132600,2,0,P|120:156|114:131,1,45
43,334,132861,1,0,0:0:0:0:
33,24,133122,6,0,P|22:50|23:160,2,135
119,0,134035,1,0,0:0:0:0:
254,106,134165,5,0,0:0:0:0:
254,106,134295,2,0,L|362:98,1,90
141,206,134687,1,0,0:0:0:0:
141,206,134817,2,0,L|79:202,1,45
206,358,135209,5,0,0:0:0:0:
445,384,135469,1,0,0:0:0:0:
213,337,135730,1,0,0:0:0:0:
467,272,135991,1,0,0:0:0:0:
348,339,136122,1,0,0:0:0:0:
457,248,136252,6,0,P|418:254|377:241,1,67.5000025749208
424,172,136513,2,0,P|461:201|477:243,1,67.5000025749208
391,247,136774,1,0,0:0:0:0:
250,244,136904,2,0,P|279:227|313:225,2,67.5000025749208
486,111,137295,6,0,P|493:71|472:4,1,107.999996704102
322,205,137556,1,0,0:0:0:0:
286,7,137687,2,0,P|331:37|360:105,1,107.999996704102
303,189,137948,1,0,0:0:0:0:
512,318,138078,2,0,L|328:352,1,161.999995056153
335,364,138339,5,0,0:0:0:0:
219,233,138513,1,0,0:0:0:0:
265,66,138687,1,0,0:0:0:0:
352,347,138861,5,0,0:0:0:0:
318,189,139035,1,0,0:0:0:0:
476,155,139209,1,0,0:0:0:0:
175,255,139382,6,0,L|45:243,2,107.999996704102
0,382,139774,2,0,L|143:369,1,107.999996704102
255,311,140035,1,0,0:0:0:0:
144,69,140165,2,0,L|161:262,1,161.999995056153
72,213,140426,5,0,0:0:0:0:
321,169,140557,1,0,0:0:0:0:
321,169,140622,1,0,0:0:0:0:
72,213,140751,1,0,0:0:0:0:
72,213,140817,1,0,0:0:0:0:
414,192,140948,2,0,P|332:207|230:319,1,215.999993408203
44,19,141469,6,0,P|38:84|63:141,1,107.999996704102
215,251,141730,1,0,0:0:0:0:
52,278,141861,2,0,P|83:226|140:201,1,107.999996704102
235,236,142122,1,0,0:0:0:0:
337,4,142252,2,0,L|331:185,1,161.999995056153
349,184,142513,5,0,0:0:0:0:
187,118,142687,1,0,0:0:0:0:
43,213,142861,1,0,0:0:0:0:
365,202,143035,5,0,0:0:0:0:
202,214,143209,1,0,0:0:0:0:
214,377,143382,1,0,0:0:0:0:
299,117,143556,6,0,P|282:73|285:-13,2,107.999996704102
446,83,143948,2,0,P|424:15|372:-2,1,107.999996704102
464,108,144209,1,0,0:0:0:0:
295,222,144339,2,0,L|492:247,1,161.999995056153
448,215,144600,5,0,0:0:0:0:
227,186,144774,1,0,0:0:0:0:
6,157,144948,1,0,0:0:0:0:
81,113,145122,5,0,0:0:0:0:
281,256,145252,1,0,0:0:0:0:
280,271,145317,1,0,0:0:0:0:
279,286,145382,1,0,0:0:0:0:
356,206,145513,1,0,0:0:0:0:
39,351,145643,6,0,P|92:349|145:304,1,107.999996704102
82,99,145904,1,0,0:0:0:0:
200,242,146035,2,0,P|194:177|136:126,1,107.999996704102
121,299,146295,1,0,0:0:0:0:
297,31,146426,2,0,L|308:222,1,161.999995056153
328,215,146687,5,0,0:0:0:0:
164,273,146861,1,0,0:0:0:0:
32,164,147035,1,0,0:0:0:0:
306,192,147209,5,0,0:0:0:0:
146,168,147382,1,0,0:0:0:0:
170,8,147556,1,0,0:0:0:0:
202,265,147730,6,0,L|208:393,2,107.999996704102
299,17,148122,2,0,L|293:126,1,107.999996704102
182,246,148382,1,0,0:0:0:0:
465,214,148513,2,0,L|274:234,1,161.999995056153
278,311,148774,5,0,0:0:0:0:
220,53,148904,1,0,0:0:0:0:
220,53,148969,1,0,0:0:0:0:
278,311,149100,1,0,0:0:0:0:
278,311,149165,1,0,0:0:0:0:
140,7,149295,2,0,P|174:57|165:233,1,215.999993408203
462,354,149817,6,0,P|441:297|467:225,1,107.999996704102
385,25,150078,1,0,0:0:0:0:
487,103,150209,2,0,P|449:59|388:49,1,107.999996704102
504,184,150469,1,0,0:0:0:0:
307,358,150600,2,0,L|313:173,1,161.999995056153
334,206,150861,5,0,0:0:0:0:
178,133,151035,1,0,0:0:0:0:
9,167,151209,1,0,0:0:0:0:
312,220,151382,5,0,0:0:0:0:
149,218,151556,1,0,0:0:0:0:
147,381,151730,1,0,0:0:0:0:
80,119,151904,6,0,L|91:0,2,107.999996704102
62,282,152295,2,0,P|61:231|16:195,1,107.999996704102
127,351,152556,1,0,0:0:0:0:
57,98,152687,2,0,L|279:126,1,215.999993408203
487,31,153078,5,0,0:0:0:0:
487,31,153339,1,0,0:0:0:0:
466,39,153404,1,0,0:0:0:0:
445,47,153469,1,0,0:0:0:0:
271,125,153600,1,0,0:0:0:0:
403,252,153730,1,0,0:0:0:0:
362,334,153861,1,0,0:0:0:0:
47,236,153991,5,0,0:0:0:0:
146,190,154122,1,0,0:0:0:0:
232,256,154252,1,0,0:0:0:0:
133,302,154382,2,0,B|242:286|199:354|329:322,1,180
502,265,154774,1,0,0:0:0:0:
474,368,154904,1,0,0:0:0:0:
366,131,155035,5,0,0:0:0:0:
483,96,155165,1,0,0:0:0:0:
366,131,155295,1,0,0:0:0:0:
397,13,155426,2,0,B|288:-3|331:65|201:33,1,180
37,123,155817,1,0,0:0:0:0:
37,123,156078,5,0,0:0:0:0:
82,90,156209,1,0,0:0:0:0:
90,35,156339,1,0,0:0:0:0:
121,184,156469,5,0,0:0:0:0:
232,124,156600,1,0,0:0:0:0:
237,249,156730,1,0,0:0:0:0:
126,309,156861,5,0,0:0:0:0:
85,271,156991,1,0,0:0:0:0:
30,280,157122,1,0,0:0:0:0:
216,342,157252,5,0,0:0:0:0:
331,318,157382,1,0,0:0:0:0:
447,293,157513,1,0,0:0:0:0:
375,237,157643,5,0,0:0:0:0:
433,309,157774,1,0,0:0:0:0:
482,157,157904,1,0,0:0:0:0:
97,102,158165,5,0,0:0:0:0:
282,82,158295,1,0,0:0:0:0:
183,36,158426,1,0,0:0:0:0:
196,148,158556,2,0,B|87:132|130:200|0:168,1,180
44,367,158948,1,0,0:0:0:0:
79,278,159078,1,0,0:0:0:0:
281,342,159209,5,0,0:0:0:0:
479,286,159339,1,0,0:0:0:0:
365,265,159469,1,0,0:0:0:0:
281,342,159600,2,0,B|390:326|347:394|477:362,1,180
441,190,159991,1,0,0:0:0:0:
441,190,160252,5,0,0:0:0:0:
427,136,160382,1,0,0:0:0:0:
459,90,160513,1,0,0:0:0:0:
324,25,160643,5,0,0:0:0:0:
365,93,160774,1,0,0:0:0:0:
324,160,160904,1,0,0:0:0:0:
257,87,161035,5,0,0:0:0:0:
242,208,161165,1,0,0:0:0:0:
145,134,161295,5,0,0:0:0:0:
173,256,161426,1,0,0:0:0:0:
54,222,161556,1,0,0:0:0:0:
173,256,161687,1,0,0:0:0:0:
12,340,161817,6,0,L|102:333,1,62.9999980773926
262,375,161948,1,0,0:0:0:0:
262,375,162013,1,0,0:0:0:0:
262,375,162078,1,0,0:0:0:0:
438,256,162209,1,0,0:0:0:0:
351,20,162339,5,0,0:0:0:0:
269,129,162469,1,0,0:0:0:0:
406,146,162600,1,0,0:0:0:0:
269,129,162730,2,0,B|145:113|201:176|53:159,1,215.999993408203
16,8,163122,1,0,0:0:0:0:
165,44,163252,1,0,0:0:0:0:
418,25,163382,5,0,0:0:0:0:
355,74,163469,1,0,0:0:0:0:
369,153,163556,1,0,0:0:0:0:
369,95,163643,5,0,0:0:0:0:
258,256,163774,2,0,P|318:234|424:337,1,215.999993408203
423,323,164165,1,0,0:0:0:0:
354,381,164295,1,0,0:0:0:0:
146,316,164426,6,0,P|168:240|164:182,1,107.999996704102
19,19,164687,1,0,0:0:0:0:
131,103,164817,1,0,0:0:0:0:
144,212,164948,1,0,0:0:0:0:
132,293,165078,1,0,0:0:0:0:
116,314,165209,1,0,0:0:0:0:
102,323,165339,1,0,0:0:0:0:
9,132,165469,5,0,0:0:0:0:
66,107,165556,1,0,0:0:0:0:
120,148,165643,1,0,0:0:0:0:
59,168,165730,1,0,0:0:0:0:
174,68,165861,2,0,B|298:52|242:115|390:98,1,215.999993408203
256,222,166252,1,0,0:0:0:0:
164,201,166382,1,0,0:0:0:0:
304,312,166513,5,0,0:0:0:0:
452,249,166643,2,0,P|405:268|389:298,1,72
386,305,166904,5,0,0:0:0:0:
412,375,166969,2,0,B|394:273|452:303|426:192,1,161.999995056153
388,70,167295,1,0,0:0:0:0:
371,153,167426,1,0,0:0:0:0:
163,114,167556,5,0,0:0:0:0:
285,97,167687,2,0,P|243:70|234:39,1,72
168,102,167948,5,0,0:0:0:0:
222,35,168013,2,0,B|240:137|182:107|208:218,1,161.999995056153
237,305,168339,1,0,0:0:0:0:
143,374,168469,1,0,0:0:0:0:
13,264,168600,5,0,0:0:0:0:
66,252,168730,1,0,0:0:0:0:
111,285,168861,1,0,0:0:0:0:
326,215,168991,5,0,0:0:0:0:
247,280,169122,1,0,0:0:0:0:
249,381,169252,1,0,0:0:0:0:
95,304,169382,5,0,0:0:0:0:
162,169,169513,1,0,0:0:0:0:
113,27,169643,5,0,0:0:0:0:
10,135,169774,1,0,0:0:0:0:
113,27,169904,1,0,0:0:0:0:
266,59,170035,1,0,0:0:0:0:
487,15,170165,6,0,L|468:114,1,62.9999980773926
325,236,170295,1,0,0:0:0:0:
330,256,170361,1,0,0:0:0:0:
334,276,170426,1,0,0:0:0:0:
418,363,170556,1,0,0:0:0:0:
477,159,170687,6,0,B|359:135|405:217|264:182,1,216
91,104,171209,1,0,0:0:0:0:
199,101,171469,1,0,0:0:0:0:
91,104,171600,1,0,0:0:0:0:
177,82,171730,2,0,P|189:156|173:249,1,144
106,300,172122,1,0,0:0:0:0:
3,281,172252,1,0,0:0:0:0:
89,282,172382,1,0,0:0:0:0:
149,345,172513,1,0,0:0:0:0:
2,212,172774,6,0,B|120:188|74:270|215:235,1,216
413,300,173295,1,0,0:0:0:0:
296,317,173556,1,0,0:0:0:0:
395,279,173687,1,0,0:0:0:0:
307,342,173817,2,0,P|249:319|158:324,1,144
90,242,174209,1,0,0:0:0:0:
149,97,174339,1,0,0:0:0:0:
167,144,174469,1,0,0:0:0:0:
149,191,174600,1,0,0:0:0:0:
296,12,174861,6,0,B|320:130|238:84|273:225,1,216
462,294,175382,1,0,0:0:0:0:
288,239,175643,1,0,0:0:0:0:
360,318,175774,1,0,0:0:0:0:
387,220,175904,2,0,P|396:164|356:77,1,144
238,109,176295,1,0,0:0:0:0:
349,69,176426,1,0,0:0:0:0:
228,130,176556,1,0,0:0:0:0:
133,90,176687,1,0,0:0:0:0:
42,323,176948,5,0,0:0:0:0:
203,276,177078,1,0,0:0:0:0:
25,223,177339,5,0,0:0:0:0:
207,301,177469,1,0,0:0:0:0:
116,262,177600,1,0,0:0:0:0:
75,127,177730,5,0,0:0:0:0:
255,105,177861,1,0,0:0:0:0:
435,83,177991,1,0,0:0:0:0:
421,323,187382,5,0,0:0:0:0:
