osu file format v14

[General]
AudioFilename: audio.mp3
AudioLeadIn: 0
PreviewTime: 28343
Countdown: 0
SampleSet: Soft
StackLeniency: 0.2
Mode: 0
LetterboxInBreaks: 0
WidescreenStoryboard: 0

[Editor]
Bookmarks: 45734,96169
DistanceSpacing: 0.5
BeatDivisor: 4
GridSize: 8
TimelineZoom: 1

[Metadata]
Title:Beroberobe
TitleUnicode:Beroberobe
Artist:BUTAOTOME
ArtistUnicode:BUTAOTOME
Creator:dblade
Version:Insane
Source:
Tags:
BeatmapID:2986202
BeatmapSetID:1452330

[Difficulty]
HPDrainRate:6
CircleSize:4
OverallDifficulty:8
ApproachRate:8.2
SliderMultiplier:2
SliderTickRate:1

[Events]
//Background and Video events
0,0,"318720.jpg",0,0
//Break Periods
//Storyboard Layer 0 (Background)
//Storyboard Layer 1 (Fail)
//Storyboard Layer 2 (Pass)
//Storyboard Layer 3 (Foreground)
//Storyboard Layer 4 (Overlay)
//Storyboard Sound Samples

[TimingPoints]
10952,434.782608695652,4,2,1,70,1,0
12691.5116585303,434.782608695652,4,2,1,70,1,0
27908,-125,4,2,1,70,0,0
28343,-100,4,2,1,70,0,0
63126,-80,4,2,1,70,0,1
77039,-100,4,2,1,70,0,0
113561,-80,4,2,1,70,0,1
127474,-100,4,2,1,60,0,0
134430,-86.9565217391304,4,2,2,70,0,0
137474,-86.9565217391304,4,2,1,70,0,0
137908,-86.9565217391304,4,2,2,70,0,0
140952,-86.9565217391304,4,2,1,70,0,0
141387,-86.9565217391304,4,2,2,70,0,0
144430,-86.9565217391304,4,2,1,70,0,0
144865,-86.9565217391304,4,2,2,70,0,0
146713,-100,4,2,1,70,0,0
148343,-200,4,2,1,70,0,0
150082,-80,4,2,1,70,0,1
163995,-74.0740740740741,4,2,1,70,0,1
177908,-80,4,2,1,70,0,0

[HitObjects]
227,79,11386,6,0,P|308:58|379:127,1,150,4|0,0:1|0:0,0:0:0:0:
377,117,11821,2,0,L|362:204,1,50,8|0,0:0|0:0,0:0:0:0:
326,263,12038,1,0,0:0:0:0:
326,263,12147,2,0,P|382:269|430:217,1,100,8|0,0:0|0:0,0:0:0:0:
434,215,12473,2,0,L|449:128,1,50
258,168,12691,6,0,L|151:199,1,100,4|0,0:1|0:0,0:0:0:0:
113,266,13017,1,0,0:0:0:0:
113,266,13126,1,8,0:0:0:0:
51,152,13343,1,0,0:0:0:0:
51,152,13452,1,0,0:0:0:0:
51,152,13561,2,0,L|36:70,1,50,4|0,0:0|0:0,0:0:0:0:
134,38,13778,2,0,L|105:96,1,50
190,153,13995,1,8,0:0:0:0:
317,218,14213,6,0,P|257:214|204:259,1,100,0|4,0:0|0:0,0:0:0:0:
182,309,14539,1,0,0:0:0:0:
182,309,14648,2,0,L|144:229,1,50
79,208,14865,1,8,0:0:0:0:
193,154,15082,1,0,0:0:0:0:
285,278,15300,2,0,P|350:275|388:230,1,100,4|0,0:0|0:0,0:0:0:0:
395,230,15626,1,0,0:0:0:0:
406,200,15734,2,0,L|397:79,1,100,8|0,0:0|0:0,0:0:0:0:
277,31,16169,6,0,P|234:63|161:49,1,100,4|0,0:1|0:0,0:0:0:0:
126,3,16495,1,0,0:0:0:0:
126,3,16604,1,8,0:0:0:0:
60,95,16821,2,0,L|74:147,1,50
42,193,17039,1,4,0:0:0:0:
184,269,17256,1,0,0:0:0:0:
86,306,17474,2,0,L|137:170,1,100,8|0,0:0|0:0,0:0:0:0:
149,172,17800,1,0,0:0:0:0:
149,172,17908,6,0,L|263:151,1,100,4|0,0:0|0:0,0:0:0:0:
323,208,18343,1,8,0:0:0:0:
459,144,18561,1,0,0:0:0:0:
459,144,18669,1,0,0:0:0:0:
459,144,18778,2,0,L|422:81,1,50,4|0,0:0|0:0,0:0:0:0:
315,95,18995,2,0,L|372:123,1,50,8|0,0:0|0:0,0:0:0:0:
403,220,19213,2,0,P|402:270|351:309,1,100,8|0,0:0|0:0,0:0:0:0:
290,284,19539,1,8,0:1:0:0:
290,284,19648,6,0,L|179:297,1,100,8|0,0:1|0:0,0:0:0:0:
140,377,19974,1,0,0:0:0:0:
140,377,20083,2,0,L|251:364,1,100,4|0,0:1|0:0,0:0:0:0:
203,225,20517,2,0,L|162:157,1,50,4|0,0:0|0:0,0:0:0:0:
62,176,20735,2,0,L|117:206,1,50
143,106,20952,1,8,0:0:0:0:
262,36,21169,6,0,L|375:45,1,100,0|4,0:0|0:0,0:0:0:0:
420,102,21495,1,0,0:0:0:0:
420,102,21604,2,0,L|438:164,1,50
401,232,21821,1,8,0:0:0:0:
274,151,22039,1,0,0:0:0:0:
196,274,22256,2,0,P|261:276|297:320,1,100,4|0,0:0|0:0,0:0:0:0:
289,326,22582,1,0,0:0:0:0:
289,357,22691,2,0,P|349:365|396:326,1,100,8|0,0:0|0:0,0:0:0:0:
482,191,23126,6,0,P|449:228|373:218,1,100,4|0,0:1|0:0,0:0:0:0:
285,213,23452,1,0,0:0:0:0:
285,213,23561,2,0,L|374:154,1,100,8|0,0:0|0:0,0:0:0:0:
416,90,23887,1,0,0:0:0:0:
416,90,23995,2,0,L|408:24,1,50,4|0,0:0|0:0,0:0:0:0:
310,7,24213,2,0,L|342:62,1,50,8|0,0:0|0:0,0:0:0:0:
252,132,24430,2,0,L|163:191,1,100,8|0,0:0|0:0,0:0:0:0:
96,255,24756,1,0,0:0:0:0:
96,255,24865,6,0,P|158:268|187:322,1,100,4|0,0:0|0:0,0:0:0:0:
294,350,25300,2,0,L|415:334,1,100,8|0,0:0|0:0,0:0:0:0:
444,278,25626,1,0,0:0:0:0:
444,278,25734,2,0,L|464:213,1,50,4|0,0:0|0:0,0:0:0:0:
331,173,25952,2,0,L|369:214,1,50
438,124,26169,1,8,0:0:0:0:
438,124,26278,2,0,L|450:60,1,50,8|8,0:0|0:0,0:0:0:0:
392,0,26495,1,8,0:0:0:0:
392,0,26604,5,8,0:0:0:0:
206,156,26930,5,8,0:0:0:0:
224,0,27256,5,8,0:0:0:0:
438,124,27473,5,8,0:0:0:0:
187,243,27908,6,0,P|137:278|58:244,1,120,4|0,0:0|0:0,0:0:0:0:
62,252,28343,6,0,L|20:151,1,100,4|0,0:1|0:0,0:0:0:0:
59,54,28778,1,8,0:0:0:0:
156,155,28995,1,0,0:0:0:0:
156,155,29104,1,0,0:0:0:0:
156,155,29213,2,0,L|220:142,1,50,4|0,0:0|0:0,0:0:0:0:
288,66,29430,2,0,L|224:79,1,50
289,198,29648,1,8,0:0:0:0:
289,198,29756,1,0,0:0:0:0:
289,198,29865,6,0,P|333:261|421:269,1,150,8|0,0:0|3:0,0:0:0:0:
432,271,30300,1,0,3:0:0:0:
512,221,30517,1,0,3:0:0:0:
461,141,30734,1,0,3:0:0:0:
381,191,30952,1,0,3:0:0:0:
254,57,31387,5,0,0:0:0:0:
184,225,31821,6,0,P|123:199|107:132,1,100,4|0,0:1|0:0,0:0:0:0:
182,146,32148,1,0,0:0:0:0:
182,146,32256,2,0,L|180:92,1,50,8|0,0:0|0:0,0:0:0:0:
88,19,32474,2,0,L|113:81,1,50
246,35,32691,1,4,0:0:0:0:
246,35,32800,2,0,L|361:36,1,100
367,52,33126,2,0,L|396:108,1,50,8|0,0:0|0:0,0:0:0:0:
413,199,33343,6,0,P|360:184|296:216,1,100,0|4,0:0|0:0,0:0:0:0:
277,274,33669,1,0,0:0:0:0:
277,274,33778,2,0,L|249:158,1,100,0|8,0:0|0:0,0:0:0:0:
180,88,34213,1,0,0:0:0:0:
86,102,34430,2,0,P|105:149|152:172,1,100,4|8,0:0|0:0,0:0:0:0:
177,173,34756,1,8,0:1:0:0:
210,173,34864,1,8,0:1:0:0:
244,173,34973,1,8,0:1:0:0:
277,173,35082,1,0,0:1:0:0:
419,229,35300,6,0,P|359:243|334:294,1,100,4|0,0:1|0:0,0:0:0:0:
310,361,35734,1,8,0:0:0:0:
198,294,35952,1,0,0:0:0:0:
198,294,36061,1,0,0:0:0:0:
198,294,36169,2,0,L|106:265,1,50,4|0,0:0|0:0,0:0:0:0:
66,358,36387,2,0,L|126:343,1,50
102,215,36604,1,8,0:0:0:0:
102,215,36713,1,0,0:0:0:0:
102,215,36821,6,0,P|153:144|237:142,1,150,8|0,0:0|3:0,0:0:0:0:
248,136,37256,1,0,3:0:0:0:
334,198,37474,1,0,3:0:0:0:
270,277,37691,1,0,3:0:0:0:
188,214,37908,1,0,3:0:0:0:
254,57,38343,5,0,0:0:0:0:
419,165,38778,6,0,P|461:210|456:274,1,100,4|0,0:1|0:0,0:0:0:0:
386,238,39104,1,0,0:0:0:0:
386,238,39213,2,0,L|321:261,1,50,8|0,0:0|0:0,0:0:0:0:
236,224,39430,2,0,L|301:201,1,50
343,110,39648,1,4,0:0:0:0:
343,110,39756,2,0,P|277:100|242:46,1,100
237,54,40082,1,8,0:0:0:0:
350,11,40300,1,0,0:0:0:0:
203,144,40517,6,0,P|128:144|70:78,1,150,4|0,0:1|0:0,0:0:0:0:
70,50,40952,1,8,0:0:0:0:
0,149,41169,1,0,0:0:0:0:
162,71,41387,2,0,P|237:71|295:137,1,150,4|0,0:1|0:0,0:0:0:0:
296,151,41821,1,8,0:0:0:0:
300,184,41929,1,8,0:0:0:0:
305,217,42039,2,0,L|314:286,1,50,8|0,0:0|0:0,0:0:0:0:
194,189,42256,6,0,L|56:232,1,100,4|0,0:1|0:0,0:0:0:0:
27,266,42582,1,0,0:0:0:0:
27,266,42691,2,0,L|21:342,1,50,8|0,0:0|0:0,0:0:0:0:
146,371,42908,1,0,0:0:0:0:
146,371,43017,2,0,L|109:311,1,50,8|4,0:0|0:0,0:0:0:0:
115,184,43234,1,0,0:0:0:0:
115,184,43343,2,0,L|117:112,1,50
68,63,43561,2,0,P|138:51|182:74,1,100,8|0,0:0|0:0,0:0:0:0:
232,109,43887,1,0,0:0:0:0:
232,109,43995,6,0,L|237:182,1,50,8|0,0:0|0:0,0:0:0:0:
280,289,44213,1,0,0:0:0:0:
280,289,44321,1,0,0:0:0:0:
280,289,44430,2,0,P|330:259|345:201,1,100,8|0,0:0|0:0,0:0:0:0:
353,187,44756,1,0,0:0:0:0:
357,157,44865,2,0,L|366:103,1,50,8|0,0:1|0:0,0:0:0:0:
477,156,45082,2,0,L|516:195,1,50,8|0,0:1|0:0,0:0:0:0:
431,51,45300,1,8,0:1:0:0:
431,51,45408,1,8,0:1:0:0:
431,51,45517,1,0,0:1:0:0:
241,91,45734,6,0,P|185:111|124:90,1,100,4|0,0:1|0:0,0:0:0:0:
95,44,46061,1,0,0:0:0:0:
95,44,46169,1,8,0:0:0:0:
0,115,46387,1,0,0:0:0:0:
146,182,46604,1,4,0:0:0:0:
146,182,46713,2,0,L|196:167,1,50
240,97,46930,1,0,0:0:0:0:
240,97,47039,1,8,0:0:0:0:
307,226,47256,6,0,P|376:183|446:204,1,150
460,213,47691,2,0,P|486:266|464:329,1,100,0|8,0:0|0:0,0:0:0:0:
370,360,48126,1,0,0:0:0:0:
224,284,48343,1,4,0:0:0:0:
224,284,48452,1,0,0:0:0:0:
224,284,48561,2,0,L|195:207,1,50
211,151,48778,2,0,P|150:168|123:220,1,100,8|0,0:0|3:0,0:0:0:0:
124,279,49104,1,0,3:0:0:0:
124,279,49213,5,0,3:0:0:0:
13,257,49430,1,0,3:0:0:0:
132,113,49648,6,0,L|299:60,1,150,4|0,0:1|0:0,0:0:0:0:
307,74,50082,2,0,L|367:108,1,50
461,85,50300,1,8,0:0:0:0:
461,85,50408,2,0,L|404:54,1,50
396,186,50626,2,0,P|381:235|315:257,1,100,8|0,0:0|0:0,0:0:0:0:
313,260,50952,2,0,L|215:213,1,100,0|0,3:0|0:0,0:0:0:0:
181,46,51387,6,0,L|113:183,1,150,4|0,0:1|0:0,0:0:0:0:
113,204,51821,2,0,L|113:276,1,50,8|8,0:0|0:0,0:0:0:0:
184,332,52039,1,8,0:0:0:0:
184,332,52148,1,0,3:0:0:0:
21,288,52365,1,0,3:0:0:0:
21,288,52474,1,0,3:0:0:0:
212,221,52691,6,0,P|291:215|315:184,1,100,4|0,0:1|0:0,0:0:0:0:
346,132,53017,1,0,0:0:0:0:
346,132,53126,1,8,0:0:0:0:
466,194,53343,1,0,0:0:0:0:
363,326,53561,1,4,0:0:0:0:
363,326,53670,2,0,L|358:262,1,50
302,203,53887,1,0,0:0:0:0:
302,203,53995,1,8,0:0:0:0:
164,124,54213,6,0,P|224:110|258:54,1,100,0|4,0:0|0:0,0:0:0:0:
261,58,54539,1,0,0:0:0:0:
270,34,54648,1,0,0:0:0:0:
162,42,54865,2,0,P|102:56|68:112,1,100,8|0,0:0|0:0,0:0:0:0:
76,169,55191,1,0,0:0:0:0:
76,169,55300,2,0,L|75:237,1,50,4|0,0:0|0:0,0:0:0:0:
196,247,55517,2,0,L|139:202,1,50,8|0,0:1|0:0,0:0:0:0:
59,318,55734,1,8,0:1:0:0:
59,318,55843,1,8,0:1:0:0:
59,318,55952,1,0,0:1:0:0:
304,192,56169,6,0,L|424:192,4,100,4|0|0|0|0,0:1|0:0|0:0|0:0|0:0,0:0:0:0:
242,263,57256,1,0,0:0:0:0:
242,263,57474,1,0,0:0:0:0:
151,125,57691,2,0,P|71:132|41:212,1,150,4|0,0:1|0:0,0:0:0:0:
39,187,58126,2,0,L|39:307,3,100
110,361,58995,1,0,0:0:0:0:
110,361,59213,1,0,0:0:0:0:
198,190,59430,6,0,P|252:130|342:130,1,150,4|0,0:1|0:0,0:0:0:0:
338,126,59865,2,0,P|393:152|416:198,1,100,0|8,0:0|0:0,0:0:0:0:
332,222,60191,1,0,0:0:0:0:
332,222,60300,2,0,L|324:278,1,50
214,337,60517,1,4,0:0:0:0:
214,337,60626,1,0,0:0:0:0:
214,337,60734,2,0,L|247:296,1,50
349,356,60952,1,8,0:0:0:0:
194,227,61169,1,8,0:0:0:0:
405,177,61387,6,0,P|454:115|438:50,1,150,4|0,0:0|0:0,0:0:0:0:
414,39,61821,2,0,L|333:26,1,50,8|8,0:0|0:0,0:0:0:0:
259,98,62039,2,0,L|337:79,1,50,8|0,0:0|0:0,0:0:0:0:
405,177,62256,1,0,3:0:0:0:
92,169,63126,5,4,0:1:0:0:
203,247,63343,1,0,0:0:0:0:
203,247,63452,2,0,L|274:227,1,62.5,8|0,0:0|0:0,0:0:0:0:
318,170,63669,1,0,0:0:0:0:
318,170,63778,1,8,0:0:0:0:
318,170,63887,1,0,0:0:0:0:
318,170,63995,2,0,P|371:216|374:287,1,125,8|0,0:0|0:0,0:0:0:0:
325,351,64321,1,0,0:0:0:0:
325,351,64430,2,0,L|391:341,1,62.5,8|0,0:0|0:0,0:0:0:0:
216,297,64648,1,0,0:0:0:0:
216,297,64756,1,0,0:0:0:0:
216,297,64865,6,0,P|140:271|89:309,1,125,8|0,0:0|0:0,0:0:0:0:
34,258,65191,1,8,0:0:0:0:
34,258,65300,2,0,L|41:175,1,62.5,8|0,0:0|0:0,0:0:0:0:
114,102,65517,1,0,0:0:0:0:
117,133,65625,1,0,0:0:0:0:
119,162,65734,2,0,L|189:194,1,62.5,8|0,0:0|0:0,0:0:0:0:
279,257,65952,1,0,0:0:0:0:
409,168,66169,1,0,0:0:0:0:
256,79,66387,1,0,0:0:0:0:
256,79,66495,1,0,0:0:0:0:
256,79,66604,6,0,P|201:34|132:52,1,125,4|0,0:1|0:0,0:0:0:0:
114,121,66930,1,0,0:0:0:0:
114,121,67039,2,0,L|199:113,1,62.5,8|0,0:0|0:0,0:0:0:0:
298,204,67256,1,0,0:0:0:0:
298,204,67365,1,0,0:0:0:0:
298,204,67474,6,0,P|368:215|418:165,1,125,4|0,0:1|0:0,0:0:0:0:
401,100,67800,1,0,0:0:0:0:
401,100,67908,2,0,L|340:139,1,62.5,8|0,0:0|0:0,0:0:0:0:
218,227,68126,1,0,0:0:0:0:
218,258,68234,1,0,0:0:0:0:
218,289,68343,6,0,L|239:363,1,62.5,8|0,0:0|0:0,0:0:0:0:
134,300,68561,1,0,0:0:0:0:
134,300,68669,2,0,L|66:269,1,62.5,8|0,0:0|0:0,0:0:0:0:
167,159,68887,1,0,0:0:0:0:
198,156,68995,1,8,0:0:0:0:
229,154,69104,1,0,0:0:0:0:
260,151,69213,2,0,L|339:145,1,62.5,8|0,0:0|0:0,0:0:0:0:
389,254,69430,1,0,0:0:0:0:
389,254,69539,2,0,L|319:217,1,62.5,8|0,0:0|0:0,0:0:0:0:
410,71,69756,1,0,0:0:0:0:
410,71,69865,2,0,L|406:137,1,62.5,8|0,0:0|0:0,0:0:0:0:
239,84,70082,6,0,P|170:94|100:47,1,125,4|0,0:1|0:0,0:0:0:0:
103,56,70408,2,0,L|66:-8,1,62.5,8|0,0:0|0:0,0:0:0:0:
56,154,70626,1,0,0:0:0:0:
56,154,70734,1,8,0:0:0:0:
56,154,70843,1,0,0:0:0:0:
56,154,70952,2,0,P|131:166|161:245,1,125,8|0,0:0|0:0,0:0:0:0:
198,284,71278,1,0,0:0:0:0:
198,284,71387,2,0,L|232:228,1,62.5,8|0,0:0|0:0,0:0:0:0:
255,106,71604,1,0,0:0:0:0:
255,106,71713,1,0,0:0:0:0:
255,106,71821,6,0,P|313:66|393:88,1,125,8|0,0:0|0:0,0:0:0:0:
427,124,72148,1,0,0:0:0:0:
427,124,72256,2,0,L|459:192,1,62.5,8|0,0:0|0:0,0:0:0:0:
353,200,72474,1,0,0:0:0:0:
337,227,72582,1,0,0:0:0:0:
316,253,72691,2,0,P|246:275|190:221,1,125,8|0,0:0|0:0,0:0:0:0:
187,232,73017,2,0,L|138:174,1,62.5,8|0,0:0|0:0,0:0:0:0:
42,240,73234,1,0,0:0:0:0:
40,269,73343,1,8,0:0:0:0:
39,300,73451,1,0,0:0:0:0:
39,331,73561,6,0,L|83:374,1,62.5,4|0,0:1|0:0,0:0:0:0:
208,376,73778,2,0,L|143:318,1,62.5,8|0,0:0|0:0,0:0:0:0:
125,208,73995,1,8,0:0:0:0:
152,194,74103,1,0,0:0:0:0:
183,190,74212,1,8,0:0:0:0:
214,194,74321,1,0,0:0:0:0:
242,208,74430,2,0,L|286:165,1,62.5,4|0,0:1|0:0,0:0:0:0:
411,172,74647,2,0,L|346:230,1,62.5,8|0,0:0|0:0,0:0:0:0:
458,50,74865,1,8,0:0:0:0:
429,62,74973,1,0,0:0:0:0:
398,65,75082,1,8,0:0:0:0:
368,58,75191,1,0,0:0:0:0:
342,43,75300,6,0,P|278:15|222:38,1,125,4|0,0:1|0:0,0:0:0:0:
278,110,75626,1,0,0:0:0:0:
278,110,75734,2,0,L|250:188,1,62.5,4|0,0:1|0:0,0:0:0:0:
147,180,75952,2,0,L|165:247,1,62.5,8|0,0:0|0:0,0:0:0:0:
338,243,76169,1,4,0:1:0:0:
338,243,76278,2,0,P|271:245|231:320,1,125
234,306,76604,1,0,0:0:0:0:
234,327,76712,1,0,0:0:0:0:
233,348,76821,2,0,L|169:370,1,62.5
77,326,77039,5,8,0:1:0:0:
77,326,77148,1,8,0:1:0:0:
156,245,77365,1,8,0:1:0:0:
151,132,77583,1,8,0:1:0:0:
64,60,77800,1,8,0:1:0:0:
27,179,78017,1,8,0:1:0:0:
211,66,78234,1,8,0:1:0:0:
211,66,78343,2,0,L|284:60,1,50,0|0,3:0|3:0,0:0:0:0:
330,11,78561,1,8,0:1:0:0:
376,173,78778,5,4,0:1:0:0:
376,173,78995,2,0,L|473:152,2,100
313,258,79648,1,0,0:0:0:0:
313,258,79865,1,0,0:0:0:0:
313,258,80082,1,0,0:0:0:0:
182,159,80300,2,0,P|119:211|111:283,1,150,4|0,0:0|3:0,0:0:0:0:
112,309,80734,1,0,3:0:0:0:
193,384,80952,1,0,3:0:0:0:
278,319,81169,1,0,3:0:0:0:
197,244,81387,1,0,3:0:0:0:
423,193,81821,5,0,0:0:0:0:
239,139,82256,6,0,P|297:111|314:50,1,100,4|0,0:1|0:0,0:0:0:0:
234,54,82582,1,0,0:0:0:0:
234,54,82691,2,0,L|154:63,1,50,8|0,0:0|0:0,0:0:0:0:
65,10,82908,2,0,L|121:17,1,50
93,132,83126,2,0,L|61:193,1,50,4|0,0:0|0:0,0:0:0:0:
151,250,83343,1,0,0:0:0:0:
151,250,83452,1,0,0:0:0:0:
151,250,83561,2,0,L|151:184,1,50,8|0,0:0|0:0,0:0:0:0:
56,281,83778,6,0,P|109:342|186:336,1,150
203,330,84213,2,0,L|245:283,1,50
319,299,84430,2,0,L|313:230,1,50,8|0,0:0|0:0,0:0:0:0:
245,175,84648,1,0,0:0:0:0:
409,139,84865,2,0,L|282:106,1,100,4|0,0:0|0:0,0:0:0:0:
287,107,85191,1,8,0:1:0:0:
254,98,85299,1,8,0:1:0:0:
222,90,85408,1,8,0:1:0:0:
190,82,85517,1,0,0:1:0:0:
33,198,85734,5,4,0:1:0:0:
33,198,85952,2,0,P|90:185|148:216,1,100
157,294,86387,2,0,P|214:307|272:276,1,100
388,192,86821,1,0,0:0:0:0:
388,192,87039,1,0,0:0:0:0:
277,53,87256,6,0,P|238:118|142:130,1,150,4|0,0:0|3:0,0:0:0:0:
137,139,87691,1,0,3:0:0:0:
45,85,87908,1,0,3:0:0:0:
96,0,88126,1,0,3:0:0:0:
188,54,88343,1,0,3:0:0:0:
423,193,88778,5,0,0:0:0:0:
147,338,89213,6,0,P|155:275|194:247,1,100,4|0,0:1|0:0,0:0:0:0:
242,323,89539,1,0,0:0:0:0:
242,323,89648,2,0,L|313:316,1,50,8|0,0:0|0:0,0:0:0:0:
404,270,89865,1,0,0:0:0:0:
404,270,89974,1,0,0:0:0:0:
404,270,90082,2,0,L|331:257,1,50,4|0,0:0|0:0,0:0:0:0:
264,180,90300,2,0,L|251:118,1,50
284,45,90517,2,0,P|346:100|413:100,1,150,8|0,0:0|0:0,0:0:0:0:
436,79,90952,6,0,P|403:118|417:196,1,100,4|0,0:1|0:0,0:0:0:0:
422,243,91278,1,0,0:0:0:0:
422,243,91387,2,0,L|480:222,1,50,8|0,0:0|0:0,0:0:0:0:
286,342,91604,2,0,L|237:355,1,50
378,361,91821,2,0,P|353:289|276:259,1,150,4|0,0:1|0:0,0:0:0:0:
264,259,92256,1,8,0:0:0:0:
239,259,92365,1,0,0:0:0:0:
211,261,92474,2,0,L|145:263,1,50,8|0,0:0|0:0,0:0:0:0:
49,113,92691,6,0,P|91:153|164:152,1,100,4|0,0:1|0:0,0:0:0:0:
217,140,93017,1,0,0:0:0:0:
217,140,93126,2,0,L|277:111,1,50,8|0,0:0|0:0,0:0:0:0:
242,6,93343,1,0,0:0:0:0:
242,6,93452,2,0,L|222:58,1,50,8|0,0:0|0:0,0:0:0:0:
311,198,93669,1,0,0:0:0:0:
311,198,93778,2,0,L|376:207,1,50
465,246,93995,2,0,P|431:291|369:291,1,100,8|0,0:0|0:0,0:0:0:0:
365,299,94321,1,0,0:0:0:0:
335,302,94430,6,0,L|276:303,1,50,8|0,0:0|0:0,0:0:0:0:
144,234,94648,1,0,0:0:0:0:
144,234,94756,1,0,0:0:0:0:
144,234,94865,2,0,P|206:238|252:201,1,100,8|0,0:0|0:0,0:0:0:0:
248,197,95191,1,0,0:0:0:0:
260,175,95300,2,0,L|276:120,1,50,8|0,0:1|0:0,0:0:0:0:
398,105,95517,2,0,L|345:154,1,50,8|0,0:1|0:0,0:0:0:0:
257,36,95734,1,8,0:1:0:0:
257,36,95843,1,8,0:1:0:0:
257,36,95952,1,0,0:0:0:0:
41,187,96169,6,0,P|71:140|131:124,1,100,4|0,0:1|0:0,0:0:0:0:
190,138,96495,1,0,0:0:0:0:
190,138,96604,1,8,0:0:0:0:
109,288,96821,1,0,0:0:0:0:
241,213,97039,1,4,0:0:0:0:
241,213,97148,2,0,L|290:206,1,50
360,153,97365,1,0,0:0:0:0:
360,153,97474,1,8,0:0:0:0:
438,298,97691,6,0,P|390:281|329:300,1,100,0|4,0:0|0:0,0:0:0:0:
291,363,98017,1,0,0:0:0:0:
291,363,98126,1,0,0:0:0:0:
174,251,98343,1,8,0:0:0:0:
332,213,98561,1,0,0:0:0:0:
332,213,98669,1,0,0:0:0:0:
332,213,98778,2,0,P|395:189|416:151,1,100,4|0,0:0|0:0,0:0:0:0:
421,139,99104,1,0,0:0:0:0:
426,114,99213,2,0,L|423:32,1,50,8|0,0:0|0:0,0:0:0:0:
292,53,99430,2,0,L|342:96,1,50,0|0,0:0|3:0,0:0:0:0:
470,222,99648,5,0,3:0:0:0:
470,222,99865,1,0,3:0:0:0:
291,295,100082,2,0,L|102:313,1,150,4|0,0:1|0:0,0:0:0:0:
121,296,100517,2,0,L|61:253,1,50
118,155,100734,2,0,L|138:212,1,50,8|0,0:0|0:0,0:0:0:0:
0,219,100953,1,0,0:0:0:0:
0,219,101061,2,0,L|52:187,1,50,8|0,0:0|0:0,0:0:0:0:
154,68,101278,1,0,0:0:0:0:
154,68,101387,6,0,P|237:53|301:98,1,150
302,103,101821,2,0,P|326:149|317:205,1,100,4|0,0:1|0:0,0:0:0:0:
257,245,102148,1,8,0:0:0:0:
257,245,102256,2,8,L|183:247,1,50
345,297,102474,1,0,3:0:0:0:
345,297,102582,1,0,3:0:0:0:
156,358,102800,1,0,3:0:0:0:
156,358,102909,1,0,3:0:0:0:
63,194,103126,6,0,P|123:160|133:99,1,100,4|0,1:0|0:0,0:0:0:0:
154,57,103452,1,0,0:0:0:0:
154,57,103561,1,8,0:0:0:0:
271,134,103778,1,0,0:0:0:0:
165,207,103995,1,4,0:0:0:0:
165,207,104104,2,0,L|162:263,1,50
101,314,104321,1,0,0:0:0:0:
101,314,104430,1,8,0:0:0:0:
270,376,104648,6,0,P|327:350|348:308,1,100,0|4,0:0|0:0,0:0:0:0:
377,245,104974,1,0,0:0:0:0:
377,245,105082,1,0,0:0:0:0:
238,270,105300,1,8,0:0:0:0:
326,125,105517,1,0,0:0:0:0:
326,125,105626,1,0,0:0:0:0:
326,125,105734,2,0,L|392:113,1,50,4|0,0:0|0:0,0:0:0:0:
416,6,105952,2,0,L|366:54,1,50,8|0,0:1|0:0,0:0:0:0:
487,160,106169,1,8,0:1:0:0:
487,160,106278,1,8,0:1:0:0:
487,160,106387,1,0,0:0:0:0:
208,72,106604,6,0,L|80:72,4,100,4|0|0|0|0,0:1|0:0|0:0|0:0|0:0,0:0:0:0:
286,127,107691,1,0,0:0:0:0:
286,127,107908,1,0,0:0:0:0:
512,229,108126,6,0,P|451:198|361:255,1,150,4|0,0:1|0:0,0:0:0:0:
380,227,108561,2,0,L|381:341,3,100
306,384,109430,1,0,0:0:0:0:
306,384,109648,1,0,0:0:0:0:
106,241,109865,6,0,P|100:170|174:117,1,150,4|0,0:0|0:0,0:0:0:0:
178,112,110300,2,0,P|231:92|249:16,1,100,0|8,0:0|0:0,0:0:0:0:
150,30,110626,1,0,0:0:0:0:
150,30,110734,2,0,L|86:32,1,50
18,120,110952,1,4,0:0:0:0:
18,120,111061,1,0,0:0:0:0:
18,120,111169,2,0,L|76:94,1,50
175,192,111387,1,8,0:0:0:0:
326,123,111604,1,0,0:0:0:0:
246,69,111821,6,0,P|248:157|325:225,1,150,4|0,0:0|0:0,0:0:0:0:
300,217,112256,2,0,L|350:250,1,50,8|8,0:0|0:0,0:0:0:0:
220,288,112474,2,0,L|170:321,1,50,8|0,0:0|0:0,0:0:0:0:
408,353,112691,1,0,3:0:0:0:
447,137,113561,6,0,L|411:62,1,62.5,4|0,0:1|0:0,0:0:0:0:
353,11,113778,1,0,0:0:0:0:
353,11,113887,2,0,L|302:77,1,62.5,8|0,0:0|0:0,0:0:0:0:
232,144,114104,1,0,0:0:0:0:
232,144,114213,1,8,0:0:0:0:
232,144,114321,1,0,0:0:0:0:
232,144,114430,2,0,P|304:145|346:206,1,125,8|0,0:0|0:0,0:0:0:0:
371,259,114756,1,0,0:0:0:0:
371,259,114865,2,0,L|427:298,1,62.5,8|0,0:0|0:0,0:0:0:0:
242,316,115082,1,0,0:0:0:0:
242,316,115191,1,0,0:0:0:0:
242,316,115300,6,0,P|175:305|134:241,1,125,8|0,0:0|0:0,0:0:0:0:
72,213,115626,1,8,0:0:0:0:
72,213,115734,2,0,L|143:179,1,62.5,8|0,0:0|0:0,0:0:0:0:
257,128,115952,1,0,0:0:0:0:
227,116,116060,1,0,0:0:0:0:
198,105,116169,2,0,L|114:71,1,62.5,8|0,0:0|0:0,0:0:0:0:
35,96,116387,1,0,0:0:0:0:
205,26,116604,1,0,0:0:0:0:
252,203,116821,1,0,0:0:0:0:
256,223,116929,1,0,0:0:0:0:
259,243,117039,6,0,P|227:301|154:308,1,125,4|0,0:1|0:0,0:0:0:0:
88,281,117365,1,0,0:0:0:0:
88,281,117474,2,0,L|140:233,1,62.5,8|0,0:0|0:0,0:0:0:0:
257,128,117691,1,0,0:0:0:0:
257,128,117800,1,0,0:0:0:0:
257,128,117908,2,0,P|321:101|397:140,1,125,4|0,0:1|0:0,0:0:0:0:
435,184,118234,1,0,0:0:0:0:
435,184,118343,2,0,L|353:201,1,62.5,8|0,0:0|0:0,0:0:0:0:
271,274,118561,1,0,0:0:0:0:
271,294,118669,1,0,0:0:0:0:
271,315,118778,6,0,L|271:402,1,62.5,8|0,0:0|0:0,0:0:0:0:
183,292,118995,1,0,0:0:0:0:
183,292,119104,2,0,L|114:260,1,62.5,8|0,0:0|0:0,0:0:0:0:
53,161,119321,1,0,0:0:0:0:
84,160,119429,1,8,0:0:0:0:
112,148,119538,1,0,0:0:0:0:
135,127,119648,2,0,L|152:54,1,62.5,8|0,0:0|0:0,0:0:0:0:
16,32,119865,1,0,0:0:0:0:
16,32,119974,2,0,L|59:97,1,62.5,8|0,0:0|0:0,0:0:0:0:
233,103,120191,1,0,0:0:0:0:
263,100,120299,1,8,0:0:0:0:
293,109,120408,1,0,0:0:0:0:
317,129,120517,6,0,P|346:185|312:257,1,125,4|0,0:1|0:0,0:0:0:0:
218,237,120843,2,0,L|272:183,1,62.5,8|0,0:0|0:0,0:0:0:0:
425,203,121061,1,0,0:0:0:0:
425,203,121169,1,8,0:0:0:0:
425,203,121278,1,0,0:0:0:0:
425,203,121387,2,0,P|483:260|465:334,1,125,8|0,0:0|0:0,0:0:0:0:
399,289,121713,1,0,0:0:0:0:
399,289,121821,2,0,L|354:337,1,62.5,8|0,0:0|0:0,0:0:0:0:
256,232,122039,1,0,0:0:0:0:
256,232,122148,1,0,0:0:0:0:
256,232,122256,6,0,P|186:205|159:127,1,125,8|0,0:0|0:0,0:0:0:0:
163,84,122582,1,0,0:0:0:0:
163,84,122691,2,0,L|177:11,1,62.5,8|0,0:0|0:0,0:0:0:0:
61,132,122908,1,0,0:0:0:0:
50,161,123016,1,0,0:0:0:0:
39,190,123126,2,0,P|74:266|123:276,1,125,8|0,0:0|0:0,0:0:0:0:
136,274,123452,2,0,L|224:260,1,62.5,8|0,0:0|0:0,0:0:0:0:
323,216,123669,1,0,0:0:0:0:
292,212,123777,1,8,0:0:0:0:
264,197,123886,1,0,0:0:0:0:
245,173,123995,6,0,L|213:105,1,62.5,4|0,0:1|0:0,0:0:0:0:
300,30,124213,2,0,L|298:106,1,62.5,8|0,0:0|0:0,0:0:0:0:
500,142,124430,1,8,0:0:0:0:
469,136,124538,1,0,0:0:0:0:
439,144,124647,1,8,0:0:0:0:
415,164,124756,1,0,0:0:0:0:
402,192,124865,2,0,L|386:266,1,62.5,4|0,0:1|0:0,0:0:0:0:
498,326,125082,2,0,L|459:261,1,62.5,8|0,0:0|0:0,0:0:0:0:
284,203,125300,1,8,0:0:0:0:
277,233,125408,1,0,0:0:0:0:
258,258,125517,1,8,0:0:0:0:
230,272,125626,1,0,0:0:0:0:
200,275,125734,6,0,P|142:252|116:181,1,125,4|0,0:1|0:0,0:0:0:0:
201,191,126061,1,0,0:0:0:0:
201,191,126169,2,0,L|233:133,1,62.5,4|0,0:1|0:0,0:0:0:0:
73,63,126387,2,0,L|115:119,1,62.5,8|0,0:0|0:0,0:0:0:0:
238,33,126604,1,4,0:1:0:0:
238,33,126713,2,0,P|320:44|351:100,1,125
349,96,127039,2,0,P|393:156|455:157,1,125
512,116,127365,1,0,0:0:0:0:
512,116,127474,5,4,0:1:0:0:
294,295,127908,1,0,3:0:0:0:
294,295,128017,2,0,L|185:284,1,100
130,234,128343,2,0,L|67:260,2,50,8|0|0,3:2|0:0|0:0,0:0:0:0:
188,150,128669,1,8,0:0:0:0:
188,150,128778,2,0,P|233:186|286:178,1,100,0|8,3:0|0:0,0:0:0:0:
294,166,129104,1,8,0:0:0:0:
309,144,129213,6,0,L|368:51,1,100,0|0,3:0|0:0,0:0:0:0:
230,8,129648,1,0,3:0:0:0:
230,8,129756,2,0,P|186:55|129:54,1,100
62,52,130082,2,0,L|37:102,1,50,8|0,3:2|0:0,0:0:0:0:
127,156,130300,1,8,0:0:0:0:
127,156,130408,1,8,0:0:0:0:
127,156,130517,2,0,P|171:197|243:181,1,100,8|8,3:2|0:0,0:0:0:0:
231,190,130843,1,8,0:0:0:0:
255,181,130952,6,0,L|355:122,1,100,8|8,3:1|0:1,0:0:0:0:
385,275,131387,2,0,L|392:353,2,50,0|0|0,3:0|0:0|0:0,0:0:0:0:
431,139,131821,2,0,P|417:81|362:53,1,100,8|0,3:1|0:0,0:0:0:0:
361,57,132148,1,0,0:0:0:0:
336,56,132257,1,8,0:0:0:0:
286,166,132474,1,8,0:1:0:0:
132,229,132691,1,8,0:0:0:0:
132,229,132800,6,0,P|193:231|233:281,1,100,8|0,0:1|0:0,0:0:0:0:
273,350,133126,2,0,P|331:342|363:295,1,100,0|0,3:0|0:0,0:0:0:0:
375,235,133452,1,0,0:0:0:0:
375,235,133561,1,8,3:2:0:0:
375,235,133669,1,8,3:2:0:0:
375,235,133778,2,0,L|373:176,1,50
255,71,133995,1,8,0:1:0:0:
133,200,134430,6,0,L|98:275,1,57.5000010967255,12|0,0:1|0:0,0:0:0:0:
8,331,134647,1,0,0:0:0:0:
8,331,134755,1,0,0:0:0:0:
8,331,134865,2,0,L|-4:251,1,57.5000010967255,8|0,0:1|0:0,0:0:0:0:
42,98,135082,1,0,0:0:0:0:
42,98,135191,2,0,L|52:157,1,57.5000010967255,8|0,0:1|0:0,0:0:0:0:
183,95,135408,1,0,0:0:0:0:
210,98,135516,1,8,0:1:0:0:
234,113,135625,1,0,0:0:0:0:
252,136,135734,2,0,L|287:201,1,57.5000010967255,8|0,0:1|0:0,0:0:0:0:
177,311,135952,1,0,0:0:0:0:
177,311,136061,1,0,0:0:0:0:
177,311,136169,6,0,P|237:289|314:319,1,115.000002193451,8|0,0:1|0:0,0:0:0:0:
394,370,136495,1,0,0:0:0:0:
394,370,136604,2,0,L|364:310,1,57.5000010967255,8|0,0:1|0:0,0:0:0:0:
461,196,136821,1,0,0:0:0:0:
461,196,136930,2,0,L|464:280,1,57.5000010967255,8|0,0:1|0:1,0:1:0:0:
311,129,137148,1,0,0:0:0:0:
311,129,137256,2,0,L|191:146,1,115.000002193451,8|0,0:1|3:0,0:0:0:0:
170,155,137582,1,0,3:0:0:0:
149,175,137691,1,0,3:0:0:0:
137,201,137800,1,0,3:0:0:0:
135,229,137908,6,0,L|139:301,1,57.5000010967255,12|0,0:1|0:0,0:0:0:0:
251,359,138126,1,0,0:0:0:0:
251,359,138234,1,0,0:0:0:0:
251,359,138343,2,0,L|219:294,1,57.5000010967255,8|0,0:1|0:0,0:0:0:0:
20,258,138561,1,0,0:0:0:0:
20,258,138669,2,0,L|69:320,1,57.5000010967255,8|0,0:1|0:0,0:0:0:0:
170,155,138887,1,0,0:0:0:0:
196,145,138995,1,8,0:1:0:0:
219,128,139104,1,0,0:0:0:0:
236,104,139213,2,0,L|266:40,1,57.5000010967255,8|0,0:1|0:0,0:0:0:0:
339,186,139430,1,0,0:0:0:0:
354,209,139538,1,0,0:0:0:0:
370,233,139648,6,0,P|346:290|292:313,1,115.000002193451,8|0,0:1|0:0,0:0:0:0:
218,247,139974,1,0,0:0:0:0:
218,247,140082,2,0,L|292:236,1,57.5000010967255,8|0,0:1|0:0,0:0:0:0:
496,279,140300,1,0,0:0:0:0:
496,279,140408,2,0,L|422:278,1,57.5000010967255,8|0,0:1|0:0,0:0:0:0:
376,31,140626,2,0,L|377:111,1,57.5000010967255,8|0,0:1|0:0,0:0:0:0:
376,31,140843,2,0,L|377:111,1,57.5000010967255,8|0,0:1|0:0,0:0:0:0:
321,212,141061,1,0,3:0:0:0:
298,230,141169,1,0,3:0:0:0:
272,240,141278,1,0,3:0:0:0:
244,242,141387,6,0,P|184:226|150:162,1,115.000002193451,12|0,0:1|0:0,0:0:0:0:
233,159,141713,1,0,0:0:0:0:
233,159,141822,2,0,L|220:104,1,57.5000010967255,8|0,0:1|0:0,0:0:0:0:
99,62,142039,1,0,0:0:0:0:
99,62,142148,2,0,L|156:121,1,57.5000010967255,8|0,0:1|0:0,0:0:0:0:
267,10,142365,1,0,0:0:0:0:
294,1,142473,1,8,0:1:0:0:
323,0,142582,1,0,0:0:0:0:
351,5,142691,2,0,L|410:37,1,57.5000010967255,8|0,0:1|0:0,0:0:0:0:
327,172,142908,1,0,0:0:0:0:
327,172,143017,1,0,0:0:0:0:
327,172,143126,6,0,P|364:223|448:221,1,115.000002193451,8|0,0:1|0:0,0:0:0:0:
460,129,143452,1,0,0:0:0:0:
460,129,143561,2,0,L|394:159,1,57.5000010967255,8|0,0:1|0:1,0:1:0:0:
276,90,143778,1,0,0:0:0:0:
276,90,143887,2,0,L|350:86,1,57.5000010967255,8|0,0:1|0:0,0:0:0:0:
311,268,144104,1,0,0:0:0:0:
311,268,144213,2,0,P|254:297|171:267,1,115.000002193451,8|0,0:1|0:0,0:0:0:0:
179,278,144539,1,0,3:0:0:0:
159,257,144648,1,0,3:0:0:0:
149,231,144757,1,0,3:0:0:0:
149,202,144865,5,8,0:1:0:0:
149,125,145010,1,8,0:1:0:0:
215,163,145155,1,8,0:1:0:0:
149,202,145300,5,8,0:1:0:0:
36,314,145517,1,0,0:0:0:0:
36,314,145626,2,0,L|78:258,1,57.5000010967255,8|0,0:1|0:0,0:0:0:0:
239,209,145843,1,0,0:0:0:0:
266,202,145951,1,8,0:1:0:0:
291,188,146060,1,0,0:0:0:0:
309,166,146169,2,0,L|338:99,1,57.5000010967255,8|0,0:1|0:0,0:0:0:0:
247,48,146387,1,8,0:1:0:0:
247,48,146495,1,8,0:1:0:0:
475,231,146713,5,8,0:1:0:0:
374,285,146930,1,8,0:1:0:0:
262,230,147148,1,0,3:0:0:0:
262,230,147256,1,0,3:0:0:0:
262,230,147365,2,0,L|263:168,1,50,0|0,3:0|0:0,0:0:0:0:
337,84,147582,5,8,0:1:0:0:
236,30,147799,1,8,0:1:0:0:
126,89,148017,1,0,3:0:0:0:
126,89,148125,1,0,3:0:0:0:
126,89,148234,1,0,3:0:0:0:
126,89,148343,6,0,P|110:190|106:87,1,300,4|0,3:1|3:0,0:0:0:0:
102,87,149756,1,0,3:0:0:0:
257,221,150082,6,0,L|323:192,1,62.5,4|0,0:1|0:0,0:0:0:0:
424,241,150300,1,0,0:0:0:0:
424,241,150408,2,0,L|357:268,1,62.5,8|0,0:0|0:0,0:0:0:0:
354,122,150626,1,0,0:0:0:0:
353,106,150734,1,8,0:0:0:0:
352,90,150843,1,0,0:0:0:0:
349,73,150952,2,0,P|292:40|228:68,1,125,8|0,0:0|0:0,0:0:0:0:
193,131,151278,1,0,0:0:0:0:
193,131,151387,2,0,L|211:221,1,62.5,8|0,0:0|0:0,0:0:0:0:
93,42,151604,1,0,0:0:0:0:
93,42,151713,1,0,0:0:0:0:
93,42,151821,6,0,P|18:67|8:155,1,125,8|0,0:0|0:0,0:0:0:0:
67,192,152148,2,0,L|80:122,1,62.5,8|0,0:0|0:0,0:0:0:0:
176,200,152365,1,0,0:0:0:0:
176,200,152474,2,0,L|236:253,1,62.5,8|0,0:0|0:0,0:0:0:0:
71,307,152691,1,8,0:0:0:0:
309,235,152908,1,0,0:0:0:0:
227,361,153126,1,0,0:0:0:0:
161,183,153343,1,0,0:0:0:0:
161,183,153452,1,0,0:0:0:0:
161,183,153561,6,0,P|94:159|66:94,1,125,4|0,0:1|0:0,0:0:0:0:
182,51,153887,1,0,0:0:0:0:
182,51,153995,2,0,L|140:122,1,62.5,8|0,0:0|0:0,0:0:0:0:
269,256,154213,1,0,0:0:0:0:
269,256,154322,1,0,0:0:0:0:
269,256,154431,2,0,P|336:232|364:167,1,125,4|0,0:1|0:0,0:0:0:0:
248,124,154757,1,0,0:0:0:0:
248,124,154865,2,0,L|290:195,1,62.5,8|0,0:0|0:0,0:0:0:0:
141,249,155082,1,0,0:0:0:0:
119,271,155190,1,0,0:0:0:0:
97,294,155300,6,0,L|94:373,1,62.5,4|0,0:1|0:0,0:0:0:0:
41,193,155517,1,0,0:0:0:0:
41,193,155626,2,0,L|21:118,1,62.5,8|0,0:0|0:0,0:0:0:0:
173,151,155843,1,0,0:0:0:0:
203,153,155951,1,8,0:0:0:0:
230,169,156060,1,0,0:0:0:0:
248,194,156169,2,0,L|259:268,1,62.5,8|0,0:0|0:0,0:0:0:0:
179,363,156387,1,0,0:0:0:0:
179,363,156495,2,0,L|168:289,1,62.5,8|0,0:0|0:0,0:0:0:0:
345,271,156713,1,0,0:0:0:0:
375,267,156821,1,8,0:0:0:0:
403,253,156930,1,0,0:0:0:0:
423,230,157039,6,0,P|439:174|380:95,1,125,8|0,0:0|0:0,0:0:0:0:
292,148,157365,2,0,L|350:170,1,62.5,8|0,0:0|0:0,0:0:0:0:
256,297,157582,1,0,0:0:0:0:
256,297,157691,1,8,0:0:0:0:
256,297,157800,1,0,0:0:0:0:
256,297,157908,2,0,L|102:316,1,125,8|0,0:0|0:0,0:0:0:0:
30,227,158234,1,0,0:0:0:0:
30,227,158343,2,0,L|104:254,1,62.5,8|0,0:0|0:0,0:0:0:0:
159,124,158561,1,0,0:0:0:0:
159,124,158669,1,0,0:0:0:0:
159,124,158778,6,0,P|205:74|279:67,1,125,8|0,0:0|0:0,0:0:0:0:
250,156,159104,1,0,0:0:0:0:
250,156,159213,2,0,L|322:173,1,62.5,8|0,0:0|0:0,0:0:0:0:
451,113,159430,1,0,0:0:0:0:
451,113,159539,1,0,0:0:0:0:
451,113,159648,2,0,P|490:174|470:235,1,125,8|0,0:0|0:0,0:0:0:0:
412,289,159974,2,0,L|337:291,1,62.5,8|0,0:0|0:0,0:0:0:0:
223,235,160191,1,0,0:0:0:0:
219,219,160299,1,8,0:0:0:0:
216,204,160408,1,0,0:0:0:0:
213,189,160517,6,0,L|207:109,1,62.5,4|0,0:1|0:0,0:0:0:0:
110,74,160734,2,0,L|116:154,1,62.5,8|0,0:0|0:0,0:0:0:0:
245,4,160952,1,8,0:0:0:0:
266,26,161060,1,0,0:0:0:0:
294,38,161169,1,8,0:0:0:0:
325,39,161278,1,0,0:0:0:0:
354,27,161387,2,0,L|413:-2,1,62.5,4|0,0:1|0:0,0:0:0:0:
512,101,161604,2,0,L|446:57,1,62.5,8|0,0:0|0:0,0:0:0:0:
377,180,161821,1,8,0:0:0:0:
376,211,161929,1,0,0:0:0:0:
375,242,162038,1,8,0:0:0:0:
374,273,162147,1,0,0:0:0:0:
374,305,162256,6,0,P|309:354|243:349,1,125,4|0,0:1|0:0,0:0:0:0:
263,219,162582,1,0,0:0:0:0:
263,219,162691,2,0,L|294:283,1,62.5,4|0,0:1|0:0,0:0:0:0:
165,347,162908,2,0,L|215:287,1,62.5,8|0,0:0|0:0,0:0:0:0:
136,154,163126,1,4,0:1:0:0:
136,154,163234,2,0,P|141:89|219:61,1,125
310,133,163561,1,0,0:0:0:0:
334,139,163669,1,0,0:0:0:0:
358,146,163778,1,0,0:0:0:0:
382,152,163887,1,0,0:0:0:0:
406,159,163995,6,0,L|421:239,1,67.5000002574921,4|0,0:1|0:0,0:0:0:0:
341,320,164213,1,0,0:0:0:0:
341,320,164321,2,0,L|314:398,1,67.5000002574921,8|0,0:0|0:0,0:0:0:0:
245,223,164539,1,0,0:0:0:0:
222,219,164647,1,8,0:0:0:0:
200,216,164756,1,0,0:0:0:0:
178,213,164865,2,0,L|112:167,1,67.5000002574921,8|0,0:0|0:0,0:0:0:0:
166,51,165082,2,0,L|193:138,1,67.5000002574921,8|0,0:0|0:0,0:0:0:0:
43,144,165300,2,0,P|9:203|44:269,1,135.000000514984,8|0,0:0|0:0,0:0:0:0:
96,337,165626,1,0,0:0:0:0:
96,337,165734,6,0,L|20:372,1,67.5000002574921,8|0,0:0|0:0,0:0:0:0:
200,255,165952,1,0,0:0:0:0:
200,255,166060,2,0,L|276:290,1,67.5000002574921,8|0,0:0|0:0,0:0:0:0:
136,140,166278,1,0,0:0:0:0:
154,112,166386,1,8,0:0:0:0:
181,92,166495,1,0,0:0:0:0:
213,83,166604,2,0,L|289:80,1,67.5000002574921,8|0,0:0|0:0,0:0:0:0:
459,163,166821,2,0,L|383:159,1,67.5000002574921,8|0,0:0|0:0,0:0:0:0:
200,255,167039,2,0,L|275:251,1,67.5000002574921,8|0,0:0|0:0,0:0:0:0:
441,336,167256,1,0,0:0:0:0:
441,336,167365,1,0,0:0:0:0:
441,336,167474,6,0,P|372:363|306:330,1,135.000000514984,4|0,0:1|0:0,0:0:0:0:
375,271,167800,1,0,0:0:0:0:
374,248,167908,1,8,0:0:0:0:
373,226,168017,1,0,0:0:0:0:
372,203,168126,2,0,L|371:133,1,67.5000002574921
291,41,168343,6,0,P|222:14|156:47,1,135.000000514984,4|0,0:1|0:0,0:0:0:0:
225,106,168669,1,0,0:0:0:0:
225,128,168777,1,8,0:0:0:0:
224,151,168886,1,0,0:0:0:0:
223,174,168995,2,0,L|221:244,1,67.5000002574921,8|0,0:0|0:0,0:0:0:0:
28,334,169213,6,4,L|92:296,1,67.5000002574921,4|4,0:1|0:1,0:1:0:0:
109,167,169430,1,0,0:0:0:0:
109,167,169539,2,0,L|55:229,1,67.5000002574921,8|0,0:0|0:0,0:0:0:0:
171,301,169756,1,0,0:0:0:0:
200,316,169864,1,8,0:0:0:0:
234,318,169973,1,0,0:0:0:0:
265,308,170082,2,0,L|329:268,1,67.5000002574921,8|0,0:0|0:0,0:0:0:0:
431,354,170300,1,0,0:0:0:0:
431,354,170408,2,0,L|355:344,1,67.5000002574921,8|0,0:0|0:0,0:0:0:0:
435,172,170626,1,0,0:0:0:0:
435,172,170734,2,0,L|395:237,1,67.5000002574921,8|0,0:0|0:0,0:0:0:0:
213,145,170952,6,0,L|140:143,1,67.5000002574921,4|0,0:1|0:0,0:0:0:0:
46,29,171169,1,0,0:0:0:0:
46,29,171278,2,0,L|134:79,1,67.5000002574921,8|0,0:0|0:0,0:0:0:0:
269,13,171495,1,0,0:0:0:0:
302,10,171603,1,0,0:0:0:0:
334,20,171712,1,0,0:0:0:0:
361,41,171821,2,0,L|380:125,1,67.5000002574921,8|0,0:0|0:0,0:0:0:0:
246,196,172039,2,0,L|309:136,1,67.5000002574921,8|0,0:0|0:0,0:0:0:0:
443,234,172256,2,0,L|359:208,1,67.5000002574921,8|0,0:0|0:0,0:0:0:0:
248,319,172474,1,0,0:0:0:0:
229,331,172582,1,0,0:0:0:0:
208,341,172691,6,0,L|117:349,1,67.5000002574921,8|0,0:0|0:0,0:0:0:0:
16,282,172908,1,0,0:0:0:0:
16,282,173017,2,0,L|113:293,1,67.5000002574921,8|0,0:0|0:0,0:0:0:0:
146,177,173234,1,0,0:0:0:0:
146,154,173342,1,8,0:0:0:0:
146,132,173451,1,0,0:0:0:0:
146,109,173561,2,0,L|176:48,1,67.5000002574921,8|0,0:0|0:0,0:0:0:0:
318,78,173778,1,0,0:0:0:0:
318,78,173887,2,0,L|229:102,1,67.5000002574921,8|0,0:0|0:0,0:0:0:0:
267,230,174104,1,0,0:0:0:0:
298,242,174212,1,0,0:0:0:0:
331,241,174321,1,0,0:0:0:0:
362,228,174430,6,0,L|421:180,1,67.5000002574921,4|0,0:1|0:0,0:0:0:0:
435,287,174648,2,0,L|410:364,1,67.5000002574921,8|0,0:0|0:0,0:0:0:0:
224,306,174865,1,8,0:0:0:0:
195,288,174973,1,0,0:0:0:0:
175,261,175082,1,8,0:0:0:0:
169,228,175191,1,0,0:0:0:0:
176,196,175300,6,0,L|252:179,1,67.5000002574921,4|0,0:1|0:0,0:0:0:0:
339,78,175517,2,0,L|263:95,1,67.5000002574921,8|0,0:0|0:0,0:0:0:0:
432,242,175734,1,8,0:0:0:0:
409,266,175842,1,0,0:0:0:0:
377,276,175951,1,8,0:0:0:0:
345,269,176060,1,0,0:0:0:0:
321,245,176169,6,0,L|319:176,1,67.5000002574921,4|0,0:1|0:0,0:0:0:0:
201,77,176387,1,0,0:0:0:0:
181,104,176495,1,0,0:0:0:0:
163,133,176604,2,0,L|165:202,1,67.5000002574921,4|0,0:1|0:0,0:0:0:0:
89,290,176821,1,0,0:0:0:0:
108,317,176930,1,0,0:0:0:0:
127,345,177039,2,0,P|231:364|301:292,1,202.500000772476,4|0,0:1|0:0,0:0:0:0:
299,283,177474,2,0,L|301:215,1,67.5000002574921
408,174,177691,2,0,L|382:258,1,67.5000002574921
274,67,177908,5,12,0:1:0:0:
274,67,178017,2,0,L|193:79,1,62.5,8|0,0:0|0:0,0:0:0:0:
83,41,178234,1,8,0:0:0:0:
83,41,178343,2,0,L|164:29,1,62.5,8|0,0:0|0:0,0:0:0:0:
147,163,178561,1,8,0:0:0:0:
147,163,178669,2,0,L|76:205,1,62.5,8|0,0:0|0:0,0:0:0:0:
185,245,178887,1,8,0:0:0:0:
185,245,178995,2,0,L|256:287,1,62.5,8|0,0:0|0:0,0:0:0:0:
298,155,179213,1,8,0:1:0:0:
329,135,179321,1,8,0:1:0:0:
366,126,179430,1,8,0:1:0:0:
403,130,179539,1,8,0:1:0:0:
437,145,179647,5,0,3:1:0:0:
342,317,180082,5,8,0:1:0:0:
304,317,180190,1,8,0:1:0:0:
267,318,180299,1,8,0:1:0:0:
229,319,180408,1,8,0:1:0:0:
192,320,180516,5,12,0:1:0:0:
