osu file format v14

[General]
AudioFilename: audio.mp3
AudioLeadIn: 0
PreviewTime: 51051
Countdown: 1
SampleSet: Normal
StackLeniency: 0.7
Mode: 1
LetterboxInBreaks: 0
WidescreenStoryboard: 1

[Editor]
Bookmarks: 51204,85117
DistanceSpacing: 0.9
BeatDivisor: 4
GridSize: 4
TimelineZoom: 2.5

[Metadata]
Title:Heisei Kaisei Dottenshan
TitleUnicode:平成快晴どってんしゃん
Artist:BUTA-OTOME
ArtistUnicode:豚乙女
Creator:goheegy
Version:Futsuu
Source:
Tags:
BeatmapID:1555435
BeatmapSetID:737037

[Difficulty]
HPDrainRate:7
CircleSize:2
OverallDifficulty:4
ApproachRate:5
SliderMultiplier:1.4
SliderTickRate:1

[Events]
//Background and Video events
0,0,"bg.jpg",0,0
//Break Periods
2,74892,83927
//Storyboard Layer 0 (Background)
//Storyboard Layer 1 (Fail)
//Storyboard Layer 2 (Pass)
//Storyboard Layer 3 (Foreground)
//Storyboard Sound Samples

[TimingPoints]
345,326.086956521739,4,1,0,80,1,0
51214,-100,4,1,0,100,0,1
63605,-100,4,1,0,100,0,0
64094,-100,4,1,0,80,0,0
85127,-100,4,1,0,100,0,1
97518,-100,4,1,0,100,0,0
98008,-100,4,1,0,80,0,0

[HitObjects]
232,220,345,5,8,0:0:0:0:
216,188,1649,1,8,0:0:0:0:
256,104,2790,1,8,0:0:0:0:
216,196,2953,1,8,0:0:0:0:
280,160,5236,1,0,0:0:0:0:
312,176,5562,1,8,0:0:0:0:
312,176,5888,1,8,0:0:0:0:
312,176,6214,1,0,0:0:0:0:
312,176,6540,1,0,0:0:0:0:
312,176,6866,1,8,0:0:0:0:
312,176,7192,1,8,0:0:0:0:
312,176,7518,1,0,0:0:0:0:
216,120,8171,1,0,0:0:0:0:
216,120,8497,1,8,0:0:0:0:
216,120,8823,1,0,0:0:0:0:
216,120,9149,1,8,0:0:0:0:
216,120,9475,1,0,0:0:0:0:
216,120,9801,1,8,0:0:0:0:
216,120,10127,1,8,0:0:0:0:
216,120,10779,1,8,0:0:0:0:
216,120,11105,1,8,0:0:0:0:
216,120,11431,1,0,0:0:0:0:
216,120,11758,1,0,0:0:0:0:
216,128,12084,1,8,0:0:0:0:
216,128,12410,1,8,0:0:0:0:
216,128,12736,1,0,0:0:0:0:
216,128,13388,1,0,0:0:0:0:
216,128,13714,1,8,0:0:0:0:
216,128,14040,1,0,0:0:0:0:
216,128,14366,1,0,0:0:0:0:
216,128,14692,1,8,0:0:0:0:
216,128,15018,1,8,0:0:0:0:
216,128,15344,1,0,0:0:0:0:
292,156,15997,1,0,0:0:0:0:
292,156,16323,1,8,0:0:0:0:
292,156,16649,1,0,0:0:0:0:
292,156,16812,1,8,0:0:0:0:
292,156,17464,1,0,0:0:0:0:
292,156,17627,1,8,0:0:0:0:
292,156,17790,1,0,0:0:0:0:
288,156,17953,1,8,0:0:0:0:
288,156,18605,1,0,0:0:0:0:
288,156,18931,1,8,0:0:0:0:
288,156,19258,1,0,0:0:0:0:
288,156,19421,1,8,0:0:0:0:
288,156,20073,1,0,0:0:0:0:
288,156,20236,1,0,0:0:0:0:
288,156,20399,1,0,0:0:0:0:
288,156,20562,1,8,0:0:0:0:
288,156,21214,1,8,0:0:0:0:
288,156,21540,1,0,0:0:0:0:
288,156,21866,1,0,0:0:0:0:
288,156,22029,1,8,0:0:0:0:
288,156,22681,1,0,0:0:0:0:
288,156,22844,1,8,0:0:0:0:
288,156,23008,1,0,0:0:0:0:
288,156,23171,1,8,0:0:0:0:
288,156,23823,1,8,0:0:0:0:
288,156,24475,1,0,0:0:0:0:
288,156,25127,1,0,0:0:0:0:
288,156,25453,1,8,0:0:0:0:
288,156,25779,1,0,0:0:0:0:
288,156,26431,1,8,0:0:0:0:
288,156,26758,1,0,0:0:0:0:
288,156,27084,1,8,0:0:0:0:
288,156,27410,1,8,0:0:0:0:
288,156,27736,1,0,0:0:0:0:
288,156,28062,1,0,0:0:0:0:
288,156,28388,1,8,0:0:0:0:
264,120,29040,1,0,0:0:0:0:
264,120,29366,1,8,0:0:0:0:
264,120,29692,1,8,0:0:0:0:
264,120,30018,1,0,0:0:0:0:
264,120,30344,1,8,0:0:0:0:
264,120,30671,1,0,0:0:0:0:
264,120,30997,1,8,0:0:0:0:
264,120,31649,1,8,0:0:0:0:
264,120,31975,1,8,0:0:0:0:
264,120,32301,1,0,0:0:0:0:
264,120,32627,1,8,0:0:0:0:
264,120,32953,1,0,0:0:0:0:
264,120,33279,1,8,0:0:0:0:
264,120,33605,1,8,0:0:0:0:
264,120,34258,1,8,0:0:0:0:
264,120,34910,1,8,0:0:0:0:
264,120,35562,1,8,0:0:0:0:
264,120,35888,1,0,0:0:0:0:
264,120,36214,1,8,0:0:0:0:
264,120,36540,1,8,0:0:0:0:
264,120,36866,1,0,0:0:0:0:
360,124,37355,1,8,0:0:0:0:
360,124,37518,1,0,0:0:0:0:
360,124,38008,1,0,0:0:0:0:
360,124,38171,1,8,0:0:0:0:
256,148,39475,1,8,0:0:0:0:
256,148,39964,1,0,0:0:0:0:
256,148,40127,1,8,0:0:0:0:
216,84,40616,1,0,0:0:0:0:
216,84,40779,1,8,0:0:0:0:
208,136,42084,1,8,0:0:0:0:
208,136,42410,1,8,0:0:0:0:
208,136,42736,1,0,0:0:0:0:
208,136,43062,1,0,0:0:0:0:
208,136,43388,1,8,0:0:0:0:
208,136,43714,1,0,0:0:0:0:
208,136,44040,1,8,0:0:0:0:
208,136,44692,1,8,0:0:0:0:
208,136,45018,1,8,0:0:0:0:
208,136,45344,1,0,0:0:0:0:
208,136,45671,1,0,0:0:0:0:
208,136,45997,1,8,0:0:0:0:
208,136,46486,1,8,0:0:0:0:
208,136,47301,1,8,0:0:0:0:
208,136,47790,1,8,0:0:0:0:
208,136,48605,1,8,0:0:0:0:
208,136,49094,1,8,0:0:0:0:
208,136,49910,1,8,0:0:0:0:
208,136,50399,1,0,0:0:0:0:
208,136,50562,1,8,0:0:0:0:
416,144,51214,1,8,0:0:0:0:
248,52,51540,1,0,0:0:0:0:
416,144,51866,1,8,0:0:0:0:
416,144,52192,1,8,0:0:0:0:
416,144,52518,1,0,0:0:0:0:
416,144,52844,1,8,0:0:0:0:
272,92,53008,1,0,0:0:0:0:
416,144,53171,1,8,0:0:0:0:
344,124,53823,1,0,0:0:0:0:
368,136,54475,1,8,0:0:0:0:
280,72,54801,1,8,0:0:0:0:
368,136,55127,1,0,0:0:0:0:
368,136,55453,1,0,0:0:0:0:
368,136,55616,1,8,0:0:0:0:
368,136,55779,1,0,0:0:0:0:
232,88,56431,1,8,0:0:0:0:
268,196,56758,1,0,0:0:0:0:
240,92,57084,1,8,0:0:0:0:
228,36,57410,1,8,0:0:0:0:
240,92,57736,1,0,0:0:0:0:
240,92,58062,1,8,0:0:0:0:
240,92,58225,1,8,0:0:0:0:
224,16,58388,1,0,0:0:0:0:
300,96,59040,1,0,0:0:0:0:
356,136,59692,1,8,0:0:0:0:
356,136,60344,1,0,0:0:0:0:
356,136,60671,1,0,0:0:0:0:
356,136,60997,1,0,0:0:0:0:
356,136,61323,1,0,0:0:0:0:
356,136,61649,1,8,0:0:0:0:
356,136,62301,1,8,0:0:0:0:
356,136,62953,1,0,0:0:0:0:
356,136,63279,1,8,0:0:0:0:
356,136,63605,1,0,0:0:0:0:
272,168,64258,1,8,0:0:0:0:
308,164,65236,1,0,0:0:0:0:
308,208,65399,1,0,0:0:0:0:
232,136,65562,1,8,0:0:0:0:
264,60,66377,1,8,0:0:0:0:
192,144,66540,1,8,0:0:0:0:
188,100,66866,1,8,0:0:0:0:
272,144,67844,1,0,0:0:0:0:
272,144,68171,1,8,0:0:0:0:
336,224,68986,1,0,0:0:0:0:
336,224,69149,1,8,0:0:0:0:
248,120,69475,1,8,0:0:0:0:
240,100,70127,1,0,0:0:0:0:
300,120,70453,1,0,0:0:0:0:
300,120,70616,1,0,0:0:0:0:
120,184,70779,1,8,0:0:0:0:
296,148,71431,1,0,0:0:0:0:
300,136,72084,1,8,0:0:0:0:
220,120,72736,1,0,0:0:0:0:
220,120,73062,1,0,0:0:0:0:
220,120,73225,1,8,0:0:0:0:
240,124,73388,1,0,0:0:0:0:
272,116,73877,1,0,0:0:0:0:
288,116,74366,1,8,0:0:0:0:
288,116,74529,1,0,0:0:0:0:
288,116,74692,1,8,0:0:0:0:
416,144,85127,5,8,0:0:0:0:
248,52,85453,1,0,0:0:0:0:
416,144,85779,1,8,0:0:0:0:
416,144,86105,1,8,0:0:0:0:
416,144,86431,1,0,0:0:0:0:
416,144,86757,1,8,0:0:0:0:
272,92,86921,1,0,0:0:0:0:
416,144,87084,1,8,0:0:0:0:
344,124,87736,1,0,0:0:0:0:
368,136,88388,1,8,0:0:0:0:
280,72,88714,1,8,0:0:0:0:
368,136,89040,1,0,0:0:0:0:
368,136,89366,1,0,0:0:0:0:
368,136,89529,1,8,0:0:0:0:
368,136,89692,1,0,0:0:0:0:
232,88,90344,1,8,0:0:0:0:
356,260,90671,1,0,0:0:0:0:
240,92,90997,1,8,0:0:0:0:
228,36,91323,1,8,0:0:0:0:
240,92,91649,1,0,0:0:0:0:
240,92,91975,1,8,0:0:0:0:
240,92,92138,1,8,0:0:0:0:
224,16,92301,1,0,0:0:0:0:
300,96,92953,1,0,0:0:0:0:
356,136,93605,1,8,0:0:0:0:
356,136,94257,1,0,0:0:0:0:
356,136,94584,1,0,0:0:0:0:
356,136,94910,1,0,0:0:0:0:
356,136,95236,1,0,0:0:0:0:
356,136,95562,1,8,0:0:0:0:
356,136,96214,1,8,0:0:0:0:
356,136,96866,1,0,0:0:0:0:
356,136,97192,5,8,0:0:0:0:
356,136,97518,1,0,0:0:0:0:
312,176,98171,5,8,0:0:0:0:
312,176,98497,1,8,0:0:0:0:
312,176,98823,1,0,0:0:0:0:
312,176,99149,1,0,0:0:0:0:
312,176,99475,1,8,0:0:0:0:
312,176,99801,1,8,0:0:0:0:
312,176,100127,1,0,0:0:0:0:
216,120,100780,1,0,0:0:0:0:
216,120,101106,1,8,0:0:0:0:
216,120,101432,1,0,0:0:0:0:
216,120,101758,1,8,0:0:0:0:
216,120,102084,1,0,0:0:0:0:
216,120,102410,1,8,0:0:0:0:
216,120,102736,1,8,0:0:0:0:
216,120,103388,1,8,0:0:0:0:
216,120,103714,1,8,0:0:0:0:
216,120,104040,1,0,0:0:0:0:
216,120,104367,1,0,0:0:0:0:
216,128,104693,1,8,0:0:0:0:
216,128,105019,1,8,0:0:0:0:
216,128,105345,1,0,0:0:0:0:
216,128,105997,1,0,0:0:0:0:
216,128,106323,1,8,0:0:0:0:
216,128,106649,1,0,0:0:0:0:
216,128,106975,1,8,0:0:0:0:
216,128,107301,1,0,0:0:0:0:
216,128,107627,1,8,0:0:0:0:
216,128,107953,1,0,0:0:0:0:
264,112,108605,1,8,0:0:0:0:
272,112,108931,1,8,0:0:0:0:
272,112,109258,1,0,0:0:0:0:
256,192,109584,12,0,115046,0:0:0:0:
