osu file format v14

[General]
AudioFilename: audio.mp3
AudioLeadIn: 0
PreviewTime: 54797
Countdown: 0
SampleSet: Soft
StackLeniency: 0.4
Mode: 0
LetterboxInBreaks: 0
WidescreenStoryboard: 1

[Editor]
Bookmarks: 1613,8620,12123,15627,22634,29642,36649,43437,50664,55919,62926,69934,76941,80445,83948,87452
DistanceSpacing: 0.75
BeatDivisor: 4
GridSize: 32
TimelineZoom: 1

[Metadata]
Title:PHOENIX (TV Size)
TitleUnicode:PHOENIX (TV Size)
Artist:BURNOUT SYNDROMES
ArtistUnicode:BURNOUT SYNDROMES
Creator:wolf3211
Version:NORMAL
Source:ハイキュー!! TO THE TOP
Tags:Hazu- Haikyuu!!: (2020) Haikyu!! Fourth Season High Kyuu!! 4th opening op japanese anime
BeatmapID:2284816
BeatmapSetID:1092982

[Difficulty]
HPDrainRate:4
CircleSize:3.5
OverallDifficulty:4
ApproachRate:5.5
SliderMultiplier:1.5
SliderTickRate:1

[Events]
//Background and Video events
0,0,"Haikyu!!.jpg",0,0
Video,-50,"Vid.mp4"
//Break Periods
//Storyboard Layer 0 (Background)
//Storyboard Layer 1 (Fail)
//Storyboard Layer 2 (Pass)
//Storyboard Layer 3 (Foreground)
//Storyboard Layer 4 (Overlay)
//Storyboard Sound Samples

[TimingPoints]
1613,437.956204379562,4,2,12,62,1,0
1613,-117.647058823529,4,2,12,62,0,0
8620,-117.647058823529,4,2,24,40,0,0
9058,-100,4,2,24,72,0,0
9496,-100,4,2,24,68,0,0
9934,-100,4,2,24,72,0,0
10372,-100,4,2,24,68,0,0
10810,-100,4,2,24,72,0,0
11248,-100,4,2,24,68,0,0
11685,-100,4,2,24,72,0,0
12123,-100,4,2,24,72,0,0
12342,-100,4,2,24,48,0,0
12780,-100,4,2,24,50,0,0
12999,-100,4,2,24,65,0,0
13875,-100,4,2,24,72,0,0
15627,-100,4,2,24,78,0,0
22634,-111.111111111111,4,2,24,65,0,0
29642,-99.9999999999999,4,2,24,70,0,0
34897,-125,4,2,12,25,0,0
35226,-125,4,2,12,25,0,0
35554,-125,4,2,12,15,0,0
35773,-100,4,2,24,72,0,0
36649,-100,4,2,24,75,0,0
43437,-100,4,2,24,70,0,0
47598,-100,4,2,24,65,0,0
48036,-100,4,2,24,68,0,0
48474,-100,4,2,24,72,0,0
50664,-125,4,2,24,65,0,0
52196,-125,4,2,24,75,0,0
54167,-100,4,2,24,75,0,0
55919,-100,4,2,24,78,0,1
62926,-100,4,2,24,70,0,0
66430,-100,4,2,24,74,0,0
69934,-100,4,2,24,78,0,1
76941,-100,4,2,24,74,0,0
80445,-100,4,2,24,78,0,0
83948,-117.647058823529,4,2,24,74,0,0
86357,-100,4,2,24,78,0,0
87452,-100,4,2,24,5,0,0

[Colours]
Combo1 : 255,227,145
Combo2 : 255,198,140
Combo3 : 197,197,197
Combo4 : 219,183,183

[HitObjects]
28,281,1613,6,0,B|94:238|185:280|113:307|202:341|265:309,1,255.000004863739,6|2,0:0|0:0,0:0:0:0:
347,266,2926,1,2,0:0:0:0:
440,286,3364,2,0,P|428:223|415:155,1,127.50000243187,2|2,0:0|0:0,0:0:0:0:
397,66,4240,1,2,0:0:0:0:
316,117,4678,1,2,0:0:0:0:
256,192,5116,12,2,8182,0:0:0:0:
65,83,9058,6,0,P|128:92|213:107,1,150,4|2,0:0|0:3,0:0:0:0:
315,153,9934,2,0,P|378:143|463:128,1,150,4|2,0:0|0:3,0:0:0:0:
499,21,10810,2,0,P|435:30|350:45,1,150,4|2,0:0|0:3,0:0:0:0:
315,153,11685,2,0,P|321:190|328:226,1,75,4|0,0:0|0:0,0:0:0:0:
326,283,12123,5,12,3:2:0:0:
216,266,12561,2,0,P|178:259|131:279,1,75,0|8,3:2|0:0,0:0:0:0:
96,300,12999,2,0,P|91:268|84:225,1,75,8|8,0:0|0:0,0:0:0:0:
100,171,13437,2,0,P|95:139|88:96,1,75,8|8,0:0|0:0,0:0:0:0:
81,40,13875,2,0,B|140:-6|205:31|205:31|214:13|214:13|269:55|347:22,1,281.25,8|8,0:0|0:0,0:0:0:0:
473,221,15627,6,0,P|484:276|494:331,2,112.5,4|8|10,0:0|0:0|0:0,0:0:0:0:
462,165,16503,1,0,3:2:0:0:
355,129,16941,2,0,P|318:138|282:146,1,75,0|10,3:2|0:0,0:0:0:0:
228,164,17379,2,0,P|195:119|203:65,2,112.5,0|8|10,3:2|0:0|0:0,0:0:0:0:
245,217,18255,1,0,3:2:0:0:
221,327,18693,2,0,P|185:340|141:336,1,75,0|10,3:2|0:0,0:0:0:0:
108,300,19131,6,0,P|99:241|91:187,2,112.5,0|8|10,3:2|0:0|0:0,0:0:0:0:
149,339,20007,1,0,3:2:0:0:
199,238,20445,2,0,P|193:200|187:163,1,75,0|10,3:2|0:0,0:0:0:0:
289,118,21102,2,0,P|297:172|306:228,2,112.5,4|4|12,0:0|0:0|0:0,0:0:0:0:
373,43,22196,2,0,P|378:79|385:116,1,75,2|8,0:3|0:3,0:0:0:0:
405,163,22634,6,0,P|462:167|509:242,1,134.999995880127,4|0,3:3|3:2,0:0:0:0:
483,326,23510,1,0,3:2:0:0:
483,326,23729,2,0,P|415:317|349:311,1,134.999995880127,0|0,0:0|0:0,0:0:0:0:
301,330,24386,1,2,3:1:0:0:
202,309,24824,2,0,P|191:243|179:174,1,134.999995880127,0|0,3:2|3:2,0:0:0:0:
134,84,25700,1,2,3:1:0:0:
55,149,26138,6,0,P|66:215|77:282,1,134.999995880127,2|0,3:1|3:2,0:0:0:0:
108,321,26795,2,0,P|171:304|229:335,1,134.999995880127,2|0,0:1|0:0,0:0:0:0:
254,379,27452,1,2,3:1:0:0:
350,341,27890,2,0,P|413:357|471:325,1,134.999995880127,2|0,3:1|3:2,0:0:0:0:
504,229,28766,2,0,P|497:162|490:84,1,134.999995880127,0|0,3:2|3:2,0:0:0:0:
467,55,29423,1,8,0:3:0:0:
467,55,29642,6,0,P|401:93|327:71,1,150,4|8,0:3|0:0,0:0:0:0:
222,54,30518,2,0,P|229:90|237:127,1,75,0|2,3:2|0:0,0:0:0:0:
232,183,30956,1,0,3:2:0:0:
121,205,31394,2,0,P|60:233|44:323,1,150,0|8,3:2|0:0,0:0:0:0:
67,359,32050,1,2,0:0:0:0:
179,333,32488,1,2,0:0:0:0:
179,333,32707,2,0,P|209:329|253:323,1,75,2|10,3:0|0:0,0:0:0:0:
298,288,33145,6,0,P|358:280|447:269,1,150,4|8,3:2|0:0,0:0:0:0:
497,293,33802,2,0,P|529:221|460:134,1,150,4|8,3:2|0:3,0:0:0:0:
449,140,34459,1,2,3:2:0:0:
449,140,35773,2,0,P|411:136|364:132,1,75,8|8,0:0|0:0,0:0:0:0:
326,102,36211,2,0,P|288:98|241:94,1,75,8|8,0:0|0:0,0:0:0:0:
198,73,36649,6,0,P|218:145|175:214,1,150,4|0,0:0|3:2,0:0:0:0:
108,292,37525,2,0,P|70:299|29:307,1,75,0|2,3:2|0:0,0:0:0:0:
0,344,37963,1,0,3:2:0:0:
108,375,38401,2,0,P|181:360|255:347,1,150,0|0,3:2|3:2,0:0:0:0:
311,338,39058,2,0,P|283:288|329:203,1,150,10|2,0:0|0:0,0:0:0:0:
369,185,39715,1,0,3:2:0:0:
436,95,40153,5,0,3:2:0:0:
436,95,40372,2,0,P|365:86|279:77,1,150,2|10,0:0|0:0,0:0:0:0:
245,39,41029,2,0,P|208:34|164:29,1,75,0|2,3:2|0:0,0:0:0:0:
118,25,41467,1,0,3:2:0:0:
137,135,41904,2,0,P|143:173|149:211,2,75,0|2|8,3:2|0:3|0:3,0:0:0:0:
37,83,42780,2,0,P|43:119|48:157,1,75,8|2,0:0|3:2,0:0:0:0:
44,212,43218,1,8,0:0:0:0:
44,212,43437,6,0,P|56:285|66:362,1,150,4|8,0:3|0:0,0:0:0:0:
121,371,44094,1,8,0:3:0:0:
207,303,44532,2,0,P|202:265|195:228,2,75,8|0|8,0:0|3:2|0:0,0:0:0:0:
251,337,45189,2,0,P|318:363|382:320,1,150,4|0,0:0|3:2,0:0:0:0:
383,267,45846,1,8,0:0:0:0:
492,294,46284,2,0,P|502:329|514:376,2,75,8|2|8,0:0|3:2|0:0,0:0:0:0:
505,239,46941,6,0,P|485:166|468:93,1,150,4|8,0:0|0:0,0:0:0:0:
424,57,47598,1,8,0:3:0:0:
336,127,48036,1,8,0:3:0:0:
242,64,48474,1,8,0:0:0:0:
150,125,48912,2,0,P|167:198|186:270,1,150,0|4,3:2|3:2,0:0:0:0:
207,322,49569,2,0,P|277:349|345:305,1,150,8|4,0:0|0:0,0:0:0:0:
373,271,50226,1,2,0:3:0:0:
472,323,50664,6,0,P|489:259|457:203,1,120,4|2,0:3|0:0,0:0:0:0:
390,130,51540,2,0,P|329:132|268:136,1,120,0|2,0:0|0:0,0:0:0:0:
219,110,52196,1,4,3:2:0:0:
256,192,52415,12,8,54167,0:0:0:0:
142,303,55919,6,0,P|133:229|124:154,1,150,4|8,0:0|0:0,0:0:0:0:
117,102,56576,1,2,0:0:0:0:
117,102,56795,2,0,P|62:127|4:102,2,112.5,0|2|2,3:2|0:0|0:0,0:0:0:0:
164,71,57671,2,0,P|227:38|297:64,1,150,0|8,3:2|0:0,0:0:0:0:
382,137,58547,2,0,P|377:174|372:211,1,75,0|2,3:2|0:0,0:0:0:0:
383,266,58985,1,8,0:0:0:0:
416,373,59423,6,0,P|341:367|266:362,1,150,0|8,3:2|0:0,0:0:0:0:
214,359,60080,1,2,0:0:0:0:
214,359,60299,2,0,P|182:321|208:232,1,150,0|8,3:2|0:0,0:0:0:0:
261,210,60956,1,2,0:0:0:0:
261,210,61175,2,0,P|293:172|267:83,1,150,0|12,3:2|0:0,0:0:0:0:
158,109,62050,1,0,3:2:0:0:
188,0,62488,1,0,3:2:0:0:
267,83,62926,6,0,P|321:78|381:73,1,112.5,4|8,0:0|0:0,0:0:0:0:
453,32,63583,1,12,0:0:0:0:
506,130,64021,2,0,P|514:166|500:201,1,75,8|12,0:0|0:0,0:0:0:0:
450,221,64459,1,8,0:0:0:0:
450,221,64678,2,0,P|417:259|413:327,1,112.5,4|8,0:0|0:0,0:0:0:0:
340,366,65335,1,4,0:0:0:0:
234,326,65773,2,0,P|196:328|159:336,1,75,8|4,0:0|0:0,0:0:0:0:
120,375,66211,1,8,0:0:0:0:
120,375,66430,6,0,P|75:322|101:242,1,150,4|8,0:0|0:0,0:0:0:0:
141,218,67087,1,2,0:0:0:0:
141,218,67306,2,0,P|167:150|127:89,1,150,0|8,3:2|0:0,0:0:0:0:
22,130,68182,2,0,P|12:91|26:48,1,75,4|8,3:2|0:3,0:0:0:0:
68,28,68620,1,12,0:0:0:0:
178,6,69058,2,0,P|213:10|257:17,1,75,2|2,0:3|0:3,0:0:0:0:
300,45,69496,2,0,P|335:49|379:56,1,75,8|8,0:0|0:3,0:0:0:0:
429,69,69934,6,0,P|445:137|393:194,1,150,4|8,0:0|0:0,0:0:0:0:
299,252,70810,2,0,P|309:301|323:364,2,112.5,8|2|2,0:0|0:0|3:2,0:0:0:0:
316,198,71685,2,0,P|238:206|160:214,1,150,8|8,0:0|0:0,0:0:0:0:
117,235,72342,1,2,3:2:0:0:
117,235,72561,2,0,P|156:286|132:367,1,150,8|8,0:0|0:0,0:0:0:0:
43,293,73437,6,0,P|21:244|38:199,1,75,8|2,0:0|3:2,0:0:0:0:
46,172,73875,1,8,0:0:0:0:
39,63,74313,1,8,0:0:0:0:
39,63,74532,2,0,P|77:66|124:72,1,75,2|8,3:2|0:0,0:0:0:0:
167,55,74970,2,0,P|241:64|316:70,1,150,2|2,3:2|3:2,0:0:0:0:
367,45,75627,1,12,0:0:0:0:
441,129,76065,2,0,P|460:199|418:263,1,150,2|8,3:2|0:0,0:0:0:0:
330,323,76941,6,0,P|272:314|218:308,1,112.5,4|8,0:0|0:0,0:0:0:0:
151,359,77598,1,4,0:0:0:0:
39,344,78036,2,0,P|22:310|24:273,1,75,0|4,3:2|0:0,0:0:0:0:
67,237,78474,1,8,0:0:0:0:
67,237,78693,2,0,P|81:182|53:122,1,112.5,4|8,0:0|0:0,0:0:0:0:
24,55,79350,1,4,0:0:0:0:
132,26,79788,2,0,P|168:33|205:40,1,75,8|4,0:0|0:0,0:0:0:0:
262,17,80226,1,8,0:0:0:0:
262,17,80445,6,0,P|336:33|410:48,1,150,4|8,0:0|0:0,0:0:0:0:
453,151,81321,2,0,P|480:195|466:254,2,112.5,0|2|2,3:2|0:0|0:0,0:0:0:0:
397,157,82196,2,0,P|323:140|250:127,1,150,0|8,3:2|0:0,0:0:0:0:
194,115,82853,2,0,P|184:187|230:244,1,150,2|2,0:0|0:0,0:0:0:0:
285,254,83510,1,8,0:0:0:0:
305,346,83948,6,0,B|367:332|429:318,1,127.50000243187,4|8,0:0|0:0,0:0:0:0:
473,300,84605,2,0,P|485:242|429:176,1,127.50000243187,4|8,0:0|0:0,0:0:0:0:
414,155,85262,2,0,B|365:123|297:154|350:174|284:199|238:175,1,191.250003647804,4|8,0:0|0:3,0:0:0:0:
128,148,86357,2,0,P|116:112|103:77,1,75,12|8,0:0|0:0,0:0:0:0:
53,62,86795,1,8,0:0:0:0:
53,62,87014,2,0,P|76:133|101:203,1,150,12|0,0:0|0:0,0:0:0:0:
