osu file format v14

[General]
AudioFilename: audio.mp3
AudioLeadIn: 0
PreviewTime: 54797
Countdown: 0
SampleSet: Soft
StackLeniency: 0.4
Mode: 0
LetterboxInBreaks: 0
WidescreenStoryboard: 1

[Editor]
Bookmarks: 1613,8620,12123,15627,22634,29642,36649,43437,50664,55919,62926,69934,76941,80445,83948,87452
DistanceSpacing: 0.8
BeatDivisor: 2
GridSize: 32
TimelineZoom: 1

[Metadata]
Title:PHOENIX (TV Size)
TitleUnicode:PHOENIX (TV Size)
Artist:BURNOUT SYNDROMES
ArtistUnicode:BURNOUT SYNDROMES
Creator:wolf3211
Version:EASY
Source:ハイキュー!! TO THE TOP
Tags:Hazu- Haikyuu!!: (2020) Haikyu!! Fourth Season High Kyuu!! 4th opening op japanese anime
BeatmapID:2284936
BeatmapSetID:1092982

[Difficulty]
HPDrainRate:2
CircleSize:3
OverallDifficulty:2
ApproachRate:3
SliderMultiplier:1.2
SliderTickRate:1

[Events]
//Background and Video events
0,0,"Haikyu!!.jpg",0,0
Video,-50,"Vid.mp4"
//Break Periods
//Storyboard Layer 0 (Background)
//Storyboard Layer 1 (Fail)
//Storyboard Layer 2 (Pass)
//Storyboard Layer 3 (Foreground)
//Storyboard Layer 4 (Overlay)
//Storyboard Sound Samples

[TimingPoints]
1613,437.956204379562,4,2,12,62,1,0
1613,-111.111111111111,4,2,12,62,0,0
8620,-111.111111111111,4,2,24,40,0,0
9058,-100,4,2,24,72,0,0
9496,-100,4,2,24,68,0,0
9934,-100,4,2,24,72,0,0
10372,-100,4,2,24,68,0,0
10810,-100,4,2,24,72,0,0
11248,-100,4,2,24,68,0,0
11685,-100,4,2,24,72,0,0
12123,-100,4,2,24,72,0,0
12342,-100,4,2,24,48,0,0
12780,-100,4,2,24,50,0,0
12999,-100,4,2,24,65,0,0
13875,-100,4,2,24,72,0,0
15627,-100,4,2,24,78,0,0
22634,-105.263157894737,4,2,24,65,0,0
29642,-99.9999999999999,4,2,24,70,0,0
34897,-125,4,2,12,25,0,0
35226,-125,4,2,12,25,0,0
35554,-125,4,2,12,15,0,0
35773,-100,4,2,24,72,0,0
36649,-100,4,2,24,75,0,0
43437,-100,4,2,24,70,0,0
47598,-100,4,2,24,65,0,0
48036,-100,4,2,24,68,0,0
48474,-100,4,2,24,72,0,0
50664,-105.263157894737,4,2,24,65,0,0
52196,-105.263157894737,4,2,24,75,0,0
54167,-100,4,2,24,75,0,0
55919,-100,4,2,24,78,0,1
62926,-100,4,2,24,70,0,0
66430,-100,4,2,24,74,0,0
69934,-100,4,2,24,78,0,1
76941,-100,4,2,24,74,0,0
80445,-100,4,2,24,78,0,0
83948,-105.263157894737,4,2,24,74,0,0
86357,-100,4,2,24,78,0,0
87452,-100,4,2,24,5,0,0

[Colours]
Combo1 : 255,227,145
Combo2 : 255,198,140
Combo3 : 197,197,197
Combo4 : 219,183,183

[HitObjects]
77,73,1613,6,0,L|93:180,1,107.999996704102,6|2,0:0|0:0,0:0:0:0:
160,234,2488,1,2,0:0:0:0:
238,197,2926,1,2,0:0:0:0:
309,245,3364,2,0,P|391:263|450:157,1,215.999993408203,2|2,0:0|0:0,0:0:0:0:
413,84,4678,1,2,0:0:0:0:
256,192,5116,12,2,7744,0:0:0:0:
91,349,9058,6,0,P|70:295|91:236,1,120,4|2,0:0|0:3,0:0:0:0:
169,292,9934,2,0,P|188:237|167:182,1,120,4|2,0:0|0:3,0:0:0:0:
112,101,10810,2,0,P|167:82|222:103,1,120,4|2,0:0|0:3,0:0:0:0:
294,167,11685,1,4,0:0:0:0:
388,143,12123,6,0,B|390:77|457:55|457:55|504:112|470:169|470:169|474:184|474:184|463:193|463:193|430:223|435:271,1,360,12|8,3:2|0:0,0:0:0:0:
478,357,13875,2,0,P|375:347|344:240,1,225,8|8,0:0|0:0,0:0:0:0:
157,280,15627,6,0,P|98:290|39:303,1,120,4|2,0:0|3:2,0:0:0:0:
25,207,16503,2,0,P|83:194|142:183,1,120,2|2,3:2|3:2,0:0:0:0:
238,174,17379,2,0,P|296:167|333:122,1,120,2|0,3:2|3:2,0:0:0:0:
269,48,18255,6,0,P|340:24|430:137,1,240,2|2,3:2|3:2,0:0:0:0:
395,227,19569,1,0,3:2:0:0:
431,315,20007,2,0,P|346:319|238:324,1,180,2|10,3:2|0:0,0:0:0:0:
159,351,21102,2,0,P|114:312|187:252,1,180,4|12,0:0|0:0,0:0:0:0:
251,323,22196,1,2,0:3:0:0:
275,234,22634,6,0,P|266:176|256:118,1,113.999996955872,4|0,3:3|3:2,0:0:0:0:
337,78,23510,2,0,P|345:134|355:190,1,113.999996955872,0|2,3:2|3:1,0:0:0:0:
410,263,24386,2,0,P|464:276|516:239,2,113.999996955872,2|0|0,3:1|3:2|3:2,0:0:0:0:
355,190,25700,1,2,3:1:0:0:
275,234,26138,6,0,P|218:242|162:252,1,113.999996955872,2|0,3:1|3:2,0:0:0:0:
98,321,27014,2,0,P|72:280|78:205,1,113.999996955872,0|2,3:2|3:1,0:0:0:0:
148,162,27890,2,0,P|204:152|260:143,1,113.999996955872,2|0,3:1|3:2,0:0:0:0:
351,135,28766,1,0,3:2:0:0:
298,60,29204,1,0,3:2:0:0:
261,143,29642,6,0,P|270:202|281:261,1,120,4|8,0:3|0:0,0:0:0:0:
253,353,30518,2,0,P|311:356|356:319,1,120,0|0,3:2|3:2,0:0:0:0:
378,225,31394,2,0,P|436:221|481:258,2,120,0|8|0,3:2|0:0|3:2,0:0:0:0:
357,318,32707,1,2,3:0:0:0:
281,261,33145,6,0,P|193:274|103:287,2,180,4|4|2,3:2|3:2|3:2,0:0:0:0:
473,47,35773,2,0,P|412:54|346:62,1,120,8|8,0:0|0:0,0:0:0:0:
263,28,36649,6,0,P|202:35|136:43,1,120,4|2,0:0|3:2,0:0:0:0:
49,60,37525,2,0,P|76:107|58:181,1,120,2|0,3:2|3:2,0:0:0:0:
22,255,38401,2,0,P|-5:302|13:376,2,120,2|2|2,3:2|3:2|3:2,0:0:0:0:
117,248,39715,1,0,3:2:0:0:
66,170,40153,6,0,P|127:162|189:156,1,120,2|2,3:2|3:2,0:0:0:0:
270,200,41029,2,0,P|329:205|389:213,1,120,2|2,3:2|3:2,0:0:0:0:
447,137,41904,2,0,P|480:237|380:309,1,240,0|8,3:2|0:0,0:0:0:0:
249,359,43437,6,0,P|189:351|129:345,1,120,4|8,0:3|0:0,0:0:0:0:
20,251,44532,1,8,0:0:0:0:
83,130,45189,2,0,P|142:135|202:143,1,120,4|0,0:0|3:2,0:0:0:0:
337,93,46284,1,8,0:0:0:0:
478,52,46941,6,0,P|463:131|442:229,1,180,4|8,0:0|0:3,0:0:0:0:
399,314,48036,1,8,0:3:0:0:
310,275,48474,1,8,0:0:0:0:
222,313,48912,2,0,P|208:222|196:135,2,180,0|8|2,3:2|0:0|0:3,0:0:0:0:
310,275,50664,6,0,P|301:221|291:154,2,113.999996955872,4|2|0,0:3|0:0|0:0,0:0:0:0:
417,359,52196,1,4,3:2:0:0:
256,192,52415,12,8,54167,0:0:0:0:
478,50,55919,6,0,P|428:23|362:41,1,120,4|8,0:0|0:0,0:0:0:0:
300,103,56795,2,0,P|250:130|184:112,1,120,0|8,3:2|0:0,0:0:0:0:
98,87,57671,2,0,P|108:150|116:206,2,120,0|8|0,3:2|0:0|3:2,0:0:0:0:
172,26,58985,1,8,0:0:0:0:
191,117,59423,6,0,P|200:176|208:235,1,120,0|8,3:2|0:0,0:0:0:0:
266,312,60299,2,0,P|310:274|386:285,1,120,0|8,3:2|0:0,0:0:0:0:
435,344,61175,2,0,P|466:300|455:235,1,120,0|12,3:2|0:0,0:0:0:0:
377,182,62050,1,0,3:2:0:0:
395,87,62488,1,0,3:2:0:0:
301,64,62926,6,0,B|253:78|213:54|213:54|184:79|122:72,1,180,4|12,0:0|0:0,0:0:0:0:
25,171,64240,1,12,0:0:0:0:
78,250,64678,2,0,B|126:236|166:260|166:260|195:235|257:242,1,180,4|4,0:0|0:0,0:0:0:0:
363,331,65992,1,4,0:0:0:0:
428,260,66430,6,0,P|422:199|416:138,1,120,4|8,0:0|0:0,0:0:0:0:
404,45,67306,2,0,P|353:69|290:48,1,120,0|8,3:2|0:0,0:0:0:0:
202,80,68182,1,4,3:2:0:0:
111,46,68620,1,12,0:0:0:0:
62,124,69058,2,0,P|68:181|73:243,1,120,2|8,0:3|0:0,0:0:0:0:
123,325,69934,6,0,B|161:316|161:316|243:322,1,120,4|8,0:0|0:0,0:0:0:0:
328,362,70810,2,0,P|387:355|447:350,1,120,8|8,0:0|0:0,0:0:0:0:
436,254,71685,2,0,P|376:258|316:264,2,120,8|8|8,0:0|0:0|0:0,0:0:0:0:
470,164,72999,1,8,0:0:0:0:
426,78,73437,6,0,P|366:83|306:89,1,120,8|8,0:0|0:0,0:0:0:0:
224,139,74313,2,0,P|163:144|115:103,1,120,8|8,0:0|0:0,0:0:0:0:
152,19,75189,2,0,P|91:14|43:55,1,120,8|12,0:0|0:0,0:0:0:0:
119,110,76065,1,2,3:2:0:0:
73,194,76503,1,8,0:0:0:0:
113,281,76941,6,0,B|165:273|165:273|241:281|241:281|297:273,1,180,4|4,0:0|0:0,0:0:0:0:
417,203,78255,1,4,0:0:0:0:
381,113,78693,2,0,B|329:105|329:105|253:113|253:113|197:105,1,180,4|4,0:0|0:0,0:0:0:0:
70,48,80007,1,4,0:0:0:0:
15,127,80445,6,0,P|23:181|31:253,1,120,4|8,0:0|0:0,0:0:0:0:
97,314,81321,1,0,3:2:0:0:
189,290,81758,1,8,0:0:0:0:
276,329,82196,2,0,P|325:363|392:363,1,120,0|8,3:2|0:0,0:0:0:0:
454,300,83072,2,0,P|447:240|438:181,1,120,0|8,3:2|0:0,0:0:0:0:
485,102,83948,6,0,P|397:101|350:162,1,170.999995433807,4|4,0:0|0:0,0:0:0:0:
278,278,85262,2,0,P|197:289|102:303,1,170.999995433807,4|8,0:0|0:3,0:0:0:0:
45,229,86357,1,8,0:0:0:0:
82,89,87014,2,0,P|137:81|203:72,1,120,12|0,0:0|0:0,0:0:0:0:
