osu file format v14

[General]
AudioFilename: audio.mp3
AudioLeadIn: 0
PreviewTime: 54824
Countdown: 0
SampleSet: Soft
StackLeniency: 0.4
Mode: 0
LetterboxInBreaks: 0
WidescreenStoryboard: 0

[Editor]
Bookmarks: 8620,15627,22634,29642,36649,43437,50664,55919,62926,69934,76941,83948
DistanceSpacing: 1.3
BeatDivisor: 8
GridSize: 16
TimelineZoom: 4.099998

[Metadata]
Title:PHOENIX (TV Size)
TitleUnicode:PHOENIX (TV Size)
Artist:BURNOUT SYNDROMES
ArtistUnicode:BURNOUT SYNDROMES
Creator:hypercyte
Version:TO THE TOP!!
Source:HAIKYU!! TO THE TOP
Tags:4 ハイキュー!! haikyuu to the top op opening 2020 fourth season 4th pheonix japanese anime version rock jrock j-rock hypercute 熊谷和海 Kazuumi Kumagai 石川大裕 Taiyu Ishikawa 廣瀬拓哉 Takuya Hirose
BeatmapID:2283348
BeatmapSetID:1092306

[Difficulty]
HPDrainRate:5
CircleSize:4.4
OverallDifficulty:8.4
ApproachRate:9.2
SliderMultiplier:2.44
SliderTickRate:1

[Events]
//Background and Video events
Video,0,"phoenix.mp4"
0,0,"46106910_p0.jpg",0,0
//Break Periods
//Storyboard Layer 0 (Background)
//Storyboard Layer 1 (Fail)
//Storyboard Layer 2 (Pass)
//Storyboard Layer 3 (Foreground)
//Storyboard Layer 4 (Overlay)
//Storyboard Sound Samples

[TimingPoints]
1613,437.956204379562,4,2,4,64,1,0
1613,-133.333333333333,4,2,4,64,0,0
9058,-69.4444444444444,4,2,4,64,0,0
9496,-227.272727272727,4,2,4,64,0,0
9879,-227.272727272727,4,2,4,5,0,0
9934,-69.4444444444444,4,2,4,64,0,0
10372,-227.272727272727,4,2,4,64,0,0
10755,-227.272727272727,4,2,4,5,0,0
10810,-69.4444444444444,4,2,4,64,0,0
11248,-227.272727272727,4,2,4,64,0,0
11631,-227.272727272727,4,2,4,5,0,0
11685,-69.4444444444444,4,2,4,64,0,0
12123,-83.3333333333333,4,2,4,64,0,0
12561,-133.333333333333,4,2,4,44,0,0
12999,-105.263157894737,4,2,4,54,0,0
13437,-86.9565217391304,4,2,4,64,0,0
14313,-95.2380952380952,4,2,4,64,0,0
15627,-100,4,2,4,64,0,0
21430,-83.3333333333333,4,2,4,64,0,0
22634,-133.333333333333,4,2,4,44,0,0
29642,-117.647058823529,4,2,4,54,0,0
34459,-156.25,4,2,4,54,0,0
36649,-100,4,2,4,64,0,0
43437,-100,4,2,4,54,0,0
50664,-200,4,2,4,44,0,0
51977,-133.333333333333,4,2,4,44,0,0
54167,-133.333333333333,4,2,4,54,0,0
55919,-80.6451612903226,4,2,4,74,0,1
69824,-80.6451612903226,4,2,4,74,0,0
69934,-80.6451612903226,4,2,4,84,0,1
76941,-80.6451612903226,4,2,4,74,0,1
83948,-100,4,2,4,54,0,0
85262,-181.818181818182,4,2,4,64,0,0
86357,-69.4444444444444,4,2,4,64,0,0

[Colours]
Combo1 : 188,194,241
Combo2 : 247,162,104

[HitObjects]
256,384,1613,5,12,0:0:0:0:
256,192,4240,12,0,8620,0:0:0:0:
124,146,9058,6,0,B|182:129|182:129|298:127|298:127|392:94,1,263.520006433594,14|0,0:0|0:0,0:0:0:0:
339,307,9496,6,0,P|329:271|371:235,1,93.9400028668214,4|0,0:3|0:0,0:0:0:0:
380,238,9934,6,0,P|372:289|207:256,1,263.520006433594,14|0,0:0|0:0,0:0:0:0:
77,171,10372,6,0,P|101:132|88:89,1,93.9400028668214,4|0,0:3|0:0,0:0:0:0:
90,181,10810,6,0,B|169:198|220:136|180:87|209:35|297:26,1,263.520006433594,14|0,0:0|0:0,0:0:0:0:
414,62,11248,6,0,L|396:160,1,93.9400028668214,4|0,0:3|0:0,0:0:0:0:
431,60,11685,6,0,B|406:200|406:200|390:225|390:225|372:323,1,263.520006433594,14|0,0:0|0:0,0:0:0:0:
242,212,12123,6,0,B|254:272|254:272|269:292|269:292|280:354,1,146.399995532227,12|0,0:0|0:0,0:0:0:0:
140,126,12561,6,0,P|153:83|164:71,1,45.7500017452241,8|0,0:1|0:0,0:0:0:0:
228,120,12780,2,0,P|267:98|283:98,1,45.7500017452241,8|0,0:1|0:0,0:0:0:0:
441,225,12999,6,0,P|428:182|411:167,1,57.9499984525681,8|0,0:1|0:0,0:0:0:0:
339,216,13218,2,0,P|299:194|276:197,1,57.9499984525681,8|0,0:1|0:0,0:0:0:0:
91,325,13437,6,0,P|104:282|126:262,1,70.1500013380051,8|0,0:1|0:0,0:0:0:0:
215,303,13656,2,0,P|254:281|284:286,1,70.1500013380051,8|0,0:1|0:0,0:0:0:0:
411,341,13875,5,8,0:1:0:0:
473,295,13985,1,8,0:1:0:0:
470,218,14094,1,8,0:1:0:0:
407,172,14204,1,8,0:1:0:0:
335,197,14313,6,0,P|327:220|330:242,1,32.0249990226746,8|8,0:1|0:1,0:0:0:0:
313,234,14423,2,0,P|323:255|341:269,1,32.0249990226746,8|8,0:1|0:1,0:0:0:0:
324,275,14532,2,0,P|348:276|368:268,1,32.0249990226746,8|8,0:1|0:1,0:0:0:0:
350,288,14642,2,0,P|368:272|376:251,1,32.0249990226746,8|8,0:1|0:1,0:0:0:0:
303,76,15627,6,0,P|217:72|182:116,1,122,14|0,0:0|0:0,0:0:0:0:
167,247,15956,1,8,0:1:0:0:
108,192,16065,2,0,P|131:172|175:167,1,61,8|0,0:0|0:0,0:0:0:0:
304,256,16284,6,0,B|355:238|355:238|380:236|380:236|430:219,1,122,10|8,0:1|0:0,0:0:0:0:
288,264,16613,2,0,P|248:216|280:168,1,122,8|8,0:1|0:1,0:0:0:0:
370,45,16941,2,0,P|402:84|437:89,1,61,8|0,0:0|0:0,0:0:0:0:
435,230,17160,2,0,P|467:191|502:186,1,61,8|0,0:1|0:0,0:0:0:0:
265,69,17379,6,0,P|198:63|169:118,1,122,10|0,0:0|0:0,0:0:0:0:
121,225,17707,1,8,0:1:0:0:
35,139,17817,2,0,L|105:151,1,61,8|0,0:0|0:0,0:0:0:0:
304,217,18036,1,10,0:1:0:0:
304,217,18255,6,0,B|313:188|313:188|296:157,2,61,10|8|0,0:0|0:1|0:0,0:0:0:0:
241,274,18583,1,8,0:1:0:0:
310,354,18693,2,0,P|333:331|372:325,1,61,8|0,0:0|0:0,0:0:0:0:
460,153,18912,5,10,0:1:0:0:
460,153,19021,1,2,0:0:0:0:
460,153,19131,2,0,B|472:213|472:213|466:239|466:239|473:288,1,122,10|0,0:0|0:0,0:0:0:0:
437,131,19459,1,8,0:1:0:0:
461,51,19569,2,0,P|484:30|514:26,1,61,8|0,0:0|0:0,0:0:0:0:
333,107,19788,6,0,L|194:84,1,122,10|8,0:1|0:0,0:0:0:0:
126,71,20116,1,8,0:1:0:0:
191,262,20335,1,8,0:1:0:0:
114,213,20445,2,0,P|157:177|188:176,1,61,8|0,0:0|0:0,0:0:0:0:
283,219,20664,2,0,P|326:255|357:256,1,61,8|0,0:1|0:0,0:0:0:0:
279,202,20883,1,8,0:0:0:0:
279,202,21102,6,0,B|282:152|282:152|300:122|300:122|301:77,1,122,14|8,0:1|0:0,0:0:0:0:
297,63,21430,2,0,B|233:26|233:26|170:63,1,146.399995532227,10|8,0:1|0:0,0:0:0:0:
56,131,21758,5,10,0:1:0:0:
107,133,21868,1,10,0:1:0:0:
128,179,21977,2,0,L|109:261,1,73.1999977661134,10|0,0:1|0:0,0:0:0:0:
236,367,22196,5,10,0:0:0:0:
316,377,22306,1,8,0:0:0:0:
355,307,22415,2,0,L|332:218,1,73.1999977661134,8|8,0:0|0:0,0:0:0:0:
311,103,22634,6,0,P|352:50|438:121,2,183.000006980896,12|10|10,0:0|0:0|0:0,0:0:0:0:
216,229,23729,1,2,0:0:0:0:
91,131,23948,1,8,0:0:0:0:
145,0,24167,1,0,0:0:0:0:
234,241,24386,6,0,P|226:307|198:325,1,91.5000034904481,10|2,0:0|0:0,0:0:0:0:
99,317,24824,1,10,0:0:0:0:
269,148,25043,6,0,B|314:154|339:197|320:227|351:265|392:267,1,183.000006980896,2|2,0:0|0:0,0:0:0:0:
512,156,25700,1,10,0:0:0:0:
414,22,25919,1,2,0:0:0:0:
250,188,26138,6,0,L|146:174,1,91.5000034904481,8|2,0:0|0:0,0:0:0:0:
11,151,26576,1,10,0:0:0:0:
199,52,26795,1,2,0:0:0:0:
274,199,27014,2,0,P|263:256|225:277,1,91.5000034904481,8|0,0:0|0:0,0:0:0:0:
120,277,27452,1,10,0:0:0:0:
313,366,27671,5,2,0:0:0:0:
313,366,27780,1,2,0:0:0:0:
313,366,27890,2,0,P|383:361|461:260,1,183.000006980896,10|8,0:0|0:0,0:0:0:0:
390,142,28547,1,2,0:0:0:0:
467,30,28766,1,10,0:0:0:0:
380,163,28985,5,8,0:3:0:0:
380,163,29094,1,8,0:3:0:0:
186,83,29313,1,4,0:3:0:0:
186,83,29423,1,4,0:3:0:0:
30,151,29642,6,0,P|123:120|193:108,1,155.550002966881,12|0,0:0|0:0,0:0:0:0:
284,95,30080,2,0,P|301:172|276:188,1,103.700001977921,10|0,0:1|0:0,0:0:0:0:
188,266,30518,2,0,L|53:249,1,103.700001977921,10|0,0:0|0:0,0:0:0:0:
216,288,30846,1,8,0:1:0:0:
216,288,30956,2,0,L|325:265,1,103.700001977921,8|8,0:0|0:1,0:0:0:0:
479,243,31394,5,10,0:0:0:0:
359,162,31612,1,2,0:0:0:0:
419,35,31831,2,0,P|489:27|519:59,1,103.700001977921,10|2,0:1|0:0,0:0:0:0:
257,164,32269,2,0,P|187:172|157:140,1,103.700001977921,8|2,0:0|0:0,0:0:0:0:
285,168,32598,1,8,0:1:0:0:
285,168,32707,2,0,B|307:215|307:215|281:260,1,103.700001977921,10|10,0:0|0:1,0:0:0:0:
43,168,33145,6,0,B|80:165|98:127|88:106|104:65|151:57,1,155.550002966881,14|8,0:0|0:1,0:0:0:0:
222,94,33583,1,8,0:1:0:0:
455,242,33802,6,0,B|418:239|400:201|410:180|394:139|347:131,1,155.550002966881,14|8,0:0|0:3,0:0:0:0:
276,168,34240,1,4,0:3:0:0:
117,347,34459,6,0,B|154:344|172:306|162:285|178:244|224:237,1,156.16,10|2,0:0|0:0,0:0:0:0:
110,126,35773,5,8,0:1:0:0:
174,81,35883,1,8,0:1:0:0:
247,105,35992,1,8,0:1:0:0:
280,175,36102,1,8,0:1:0:0:
269,251,36211,1,8,0:1:0:0:
324,306,36321,1,8,0:1:0:0:
401,309,36430,1,8,0:1:0:0:
458,256,36540,1,8,0:1:0:0:
443,178,36649,6,0,B|448:125|448:125|460:105|460:105|466:59,1,122,14|0,0:0|0:0,0:0:0:0:
327,15,36977,1,8,0:1:0:0:
321,101,37087,2,0,L|309:25,1,61,10|0,0:0|0:0,0:0:0:0:
508,1,37306,2,0,L|498:61,1,61,8|0,0:1|0:0,0:0:0:0:
401,311,37525,6,0,L|390:250,1,61,10|0,0:0|0:0,0:0:0:0:
243,205,37744,2,0,L|252:265,1,61,10|8,0:0|0:0,0:0:0:0:
111,298,37963,1,10,0:0:0:0:
111,298,38182,6,0,P|98:262|111:227,1,61,10|0,0:1|0:0,0:0:0:0:
183,84,38401,2,0,B|238:111|238:111|309:80,1,122,8|10,0:0|0:0,0:0:0:0:
424,102,38729,1,8,0:0:0:0:
424,102,38839,2,0,P|427:77|403:43,1,61,8|0,0:0|0:0,0:0:0:0:
320,233,39058,6,0,P|378:196|452:190,1,122,10|8,0:1|0:0,0:0:0:0:
301,259,39386,1,0,0:0:0:0:
301,259,39496,2,0,L|221:246,1,61,2|0,0:0|0:0,0:0:0:0:
124,235,39715,1,8,0:1:0:0:
124,235,39934,6,0,P|108:268|118:304,1,61,0|0,0:0|0:0,0:0:0:0:
205,192,40153,2,0,P|221:159|211:123,1,61,10|0,0:0|0:0,0:0:0:0:
104,75,40372,1,2,0:0:0:0:
104,75,40481,1,8,0:1:0:0:
104,75,40591,2,0,L|246:48,1,122,8|10,0:0|0:1,0:0:0:0:
404,193,41029,6,0,P|392:161|367:145,1,61,10|0,0:0|0:0,0:0:0:0:
304,281,41248,2,0,P|337:286|364:272,1,61,10|8,0:0|0:0,0:0:0:0:
279,155,41467,2,0,P|257:181|255:211,1,61,10|0,0:0|0:0,0:0:0:0:
442,349,41685,6,0,P|478:327|511:320,1,61,10|0,0:1|0:0,0:0:0:0:
370,146,41904,1,8,0:0:0:0:
301,281,42123,1,8,0:3:0:0:
370,146,42342,5,8,0:3:0:0:
295,118,42452,1,8,0:3:0:0:
231,164,42561,1,8,0:3:0:0:
232,243,42671,1,8,0:3:0:0:
301,281,42780,2,0,L|430:250,1,122,10|10,0:1|0:0,0:0:0:0:
228,148,43218,5,10,0:1:0:0:
182,130,43328,1,8,0:1:0:0:
134,141,43437,2,0,B|93:170|81:215|103:232|85:273|40:294,1,183,14|0,0:0|0:0,0:0:0:0:
25,296,43875,2,0,P|2:276|2:237,1,61,2|0,0:1|0:0,0:0:0:0:
177,274,44094,5,8,0:0:0:0:
206,283,44204,1,8,0:0:0:0:
227,304,44313,1,8,0:0:0:0:
244,328,44423,1,8,0:0:0:0:
270,342,44532,2,0,L|341:326,1,61,10|0,0:1|0:0,0:0:0:0:
426,267,44751,2,0,L|355:251,1,61,10|0,0:0|0:0,0:0:0:0:
268,192,44970,2,0,L|339:176,1,61,10|0,0:1|0:0,0:0:0:0:
415,121,45189,6,0,P|424:66|304:54,1,183,14|0,0:0|0:0,0:0:0:0:
324,46,45627,2,0,P|358:34|384:39,1,61,10|0,0:0|0:0,0:0:0:0:
231,127,45846,5,8,0:1:0:0:
201,118,45956,1,8,0:0:0:0:
182,94,46065,1,8,0:0:0:0:
166,67,46175,1,8,0:0:0:0:
137,56,46284,2,0,P|106:67|87:97,1,61,10|0,0:1|0:0,0:0:0:0:
231,127,46503,2,0,P|262:138|281:168,1,61,10|0,0:0|0:0,0:0:0:0:
140,212,46722,2,0,P|111:221|92:244,1,61,10|8,0:1|0:1,0:0:0:0:
369,133,46941,6,0,B|419:145|439:191|409:209|434:260|477:269,1,183,14|0,0:0|0:0,0:0:0:0:
487,280,47379,2,0,P|441:305|433:328,1,61,8|0,0:1|0:0,0:0:0:0:
313,354,47598,5,8,0:0:0:0:
234,346,47707,1,8,0:0:0:0:
205,271,47817,1,8,0:0:0:0:
249,205,47926,1,8,0:0:0:0:
327,218,48036,1,8,0:0:0:0:
361,289,48145,1,8,0:0:0:0:
296,335,48255,1,8,0:0:0:0:
234,285,48364,1,8,0:0:0:0:
273,215,48474,5,10,0:1:0:0:
273,136,48583,1,8,0:1:0:0:
204,95,48693,1,8,0:1:0:0:
131,126,48802,1,8,0:1:0:0:
113,203,48912,6,0,L|134:274,2,61,8|6|0,0:1|0:3|0:0,0:0:0:0:
204,95,49240,5,8,0:1:0:0:
204,95,49350,2,0,L|216:36,1,61,6|0,0:3|0:0,0:0:0:0:
294,190,49569,5,8,0:1:0:0:
294,190,49678,2,0,L|306:250,1,61,6|0,0:3|0:0,0:0:0:0:
376,84,49897,5,8,0:1:0:0:
376,84,50007,2,0,L|388:25,1,61,6|0,0:3|0:0,0:0:0:0:
480,171,50226,6,0,L|500:256,2,81.3333333333333,8|8|8,0:3|0:3|0:3,0:0:0:0:
376,84,50664,6,0,B|312:79|273:137|305:178|265:233|195:234,1,244,14|2,0:0|0:0,0:0:0:0:
184,236,51977,6,0,P|163:218|158:186,1,45.7500017452241,2|0,0:3|0:0,0:0:0:0:
178,110,52196,1,14,0:0:0:0:
256,192,52306,12,0,54058,0:0:0:0:
214,128,54167,5,8,0:0:0:0:
214,128,54386,1,8,0:0:0:0:
214,128,54605,1,8,0:0:0:0:
214,128,55919,6,0,B|288:145|288:145|343:183|343:183|428:198,1,226.919990997437,14|0,0:0|0:0,0:0:0:0:
244,228,56357,2,0,P|221:265|227:300,1,75.6399969991456,8|0,0:1|0:0,0:0:0:0:
446,189,56576,2,0,P|448:151|426:121,1,75.6399969991456,2|0,0:0|0:0,0:0:0:0:
227,22,56795,6,0,P|284:58|364:12,1,151.279993998291,10|0,0:0|0:0,0:0:0:0:
214,128,57123,2,0,B|141:155|141:155|44:124,1,151.279993998291,2|0,0:0|0:0,0:0:0:0:
100,38,57452,2,0,P|116:70|102:109,1,75.6399969991455,2|0,0:0|0:0,0:0:0:0:
31,303,57671,6,0,P|106:245|183:258,1,151.279993998291,10|0,0:0|0:0,0:0:0:0:
345,166,58109,2,0,L|328:250,1,75.6399969991455,8|0,0:1|0:0,0:0:0:0:
294,314,58328,2,0,L|309:239,1,75.6399969991455,0|0,0:0|0:0,0:0:0:0:
296,83,58547,6,0,P|328:65|366:66,1,75.6399969991455,10|0,0:0|0:0,0:0:0:0:
470,198,58766,2,0,P|438:179|420:145,1,75.6399969991455,2|0,0:0|0:0,0:0:0:0:
482,0,58985,2,0,P|481:36|461:69,1,75.6399969991455,10|0,0:1|0:0,0:0:0:0:
202,133,59204,2,0,P|162:144|135:170,1,75.6399969991455,2|0,0:0|0:0,0:0:0:0:
116,290,59423,6,0,P|89:208|155:128,1,151.279993998291,8|2,0:0|0:0,0:0:0:0:
419,78,59861,2,0,L|302:59,1,75.6399969991455,10|0,0:1|0:0,0:0:0:0:
229,176,60080,1,2,0:0:0:0:
173,105,60189,6,0,L|323:81,1,151.279993998291,2|0,0:0|0:0,0:0:0:0:
466,7,60518,2,0,P|486:37|533:49,1,75.6399969991456,2|0,0:0|0:0,0:0:0:0:
347,242,60737,2,0,P|370:211|410:201,1,75.6399969991456,10|0,0:1|0:0,0:0:0:0:
512,358,60956,2,0,P|475:338|436:330,1,75.6399969991456,2|0,0:0|0:0,0:0:0:0:
199,149,61175,6,0,B|176:163|167:190|167:190|186:300,1,151.279993998291,8|0,0:0|0:0,0:0:0:0:
218,132,61503,5,0,0:0:0:0:
218,132,61612,2,0,P|191:78|158:67,1,75.6399969991455,10|0,0:1|0:0,0:0:0:0:
103,47,61831,2,0,P|138:34|174:44,1,75.6399969991455,8|0,0:1|0:0,0:0:0:0:
307,182,62050,6,0,P|340:131|333:97,1,75.6399969991455,10|0,0:0|0:0,0:0:0:0:
323,40,62269,2,0,P|351:63|361:99,1,75.6399969991455,8|0,0:0|0:0,0:0:0:0:
239,329,62488,5,10,0:0:0:0:
223,254,62598,1,8,0:0:0:0:
152,227,62707,1,8,0:0:0:0:
82,257,62817,1,8,0:0:0:0:
67,338,62926,6,0,B|123:327|147:268|122:240|139:181|204:168,1,226.919990997437,14|2,0:0|0:0,0:0:0:0:
47,331,63364,2,0,P|82:284|85:252,1,75.6399969991456,8|0,0:3|0:0,0:0:0:0:
106,48,63583,2,0,L|132:145,1,75.6399969991456,10|0,0:1|0:0,0:0:0:0:
189,348,63802,1,10,0:0:0:0:
409,133,64021,6,0,L|389:59,1,75.6399969991456,8|0,0:1|0:0,0:0:0:0:
346,0,64240,2,0,L|365:73,1,75.6399969991456,8|0,0:1|0:0,0:0:0:0:
477,181,64459,5,8,0:2:0:0:
481,264,64569,1,8,0:2:0:0:
406,301,64678,2,0,B|359:296|339:264|356:236|334:203|289:196,1,151.279993998291,14|0,0:0|0:0,0:0:0:0:
227,232,65007,1,10,0:1:0:0:
310,169,65116,2,0,P|256:141|248:116,1,75.6399969991456,8|0,0:0|0:0,0:0:0:0:
200,384,65335,2,0,L|216:283,1,75.6399969991456,14|0,0:1|0:0,0:0:0:0:
227,232,65554,1,10,0:0:0:0:
54,92,65773,6,0,P|46:154|69:178,1,75.6399969991456,8|0,0:1|0:0,0:0:0:0:
115,207,65992,2,0,P|77:205|49:181,1,75.6399969991456,12|0,0:1|0:0,0:0:0:0:
108,33,66211,5,8,0:1:0:0:
183,35,66321,1,8,0:1:0:0:
225,97,66430,2,0,B|252:117|279:114|279:114|449:50,1,226.919990997437,14|0,0:0|0:0,0:0:0:0:
437,54,66868,2,0,P|478:84|482:124,1,75.6399969991456,8|0,0:2|0:0,0:0:0:0:
447,178,67087,1,2,0:0:0:0:
302,248,67306,6,0,P|403:211|491:204,1,151.279993998291,10|0,0:0|0:0,0:0:0:0:
350,315,67634,1,0,0:0:0:0:
279,256,67744,2,0,B|237:191|237:191|274:116,1,151.279993998291,10|0,0:1|0:0,0:0:0:0:
80,65,68182,6,0,P|137:80|153:116,1,75.6399969991456,14|0,0:0|0:0,0:0:0:0:
255,71,68401,2,0,P|270:127|247:159,1,75.6399969991456,10|2,0:3|0:0,0:0:0:0:
330,228,68620,2,0,P|288:269|249:265,1,75.6399969991456,8|0,0:1|0:0,0:0:0:0:
5,204,68839,2,0,P|34:159|39:122,1,75.6399969991456,10|0,0:0|0:0,0:0:0:0:
136,202,69058,6,0,B|117:185|93:182|93:182|-8:230,1,151.279993998291,8|8,0:3|0:0,0:0:0:0:
164,215,69386,1,8,0:0:0:0:
230,175,69496,2,0,B|242:137|242:137|225:91,1,75.6399969991456,10|8,0:3|0:3,0:0:0:0:
287,230,69715,1,8,0:3:0:0:
358,205,69824,1,8,0:3:0:0:
417,321,69934,6,0,B|435:286|435:286|423:251,1,75.6399969991456,14|0,0:1|0:0,0:0:0:0:
379,113,70153,2,0,B|361:148|361:148|373:183,1,75.6399969991456,8|0,0:0|0:0,0:0:0:0:
202,352,70372,6,0,P|251:320|276:316,1,75.6399969991456,8|0,0:1|0:0,0:0:0:0:
232,80,70591,1,10,0:0:0:0:
232,80,70700,1,8,0:0:0:0:
231,80,70810,6,0,P|214:113|216:150,1,75.6399969991456,10|0,0:1|0:0,0:0:0:0:
348,335,71029,2,0,P|350:297|333:264,1,75.6399969991456,8|2,0:0|0:0,0:0:0:0:
501,32,71248,6,0,B|493:42|480:45|480:45|429:36,1,75.6399969991456,8|0,0:1|0:0,0:0:0:0:
306,132,71467,2,0,L|380:116,1,75.6399969991456,10|0,0:0|0:0,0:0:0:0:
487,381,71685,6,0,B|432:373|432:373|391:341|391:341|339:333,1,151.279993998291,10|8,0:1|0:0,0:0:0:0:
500,371,72123,2,0,P|517:324|504:283,1,75.6399969991456,8|0,0:1|0:0,0:0:0:0:
397,196,72342,2,0,P|380:149|393:108,1,75.6399969991456,10|0,0:0|0:0,0:0:0:0:
274,378,72561,2,0,P|257:331|270:290,1,75.6399969991456,10|0,0:1|0:0,0:0:0:0:
388,208,72780,2,0,P|355:246|313:255,1,75.6399969991456,8|0,0:0|0:0,0:0:0:0:
136,124,72999,2,0,B|176:129|202:166|188:184|215:212|255:212,1,151.279993998291,10|8,0:1|0:0,0:0:0:0:
263,208,73328,1,2,0:0:0:0:
123,113,73437,6,0,P|161:88|178:49,1,75.6399969991456,10|0,0:1|0:0,0:0:0:0:
442,104,73656,1,10,0:0:0:0:
472,112,73766,1,2,0:0:0:0:
499,100,73875,2,0,P|508:55|492:15,1,75.6399969991456,10|0,0:1|0:0,0:0:0:0:
337,29,74094,2,0,P|327:73|343:113,1,75.6399969991456,10|0,0:0|0:0,0:0:0:0:
440,248,74313,6,0,L|367:268,1,75.6399969991456,10|0,0:1|0:0,0:0:0:0:
269,353,74532,2,0,L|288:279,1,75.6399969991456,10|0,0:0|0:0,0:0:0:0:
258,146,74751,2,0,L|311:199,1,75.6399969991456,10|0,0:1|0:0,0:0:0:0:
358,358,74970,1,10,0:0:0:0:
31,271,75189,6,0,B|41:283|52:289|52:289|114:275,1,75.6399969991456,8|0,0:1|0:0,0:0:0:0:
183,251,75408,1,10,0:0:0:0:
455,258,75627,6,0,P|438:234|371:225,1,75.6399969991456,8|0,0:1|0:0,0:0:0:0:
269,353,75846,2,0,P|292:324|328:313,1,75.6399969991456,8|0,0:1|0:0,0:0:0:0:
497,162,76065,1,10,0:0:0:0:
258,44,76284,1,8,0:3:0:0:
64,179,76503,5,10,0:3:0:0:
38,250,76612,1,8,0:3:0:0:
78,313,76722,1,8,0:3:0:0:
153,322,76831,1,8,0:3:0:0:
210,273,76941,6,0,B|199:222|199:222|207:192|207:192|192:126,1,151.279993998291,14|0,0:0|0:0,0:0:0:0:
230,281,77269,2,0,P|273:304|327:223,1,151.279993998291,10|0,0:1|0:0,0:0:0:0:
378,55,77598,2,0,P|362:95|359:143,1,75.6399969991456,10|0,0:1|0:0,0:0:0:0:
411,215,77817,1,10,0:0:0:0:
148,119,78036,6,0,P|188:126|223:108,1,75.6399969991456,8|0,0:1|0:0,0:0:0:0:
247,24,78255,2,0,P|242:60|217:88,1,75.6399969991456,12|0,0:1|0:0,0:0:0:0:
99,184,78474,1,10,0:1:0:0:
128,254,78583,1,10,0:1:0:0:
203,259,78693,6,0,L|355:206,1,151.279993998291,14|0,0:0|0:0,0:0:0:0:
457,158,79021,1,10,0:1:0:0:
366,200,79131,2,0,P|412:224|418:259,1,75.6399969991456,8|0,0:0|0:0,0:0:0:0:
496,363,79350,2,0,P|502:316|511:283,1,75.6399969991456,10|0,0:1|0:0,0:0:0:0:
457,158,79569,1,10,0:0:0:0:
120,245,79788,6,0,B|112:207|112:207|121:171,1,75.6399969991456,8|0,0:1|0:0,0:0:0:0:
151,93,80007,2,0,B|159:131|159:131|149:166,1,75.6399969991456,12|0,0:1|0:0,0:0:0:0:
244,374,80226,2,0,P|298:348|306:321,1,75.6399969991456,10|8,0:1|0:1,0:0:0:0:
365,105,80445,6,0,B|303:104|277:167|304:200|261:250|204:244,1,226.919990997437,14|0,0:0|0:0,0:0:0:0:
376,91,80883,2,0,P|329:73|317:51,1,75.6399969991456,8|0,0:1|0:0,0:0:0:0:
213,86,81102,2,0,P|192:40|199:15,1,75.6399969991456,8|0,0:0|0:0,0:0:0:0:
43,116,81321,6,0,B|105:115|139:170|113:197|146:248|209:244,1,226.919990997437,10|2,0:0|0:0,0:0:0:0:
353,297,81758,1,8,0:1:0:0:
353,297,81977,2,0,P|299:304|273:326,1,75.6399969991456,2|0,0:0|0:0,0:0:0:0:
159,76,82196,6,0,B|161:102|181:117|181:117|382:136,1,226.919990997437,8|0,0:0|0:0,0:0:0:0:
484,40,82634,2,0,P|497:83|481:116,1,75.6399969991456,10|0,0:1|0:0,0:0:0:0:
362,204,82853,2,0,P|349:161|365:128,1,75.6399969991456,2|0,0:0|0:0,0:0:0:0:
504,42,83072,2,0,P|499:120|436:167,1,151.279993998291,8|0,0:0|0:0,0:0:0:0:
176,50,83510,5,10,0:1:0:0:
100,49,83620,1,8,0:0:0:0:
44,101,83729,1,8,0:0:0:0:
44,176,83839,1,8,0:0:0:0:
98,229,83948,6,0,B|134:225|149:199|141:187|157:157|186:152,2,122,14|0|8,0:0|0:0|0:1,0:0:0:0:
267,53,84605,2,0,B|322:62|336:106|321:129|349:166|405:169,1,183,14|0,0:0|0:0,0:0:0:0:
417,171,85043,2,0,P|441:146|446:115,1,61,8|0,0:1|0:0,0:0:0:0:
291,305,85262,6,0,B|346:296|360:252|345:229|373:192|429:189,1,184.525005631256,14|0,0:0|0:0,0:0:0:0:
417,171,85919,2,0,L|455:166,3,22.3666673492432,8|8|8|8,0:1|0:0|0:0|0:0,0:0:0:0:
257,382,86357,5,10,0:1:0:0:
144,240,86576,1,10,0:1:0:0:
368,144,86795,1,10,0:1:0:0:
256,0,87014,1,14,0:1:0:0:
