osu file format v14

[General]
AudioFilename: audio.mp3
AudioLeadIn: 0
PreviewTime: 54824
Countdown: 0
SampleSet: Soft
StackLeniency: 0.4
Mode: 0
LetterboxInBreaks: 0
WidescreenStoryboard: 1

[Editor]
Bookmarks: 8620,15627,22634,29642,36649,43437,50664,55919,62926,69934,76941,83948
DistanceSpacing: 0.9
BeatDivisor: 8
GridSize: 16
TimelineZoom: 2.799999

[Metadata]
Title:PHOENIX (TV Size)
TitleUnicode:PHOENIX (TV Size)
Artist:BURNOUT SYNDROMES
ArtistUnicode:BURNOUT SYNDROMES
Creator:hypercyte
Version:TO LIGHT INSANE!
Source:HAIKYU!! TO THE TOP
Tags:4 ハイキュー!! haikyuu to the top op opening 2020 fourth season 4th pheonix japanese anime version rock jrock j-rock hypercute 熊谷和海 Kazuumi Kumagai 石川大裕 Taiyu Ishikawa 廣瀬拓哉 Takuya Hirose
BeatmapID:2283347
BeatmapSetID:1092306

[Difficulty]
HPDrainRate:5
CircleSize:4
OverallDifficulty:7
ApproachRate:8.5
SliderMultiplier:1.84
SliderTickRate:1

[Events]
//Background and Video events
0,0,"46106910_p0.jpg",0,0
Video,0,"phoenix.mp4"
//Break Periods
//Storyboard Layer 0 (Background)
//Storyboard Layer 1 (Fail)
//Storyboard Layer 2 (Pass)
//Storyboard Layer 3 (Foreground)
//Storyboard Layer 4 (Overlay)
//Storyboard Sound Samples

[TimingPoints]
1613,437.956204379562,4,2,4,64,1,0
1613,-133.333333333333,4,2,4,64,0,0
9058,-83.3333333333333,4,2,4,64,0,0
9496,-227.272727272727,4,2,4,64,0,0
9879,-227.272727272727,4,2,4,5,0,0
9934,-83.3333333333333,4,2,4,64,0,0
10372,-227.272727272727,4,2,4,64,0,0
10755,-227.272727272727,4,2,4,5,0,0
10810,-83.3333333333333,4,2,4,64,0,0
11248,-227.272727272727,4,2,4,64,0,0
11631,-227.272727272727,4,2,4,5,0,0
11685,-83.3333333333333,4,2,4,64,0,0
12123,-83.3333333333333,4,2,4,64,0,0
12561,-133.333333333333,4,2,4,44,0,0
12999,-105.263157894737,4,2,4,54,0,0
13437,-86.9565217391304,4,2,4,64,0,0
14313,-95.2380952380952,4,2,4,64,0,0
15627,-100,4,2,4,64,0,0
21430,-83.3333333333333,4,2,4,64,0,0
22634,-133.333333333333,4,2,4,44,0,0
29642,-117.647058823529,4,2,4,54,0,0
34459,-156.25,4,2,4,54,0,0
36649,-100,4,2,4,64,0,0
43437,-100,4,2,4,54,0,0
50664,-200,4,2,4,44,0,0
51977,-133.333333333333,4,2,4,44,0,0
54167,-133.333333333333,4,2,4,54,0,0
55919,-80.6451612903226,4,2,4,74,0,1
69824,-80.6451612903226,4,2,4,74,0,0
69934,-80.6451612903226,4,2,4,84,0,1
76941,-80.6451612903226,4,2,4,74,0,1
83948,-100,4,2,4,54,0,0
85262,-181.818181818182,4,2,4,64,0,0

[Colours]
Combo1 : 188,194,241
Combo2 : 247,162,104

[HitObjects]
256,384,1613,5,12,0:0:0:0:
256,192,4240,12,0,8620,0:0:0:0:
178,143,9058,6,0,L|342:109,1,165.599994946289,14|0,0:0|0:0,0:0:0:0:
460,217,9496,6,0,P|478:183|466:145,1,70.8400021618653,4|0,0:3|0:0,0:0:0:0:
462,140,9934,2,0,P|394:177|396:261,1,165.599994946289,14|0,0:0|0:0,0:0:0:0:
338,356,10372,6,0,L|260:345,1,70.8400021618653,4|0,0:3|0:0,0:0:0:0:
245,334,10810,2,0,B|174:345|174:345|160:355|160:355|78:366,1,165.599994946289,14|0,0:0|0:0,0:0:0:0:
15,314,11248,6,0,P|6:270|22:245,1,70.8400021618653,4|0,0:3|0:0,0:0:0:0:
39,239,11685,2,0,P|65:184|21:97,1,165.599994946289,14|0,0:0|0:0,0:0:0:0:
78,29,12123,6,0,B|148:43|148:43|167:54|167:54|244:69,1,165.599994946289,12|0,0:0|0:0,0:0:0:0:
341,162,12561,5,8,0:1:0:0:
421,129,12780,1,8,0:1:0:0:
222,217,12999,5,8,0:1:0:0:
122,175,13218,1,8,0:1:0:0:
299,328,13437,5,8,0:1:0:0:
427,278,13656,1,8,0:1:0:0:
267,343,13875,5,8,0:1:0:0:
235,337,13985,1,8,0:1:0:0:
213,314,14094,1,8,0:1:0:0:
213,282,14204,1,8,0:1:0:0:
228,257,14313,2,0,P|241:227|241:221,6,24.1499992630005,8|8|8|8|8|8|8,0:1|0:1|0:1|0:1|0:1|0:1|0:1,0:0:0:0:
133,98,15627,6,0,L|250:112,1,92,14|0,0:0|0:0,0:0:0:0:
270,115,15956,1,8,0:1:0:0:
270,115,16065,1,8,0:0:0:0:
443,87,16284,2,0,P|460:139|440:176,1,92,10|8,0:1|0:0,0:0:0:0:
406,194,16613,1,8,0:1:0:0:
268,261,16831,1,8,0:1:0:0:
268,261,16941,2,0,L|136:246,1,92,8|8,0:0|0:1,0:0:0:0:
35,251,17379,6,0,P|16:305|56:343,1,92,10|0,0:0|0:0,0:0:0:0:
68,347,17707,1,8,0:1:0:0:
68,347,17817,1,8,0:0:0:0:
27,156,18036,1,10,0:1:0:0:
102,84,18255,5,10,0:0:0:0:
102,84,18364,2,0,P|153:93|178:140,1,92,8|8,0:1|0:1,0:0:0:0:
183,159,18693,2,0,L|285:142,1,92,8|8,0:0|0:1,0:0:0:0:
455,88,19131,6,0,P|402:117|397:166,1,92,10|0,0:0|0:0,0:0:0:0:
412,186,19459,1,8,0:1:0:0:
412,186,19569,1,8,0:0:0:0:
486,338,19788,2,0,L|354:310,1,92,10|8,0:1|0:0,0:0:0:0:
363,286,20116,2,0,L|231:314,1,92,8|8,0:1|0:1,0:0:0:0:
228,318,20445,1,8,0:0:0:0:
111,219,20664,1,8,0:1:0:0:
189,114,20883,1,8,0:0:0:0:
386,156,21102,6,0,B|404:111|404:111|379:67,1,92,14|8,0:1|0:0,0:0:0:0:
281,179,21430,2,0,P|352:157|381:179,1,110.399996630859,10|8,0:1|0:0,0:0:0:0:
391,266,21758,1,10,0:1:0:0:
391,266,21868,1,10,0:1:0:0:
391,266,21977,1,10,0:1:0:0:
274,328,22196,5,10,0:0:0:0:
242,317,22306,1,8,0:0:0:0:
224,288,22415,1,8,0:0:0:0:
200,264,22525,1,8,0:0:0:0:
166,260,22634,6,0,P|121:278|24:284,2,138.000005264282,12|10|10,0:0|0:0|0:0,0:0:0:0:
371,165,23948,2,0,P|388:204|380:240,1,69.0000026321412,8|0,0:0|0:0,0:0:0:0:
226,122,24386,6,0,P|307:101|352:56,2,138.000005264282,10|10|8,0:0|0:0|0:0,0:0:0:0:
65,81,25700,1,10,0:0:0:0:
65,81,25919,1,2,0:0:0:0:
24,266,26138,6,0,P|64:234|155:218,1,138.000005264282,8|10,0:0|0:0,0:0:0:0:
222,305,26795,1,2,0:0:0:0:
222,305,27014,2,0,P|261:321|295:326,1,69.0000026321412,8|0,0:0|0:0,0:0:0:0:
375,281,27452,1,10,0:0:0:0:
481,367,27671,5,2,0:0:0:0:
481,367,27780,1,2,0:0:0:0:
481,367,27890,2,0,P|464:295|460:205,1,138.000005264282,10|8,0:0|0:0,0:0:0:0:
494,118,28547,1,2,0:0:0:0:
376,37,28766,1,10,0:0:0:0:
274,108,28985,1,8,0:3:0:0:
274,108,29094,2,0,L|190:100,1,69.0000026321412,8|4,0:3|0:3,0:0:0:0:
167,96,29423,1,4,0:3:0:0:
45,250,29642,6,0,P|83:205|185:212,1,156.400002983093,12|10,0:0|0:1,0:0:0:0:
299,347,30518,2,0,P|364:343|382:324,1,78.2000014915467,10|0,0:0|0:0,0:0:0:0:
401,258,30846,1,8,0:1:0:0:
401,258,30956,2,0,P|450:229|492:244,1,78.2000014915467,8|8,0:0|0:1,0:0:0:0:
301,101,31394,6,0,P|305:159|298:186,1,78.2000014915467,10|2,0:0|0:0,0:0:0:0:
170,254,31831,1,10,0:1:0:0:
63,213,32050,1,2,0:0:0:0:
6,362,32269,2,0,P|59:319|90:316,1,78.2000014915467,8|2,0:0|0:0,0:0:0:0:
153,349,32598,1,8,0:1:0:0:
153,349,32707,2,0,L|248:353,1,78.2000014915467,10|10,0:0|0:1,0:0:0:0:
390,318,33145,6,0,P|414:258|388:207,1,117.30000223732,14|8,0:0|0:1,0:0:0:0:
352,193,33583,1,8,0:1:0:0:
181,165,33802,2,0,P|234:149|292:109,2,117.30000223732,14|8|10,0:0|0:3|0:0,0:0:0:0:
77,150,34897,5,2,0:0:0:0:
296,96,35773,5,8,0:1:0:0:
325,110,35883,1,8,0:1:0:0:
339,138,35992,1,8,0:1:0:0:
333,170,36102,1,8,0:1:0:0:
312,194,36211,1,8,0:1:0:0:
281,204,36321,1,8,0:1:0:0:
251,190,36430,1,8,0:1:0:0:
239,159,36540,1,8,0:1:0:0:
208,130,36649,6,0,P|162:136|130:188,1,92,14|0,0:0|0:0,0:0:0:0:
67,237,36977,1,8,0:1:0:0:
67,237,37087,2,0,P|109:281|105:322,1,92,10|8,0:0|0:1,0:0:0:0:
229,342,37525,1,10,0:0:0:0:
315,252,37744,1,10,0:0:0:0:
436,306,37963,1,10,0:0:0:0:
512,203,38182,6,0,P|515:158|471:121,1,92,10|8,0:1|0:0,0:0:0:0:
348,48,38620,2,0,L|252:81,1,92,10|8,0:0|0:0,0:0:0:0:
87,177,39058,2,0,P|70:132|94:89,1,92,10|8,0:1|0:0,0:0:0:0:
170,62,39386,1,0,0:0:0:0:
170,62,39496,2,0,L|273:79,1,92,2|8,0:0|0:1,0:0:0:0:
361,284,39934,1,0,0:0:0:0:
456,209,40153,5,10,0:0:0:0:
335,308,40372,2,0,L|224:288,1,92,2|8,0:0|0:0,0:0:0:0:
86,211,40810,1,10,0:1:0:0:
0,268,41029,1,10,0:0:0:0:
108,197,41248,1,10,0:0:0:0:
20,74,41467,1,10,0:0:0:0:
109,24,41685,6,0,P|164:44|175:85,2,92,10|8|8,0:1|0:0|0:3,0:0:0:0:
260,148,42342,1,8,0:3:0:0:
296,140,42452,1,8,0:3:0:0:
321,113,42561,1,8,0:3:0:0:
345,85,42671,1,8,0:3:0:0:
380,75,42780,2,0,L|480:91,2,92,10|10|10,0:1|0:0|0:1,0:0:0:0:
229,152,43437,6,0,P|216:217|327:251,1,184,14|2,0:0|0:1,0:0:0:0:
201,114,44094,5,8,0:0:0:0:
164,119,44204,1,8,0:0:0:0:
139,146,44313,1,8,0:0:0:0:
129,181,44423,1,8,0:0:0:0:
146,213,44532,1,10,0:1:0:0:
252,284,44751,1,10,0:0:0:0:
357,205,44970,1,10,0:1:0:0:
488,280,45189,6,0,P|484:341|372:364,1,184,14|10,0:0|0:0,0:0:0:0:
392,201,45846,5,8,0:1:0:0:
400,165,45956,1,8,0:0:0:0:
386,131,46065,1,8,0:0:0:0:
354,111,46175,1,8,0:0:0:0:
317,117,46284,1,10,0:1:0:0:
211,211,46503,1,10,0:0:0:0:
76,156,46722,5,10,0:1:0:0:
76,156,46831,1,8,0:1:0:0:
76,156,46941,2,0,P|68:108|104:61,1,92,14|0,0:0|0:0,0:0:0:0:
315,118,47379,1,8,0:1:0:0:
433,54,47598,1,8,0:0:0:0:
433,54,47707,2,0,L|413:159,1,92,8|8,0:0|0:0,0:0:0:0:
360,214,48036,2,0,L|377:304,1,92,8|8,0:0|0:1,0:0:0:0:
348,379,48364,1,8,0:1:0:0:
348,379,48474,2,0,P|290:381|251:357,1,92,10|8,0:1|0:1,0:0:0:0:
231,288,48802,5,8,0:1:0:0:
231,288,48912,2,0,L|84:313,1,138,8|8,0:0|0:0,0:0:0:0:
15,310,49350,2,0,P|-2:259|19:224,1,92,2|8,0:3|0:1,0:0:0:0:
83,181,49678,2,0,P|100:139|28:71,1,138,2|2,0:3|0:3,0:0:0:0:
279,90,50226,2,0,L|352:69,2,61.3333333333333,8|8|8,0:3|0:3|0:3,0:0:0:0:
182,117,50664,1,14,0:0:0:0:
182,117,51977,5,2,0:3:0:0:
257,189,52196,1,14,0:0:0:0:
256,192,52306,12,0,53948,0:0:0:0:
183,113,54167,5,8,0:0:0:0:
183,113,54386,1,8,0:0:0:0:
183,113,54605,1,8,0:0:0:0:
183,113,55919,6,0,B|253:121|269:179|251:219|300:262|359:257,1,228.159990948243,14|8,0:0|0:1,0:0:0:0:
389,143,56576,1,2,0:0:0:0:
351,280,56795,2,0,P|406:239|512:270,2,171.119993211182,10|2|2,0:0|0:0|0:0,0:0:0:0:
241,324,57671,1,10,0:0:0:0:
161,218,57890,1,0,0:0:0:0:
242,114,58109,2,0,P|288:110|343:155,1,114.079995474121,8|0,0:1|0:0,0:0:0:0:
144,232,58547,1,10,0:0:0:0:
48,121,58766,1,2,0:0:0:0:
134,18,58985,1,10,0:1:0:0:
148,254,59204,6,0,L|165:379,1,114.079995474121,2|8,0:0|0:0,0:0:0:0:
63,142,59642,1,2,0:0:0:0:
150,101,59861,2,0,P|204:114|233:170,1,114.079995474121,10|0,0:1|0:0,0:0:0:0:
245,178,60189,2,0,P|294:200|356:176,1,114.079995474121,2|0,0:0|0:0,0:0:0:0:
362,168,60518,1,2,0:0:0:0:
397,38,60737,2,0,P|417:90|471:110,1,114.079995474121,10|0,0:1|0:0,0:0:0:0:
510,301,61175,2,0,L|383:283,1,114.079995474121,8|0,0:0|0:0,0:0:0:0:
104,161,61612,5,10,0:1:0:0:
217,121,61831,1,8,0:1:0:0:
411,237,62050,5,10,0:0:0:0:
298,197,62269,1,8,0:0:0:0:
107,293,62488,6,0,L|230:250,1,114.079995474121,10|8,0:0|0:0,0:0:0:0:
409,42,62926,6,0,B|353:62|353:62|289:30,1,114.079995474121,14|0,0:0|0:0,0:0:0:0:
286,26,63255,2,0,P|220:41|217:95,1,114.079995474121,2|0,0:0|0:0,0:0:0:0:
218,91,63583,1,10,0:1:0:0:
394,214,63802,1,10,0:0:0:0:
248,328,64021,1,8,0:1:0:0:
248,328,64240,1,8,0:1:0:0:
120,260,64459,5,8,0:2:0:0:
120,260,64569,1,8,0:2:0:0:
120,260,64678,2,0,P|110:200|147:157,1,114.079995474121,14|0,0:0|0:0,0:0:0:0:
137,269,65007,2,0,P|112:323|56:329,1,114.079995474121,10|0,0:1|0:0,0:0:0:0:
48,333,65335,2,0,P|43:282|12:216,1,114.079995474121,14|10,0:1|0:0,0:0:0:0:
152,47,65773,1,8,0:1:0:0:
313,140,65992,1,12,0:1:0:0:
392,96,66211,5,8,0:1:0:0:
392,96,66321,1,8,0:1:0:0:
392,96,66430,2,0,P|405:40|352:9,1,114.079995474121,14|0,0:0|0:0,0:0:0:0:
363,256,66868,2,0,P|389:211|469:200,1,114.079995474121,8|2,0:2|0:0,0:0:0:0:
186,318,67306,2,0,L|50:300,1,114.079995474121,10|0,0:0|0:0,0:0:0:0:
210,324,67634,1,0,0:0:0:0:
210,324,67744,2,0,P|228:283|191:220,1,114.079995474121,10|0,0:1|0:0,0:0:0:0:
300,58,68182,5,14,0:0:0:0:
195,215,68401,1,10,0:3:0:0:
350,363,68620,1,8,0:1:0:0:
422,255,68839,1,10,0:0:0:0:
334,360,69058,2,0,P|312:311|238:282,1,114.079995474121,8|8,0:3|0:0,0:0:0:0:
52,164,69496,1,10,0:3:0:0:
84,173,69605,1,8,0:3:0:0:
117,163,69715,1,8,0:3:0:0:
141,139,69824,1,8,0:3:0:0:
143,104,69934,5,14,0:1:0:0:
70,18,70153,1,8,0:0:0:0:
300,162,70372,5,8,0:1:0:0:
368,56,70591,1,10,0:0:0:0:
368,56,70700,1,8,0:0:0:0:
368,56,70810,5,10,0:1:0:0:
292,173,71029,1,8,0:0:0:0:
422,336,71248,5,8,0:1:0:0:
496,222,71467,1,10,0:0:0:0:
294,300,71685,6,0,B|250:294|250:294|225:300|225:300|179:297,1,114.079995474121,10|8,0:1|0:0,0:0:0:0:
379,83,72123,2,0,B|335:88|335:88|310:83|310:83|264:86,1,114.079995474121,8|10,0:1|0:0,0:0:0:0:
402,89,72452,5,0,0:0:0:0:
402,89,72561,2,0,P|432:126|412:190,1,114.079995474121,10|8,0:1|0:0,0:0:0:0:
221,240,72999,5,10,0:1:0:0:
89,174,73218,1,8,0:0:0:0:
334,209,73437,6,0,L|459:178,1,114.079995474121,10|10,0:1|0:0,0:0:0:0:
512,105,73766,1,2,0:0:0:0:
512,105,73875,2,0,L|376:85,1,114.079995474121,10|10,0:1|0:0,0:0:0:0:
144,37,74313,5,10,0:1:0:0:
122,164,74532,1,10,0:0:0:0:
244,116,74751,1,10,0:1:0:0:
353,225,74970,1,10,0:0:0:0:
446,21,75189,6,0,P|380:36|368:93,1,114.079995474121,8|10,0:1|0:0,0:0:0:0:
366,308,75627,1,8,0:1:0:0:
145,224,75846,1,8,0:1:0:0:
95,310,76065,2,0,B|149:329|149:329|202:298,1,114.079995474121,10|8,0:0|0:3,0:0:0:0:
272,119,76503,1,10,0:3:0:0:
294,93,76612,1,8,0:3:0:0:
325,80,76722,1,8,0:3:0:0:
359,84,76831,1,8,0:3:0:0:
388,101,76941,6,0,B|404:162|404:162|397:192|397:192|416:281,1,171.119993211182,14|10,0:0|0:1,0:0:0:0:
417,284,77379,1,8,0:0:0:0:
169,165,77598,2,0,B|160:216|160:216|165:235|165:235|155:292,1,114.079995474121,10|10,0:1|0:0,0:0:0:0:
261,51,78036,1,8,0:1:0:0:
261,51,78255,1,12,0:1:0:0:
307,243,78474,5,10,0:1:0:0:
307,243,78583,1,10,0:1:0:0:
307,243,78693,2,0,P|322:179|393:103,1,171.119993211182,14|10,0:0|0:1,0:0:0:0:
392,103,79131,1,8,0:0:0:0:
202,269,79350,2,0,B|252:294|252:294|302:264,1,114.079995474121,10|10,0:1|0:0,0:0:0:0:
505,114,79788,1,8,0:1:0:0:
275,18,80007,1,12,0:1:0:0:
145,90,80226,5,10,0:1:0:0:
145,90,80335,1,8,0:1:0:0:
145,90,80445,2,0,P|118:143|144:210,1,114.079995474121,14|0,0:0|0:0,0:0:0:0:
303,256,80883,2,0,P|330:203|304:136,1,114.079995474121,8|0,0:1|0:0,0:0:0:0:
207,0,81321,2,0,L|36:30,1,171.119993211182,10|2,0:0|0:0,0:0:0:0:
2,38,81758,1,8,0:1:0:0:
142,289,81977,1,2,0:0:0:0:
207,230,82196,6,0,P|220:170|176:133,1,114.079995474121,8|0,0:0|0:0,0:0:0:0:
398,316,82634,1,10,0:1:0:0:
479,170,82853,1,2,0:0:0:0:
406,82,83072,2,0,P|336:90|315:138,1,114.079995474121,8|0,0:0|0:0,0:0:0:0:
187,291,83510,1,10,0:1:0:0:
147,296,83620,1,8,0:0:0:0:
110,280,83729,1,8,0:0:0:0:
99,241,83839,1,8,0:0:0:0:
112,199,83948,6,0,B|165:193|185:138|164:117|184:69|231:57,1,184,14|8,0:0|0:1,0:0:0:0:
407,137,84605,2,0,B|354:131|334:76|355:55|335:7|288:-5,1,184,14|8,0:0|0:1,0:0:0:0:
256,192,85262,12,0,86248,0:0:0:0:
256,384,86357,5,14,0:1:0:0:
320,256,86576,1,14,0:1:0:0:
192,112,86795,1,14,0:1:0:0:
256,0,87014,1,14,0:1:0:0:
