osu file format v14

[General]
AudioFilename: audio.mp3
AudioLeadIn: 0
PreviewTime: 54824
Countdown: 0
SampleSet: Soft
StackLeniency: 0.4
Mode: 0
LetterboxInBreaks: 0
WidescreenStoryboard: 1

[Editor]
Bookmarks: 8620,15627,22634,29642,36649,43437,50664,55919,62926,69934,76941,83948
DistanceSpacing: 1.3
BeatDivisor: 12
GridSize: 16
TimelineZoom: 2.6

[Metadata]
Title:PHOENIX (TV Size)
TitleUnicode:PHOENIX (TV Size)
Artist:BURNOUT SYNDROMES
ArtistUnicode:BURNOUT SYNDROMES
Creator:hypercyte
Version:TO HARD!
Source:HAIKYU!! TO THE TOP
Tags:4 ハイキュー!! haikyuu to the top op opening 2020 fourth season 4th pheonix japanese anime version rock jrock j-rock hypercute 熊谷和海 Kazuumi Kumagai 石川大裕 Taiyu Ishikawa 廣瀬拓哉 Takuya Hirose
BeatmapID:2283345
BeatmapSetID:1092306

[Difficulty]
HPDrainRate:4.5
CircleSize:3.8
OverallDifficulty:5.5
ApproachRate:7.5
SliderMultiplier:1.64
SliderTickRate:1

[Events]
//Background and Video events
0,0,"46106910_p0.jpg",0,0
Video,0,"phoenix.mp4"
//Break Periods
//Storyboard Layer 0 (Background)
//Storyboard Layer 1 (Fail)
//Storyboard Layer 2 (Pass)
//Storyboard Layer 3 (Foreground)
//Storyboard Layer 4 (Overlay)
//Storyboard Sound Samples

[TimingPoints]
1613,437.956204379562,4,2,4,64,1,0
12123,-83.3333333333333,4,2,4,64,0,0
12561,-133.333333333333,4,2,4,44,0,0
12999,-105.263157894737,4,2,4,54,0,0
13437,-86.9565217391304,4,2,4,64,0,0
14313,-95.2380952380952,4,2,4,64,0,0
15627,-100,4,2,4,64,0,0
21430,-83.3333333333333,4,2,4,64,0,0
22634,-133.333333333333,4,2,4,44,0,0
29642,-117.647058823529,4,2,4,54,0,0
34459,-156.25,4,2,4,54,0,0
36649,-100,4,2,4,64,0,0
43437,-100,4,2,4,54,0,0
50664,-200,4,2,4,44,0,0
51977,-133.333333333333,4,2,4,44,0,0
54167,-133.333333333333,4,2,4,54,0,0
55919,-90.9090909090909,4,2,4,74,0,1
69824,-90.9090909090909,4,2,4,74,0,0
69934,-90.9090909090909,4,2,4,84,0,1
76941,-90.9090909090909,4,2,4,74,0,1
83948,-100,4,2,4,54,0,0
85262,-100,4,2,4,64,0,0

[Colours]
Combo1 : 188,194,241
Combo2 : 247,162,104

[HitObjects]
256,384,1613,5,12,0:0:0:0:
256,192,4240,12,0,8620,0:0:0:0:
129,139,9058,6,0,L|273:119,1,123,14|0,0:0|0:0,0:0:0:0:
299,114,9496,1,4,0:3:0:0:
422,267,9934,6,0,B|369:264|369:264|341:274|341:274|277:272,1,123,14|0,0:0|0:0,0:0:0:0:
251,270,10372,1,4,0:3:0:0:
65,334,10810,6,0,P|104:284|86:215,1,123,14|0,0:0|0:0,0:0:0:0:
54,201,11248,1,4,0:3:0:0:
180,42,11685,6,0,P|250:41|293:105,1,123,14|0,0:0|0:0,0:0:0:0:
295,124,12123,6,0,P|351:162|422:118,1,147.599995495606,12|0,0:0|0:0,0:0:0:0:
420,87,12561,5,8,0:1:0:0:
420,87,12780,1,8,0:1:0:0:
504,186,12999,1,8,0:1:0:0:
504,186,13218,1,8,0:1:0:0:
433,271,13437,2,0,L|319:258,1,94.3000017986298,8|8,0:1|0:1,0:0:0:0:
252,256,13875,5,8,0:1:0:0:
252,256,13985,1,8,0:1:0:0:
252,256,14094,2,0,P|245:298|250:314,5,47.1500008993149,8|8|8|8|8|8,0:1|0:1|0:1|0:1|0:1|0:1,0:0:0:0:
390,158,15627,6,0,P|390:100|309:68,1,123,14|8,0:0|0:1,0:0:0:0:
291,67,16065,1,8,0:0:0:0:
212,126,16284,2,0,L|79:108,2,123,10|8|8,0:1|0:1|0:0,0:0:0:0:
271,204,17160,1,8,0:1:0:0:
210,281,17379,6,0,P|157:247|91:253,1,123,10|8,0:0|0:1,0:0:0:0:
63,283,17817,1,8,0:0:0:0:
2,210,18036,1,10,0:1:0:0:
53,125,18255,1,10,0:0:0:0:
53,125,18364,2,0,L|193:134,1,123,8|8,0:1|0:0,0:0:0:0:
270,160,18912,1,8,0:1:0:0:
359,119,19131,6,0,P|370:168|330:236,1,123,10|8,0:0|0:1,0:0:0:0:
291,247,19569,1,8,0:0:0:0:
208,300,19788,2,0,L|72:292,2,123,10|8|8,0:1|0:1|0:0,0:0:0:0:
291,247,20664,1,8,0:1:0:0:
291,247,20883,1,8,0:0:0:0:
374,298,21102,6,0,P|437:298|455:282,1,82,14|8,0:1|0:0,0:0:0:0:
474,245,21430,2,0,P|456:167|456:139,1,98.3999969970704,10|8,0:1|0:0,0:0:0:0:
476,104,21758,1,10,0:1:0:0:
400,41,21977,1,10,0:1:0:0:
323,102,22196,1,10,0:0:0:0:
323,102,22306,1,8,0:0:0:0:
323,102,22415,1,8,0:0:0:0:
230,52,22634,6,0,L|104:69,2,123.000004692078,12|10|10,0:0|0:0|0:0,0:0:0:0:
440,129,23948,2,0,P|454:167|446:193,1,61.5000023460389,8|0,0:0|0:0,0:0:0:0:
381,239,24386,2,0,P|315:218|259:231,2,123.000004692078,10|10|8,0:0|0:0|0:0,0:0:0:0:
244,359,25700,2,0,L|172:350,1,61.5000023460389,10|2,0:0|0:0,0:0:0:0:
96,360,26138,6,0,P|62:299|84:249,1,123.000004692078,8|10,0:0|0:0,0:0:0:0:
148,200,26795,1,2,0:0:0:0:
148,200,27014,2,0,P|159:148|108:89,2,123.000004692078,8|10|10,0:0|0:0|0:0,0:0:0:0:
337,305,28328,1,8,0:0:0:0:
392,239,28547,1,2,0:0:0:0:
345,166,28766,1,10,0:0:0:0:
379,87,28985,1,8,0:3:0:0:
379,87,29094,2,0,P|432:68|474:86,1,92.2500035190584,8|4,0:3|0:3,0:0:0:0:
328,160,29642,6,0,L|185:138,1,139.400002658844,12|10,0:0|0:1,0:0:0:0:
6,216,30518,2,0,P|-11:267|13:312,1,104.550001994133,10|8,0:0|0:1,0:0:0:0:
54,331,30956,2,0,L|134:316,1,69.700001329422,8|8,0:0|0:1,0:0:0:0:
218,287,31394,5,10,0:0:0:0:
218,287,31612,1,2,0:0:0:0:
307,325,31831,1,10,0:1:0:0:
390,273,32050,2,0,P|396:230|374:204,1,69.700001329422,2|8,0:0|0:0,0:0:0:0:
287,183,32488,1,2,0:0:0:0:
287,183,32598,2,0,L|178:213,1,104.550001994133,8|10,0:1|0:1,0:0:0:0:
93,179,33145,6,0,P|85:114|116:85,1,104.550001994133,14|8,0:0|0:1,0:0:0:0:
156,76,33583,1,8,0:1:0:0:
248,107,33802,2,0,L|361:85,2,104.550001994133,14|8|10,0:0|0:3|0:0,0:0:0:0:
136,258,35773,6,0,L|171:258,3,26.24,8|8|8|8,0:1|0:1|0:1|0:1,0:0:0:0:
214,286,36211,2,0,L|249:286,3,26.24,8|8|8|8,0:1|0:1|0:1|0:1,0:0:0:0:
292,312,36649,6,0,L|390:313,1,82,14|0,0:0|0:0,0:0:0:0:
431,315,36977,1,8,0:1:0:0:
431,315,37087,2,0,P|442:282|412:235,1,82,10|8,0:0|0:1,0:0:0:0:
333,167,37525,1,10,0:0:0:0:
414,85,37744,1,10,0:0:0:0:
317,23,37963,2,0,P|253:23|234:49,1,82,10|10,0:0|0:1,0:0:0:0:
129,49,38401,6,0,L|146:141,1,82,8|10,0:0|0:0,0:0:0:0:
160,184,38729,1,8,0:0:0:0:
160,184,38839,2,0,L|144:273,1,82,8|10,0:0|0:1,0:0:0:0:
123,377,39277,1,8,0:0:0:0:
235,355,39496,2,0,L|326:333,1,82,2|8,0:0|0:1,0:0:0:0:
428,356,39934,1,0,0:0:0:0:
502,269,40153,5,10,0:0:0:0:
502,269,40372,2,0,P|504:219|478:183,1,82,2|8,0:0|0:0,0:0:0:0:
373,184,40810,1,10,0:1:0:0:
288,106,41029,2,0,P|294:53|321:17,2,82,10|10|10,0:0|0:0|0:0,0:0:0:0:
354,199,41685,1,10,0:1:0:0:
294,298,41904,5,8,0:0:0:0:
294,298,42123,1,8,0:3:0:0:
182,271,42342,2,0,L|128:278,3,41,8|8|8|8,0:3|0:3|0:3|0:3,0:0:0:0:
83,281,42780,2,0,P|57:234|65:200,1,82,10|10,0:1|0:0,0:0:0:0:
127,113,43218,5,10,0:1:0:0:
127,113,43328,1,8,0:1:0:0:
127,113,43437,2,0,L|294:129,1,164,14|2,0:0|0:1,0:0:0:0:
403,148,44094,2,0,P|401:180|394:195,3,41,8|8|8|8,0:0|0:0|0:0|0:0,0:0:0:0:
349,218,44532,2,0,P|332:260|342:297,2,82,10|10|10,0:1|0:0|0:1,0:0:0:0:
417,125,45189,6,0,P|388:47|316:49,1,164,14|10,0:0|0:0,0:0:0:0:
252,143,45846,2,0,L|203:145,3,41,8|8|8|8,0:1|0:0|0:0|0:0,0:0:0:0:
155,128,46284,2,0,L|69:133,1,82,10|10,0:1|0:0,0:0:0:0:
9,229,46722,5,10,0:1:0:0:
9,229,46831,1,8,0:1:0:0:
9,229,46941,2,0,P|-2:285|88:329,1,164,14|8,0:0|0:1,0:0:0:0:
169,259,47598,2,0,P|206:252|255:277,1,82,8|8,0:0|0:0,0:0:0:0:
343,330,48036,2,0,P|353:293|370:244,1,82,8|8,0:0|0:1,0:0:0:0:
427,153,48474,2,0,L|481:157,3,41,10|8|8|8,0:1|0:1|0:1|0:1,0:0:0:0:
380,130,48912,6,0,L|257:152,1,123,8|8,0:0|0:0,0:0:0:0:
202,162,49350,2,0,L|79:146,2,123,2|2|2,0:3|0:3|0:3,0:0:0:0:
279,247,50226,2,0,L|345:236,2,54.6666666666667,8|8|8,0:3|0:3|0:3,0:0:0:0:
241,257,50664,1,14,0:0:0:0:
241,257,52196,5,14,0:0:0:0:
256,192,52415,12,0,53948,0:0:0:0:
241,257,54167,5,8,0:0:0:0:
320,224,54386,1,8,0:0:0:0:
387,276,54605,1,8,0:0:0:0:
68,107,55919,6,0,B|76:86|99:78|99:78|238:100,1,180.400005505371,14|8,0:0|0:1,0:0:0:0:
335,175,56576,1,2,0:0:0:0:
448,120,56795,2,0,P|454:64|385:23,2,135.300004129028,10|2|2,0:0|0:0|0:0,0:0:0:0:
352,204,57671,6,0,P|343:264|364:292,1,90.2000027526856,10|0,0:0|0:0,0:0:0:0:
483,302,58109,1,8,0:1:0:0:
499,176,58328,1,0,0:0:0:0:
374,195,58547,2,0,L|274:214,2,90.2000027526856,10|2|10,0:0|0:0|0:1,0:0:0:0:
429,81,59204,5,2,0:0:0:0:
307,45,59423,2,0,L|194:62,1,90.2000027526856,8|2,0:0|0:0,0:0:0:0:
91,71,59861,2,0,P|73:129|89:158,1,90.2000027526856,10|0,0:1|0:0,0:0:0:0:
123,176,60189,2,0,P|161:233|134:294,1,135.300004129028,2|2,0:0|0:0,0:0:0:0:
247,355,60737,1,10,0:1:0:0:
343,273,60956,1,0,0:0:0:0:
466,299,61175,2,0,P|492:338|473:381,1,90.2000027526856,8|0,0:0|0:0,0:0:0:0:
334,257,61612,6,0,L|352:160,1,90.2000027526856,10|8,0:1|0:1,0:0:0:0:
217,104,62050,1,10,0:0:0:0:
246,226,62269,1,8,0:0:0:0:
126,266,62488,2,0,L|148:155,1,90.2000027526856,10|8,0:0|0:0,0:0:0:0:
174,22,62926,6,0,B|217:12|217:12|274:36,1,90.2000027526856,14|0,0:0|0:0,0:0:0:0:
290,66,63255,2,0,P|341:73|379:39,1,90.2000027526856,2|0,0:0|0:0,0:0:0:0:
384,11,63583,1,10,0:1:0:0:
493,73,63802,1,10,0:0:0:0:
435,187,64021,1,8,0:1:0:0:
435,187,64240,1,8,0:1:0:0:
373,300,64459,5,8,0:2:0:0:
373,300,64569,1,8,0:2:0:0:
373,300,64678,2,0,L|225:277,2,135.300004129028,14|10|14,0:0|0:1|0:1,0:0:0:0:
310,189,65554,1,10,0:0:0:0:
214,271,65773,1,8,0:1:0:0:
214,271,65992,1,12,0:1:0:0:
111,197,66211,5,8,0:1:0:0:
111,197,66321,1,8,0:1:0:0:
111,197,66430,2,0,P|100:135|122:105,1,90.2000027526856,14|0,0:0|0:0,0:0:0:0:
227,61,66868,2,0,L|327:81,1,90.2000027526856,8|2,0:2|0:0,0:0:0:0:
433,125,67306,2,0,P|458:83|440:25,1,90.2000027526856,10|0,0:0|0:0,0:0:0:0:
315,78,67744,2,0,P|290:120|308:178,1,90.2000027526856,10|0,0:1|0:0,0:0:0:0:
381,252,68182,5,14,0:0:0:0:
302,351,68401,1,10,0:3:0:0:
210,263,68620,2,0,L|227:163,1,90.2000027526856,8|10,0:1|0:0,0:0:0:0:
161,64,69058,1,8,0:3:0:0:
59,139,69277,1,8,0:0:0:0:
110,254,69496,1,10,0:3:0:0:
110,254,69605,1,8,0:3:0:0:
110,254,69715,1,8,0:3:0:0:
162,368,69934,6,0,L|275:339,1,90.2000027526856,14|8,0:1|0:0,0:0:0:0:
394,290,70372,2,0,L|281:261,1,90.2000027526856,8|10,0:1|0:0,0:0:0:0:
263,253,70700,1,8,0:0:0:0:
263,253,70810,2,0,B|241:211|241:211|268:155,1,90.2000027526856,10|8,0:1|0:0,0:0:0:0:
374,29,71248,2,0,P|389:70|370:109,1,90.2000027526856,8|10,0:1|0:0,0:0:0:0:
240,152,71685,6,0,L|116:136,1,90.2000027526856,10|8,0:1|0:0,0:0:0:0:
343,222,72123,2,0,L|467:206,1,90.2000027526856,8|10,0:1|0:0,0:0:0:0:
477,204,72452,1,0,0:0:0:0:
477,204,72561,2,0,P|504:256|487:289,1,90.2000027526856,10|8,0:1|0:0,0:0:0:0:
393,359,72999,1,10,0:1:0:0:
283,296,73218,1,8,0:0:0:0:
172,357,73437,6,0,L|73:351,1,90.2000027526856,10|10,0:1|0:0,0:0:0:0:
36,349,73766,1,2,0:0:0:0:
36,349,73875,2,0,P|21:296|51:245,1,90.2000027526856,10|10,0:1|0:0,0:0:0:0:
114,168,74313,1,10,0:1:0:0:
228,221,74532,1,10,0:0:0:0:
333,151,74751,2,0,L|448:168,1,90.2000027526856,10|10,0:1|0:0,0:0:0:0:
483,275,75189,6,0,B|442:291|442:291|397:276,1,90.2000027526856,8|10,0:1|0:0,0:0:0:0:
279,320,75627,1,8,0:1:0:0:
279,320,75846,1,8,0:1:0:0:
166,262,76065,1,10,0:0:0:0:
60,325,76284,1,8,0:3:0:0:
60,325,76503,2,0,L|65:377,3,45.1000013763428,10|8|8|8,0:3|0:3|0:3|0:3,0:0:0:0:
40,290,76941,6,0,L|60:145,2,135.300004129028,14|10|10,0:0|0:1|0:1,0:0:0:0:
148,355,77817,1,10,0:0:0:0:
254,284,78036,1,8,0:1:0:0:
254,284,78255,1,12,0:1:0:0:
364,344,78474,5,10,0:1:0:0:
364,344,78583,1,10,0:1:0:0:
364,344,78693,2,0,P|430:367|492:320,2,135.300004129028,14|10|10,0:0|0:1|0:1,0:0:0:0:
373,217,79569,1,10,0:0:0:0:
300,113,79788,1,8,0:1:0:0:
300,113,80007,1,12,0:1:0:0:
186,163,80226,5,10,0:1:0:0:
186,163,80335,1,8,0:1:0:0:
186,163,80445,2,0,P|151:213|213:313,1,180.400005505371,14|8,0:0|0:1,0:0:0:0:
314,252,81102,1,0,0:0:0:0:
407,336,81321,2,0,P|456:302|490:294,1,90.2000027526856,10|0,0:0|0:0,0:0:0:0:
500,168,81758,1,8,0:1:0:0:
500,168,81977,1,2,0:0:0:0:
412,76,82196,6,0,P|346:95|214:100,1,180.400005505371,8|10,0:0|0:1,0:0:0:0:
117,53,82853,1,2,0:0:0:0:
12,124,83072,2,0,P|-8:177|13:233,1,90.2000027526856,8|0,0:0|0:0,0:0:0:0:
97,287,83510,5,10,0:1:0:0:
97,287,83620,1,8,0:0:0:0:
97,287,83729,1,8,0:0:0:0:
97,287,83839,1,8,0:0:0:0:
97,287,83948,2,0,B|148:291|178:257|162:239|184:202|223:196,1,164,14|8,0:0|0:1,0:0:0:0:
318,134,84605,2,0,B|267:138|237:104|253:86|231:49|192:43,1,164,14|8,0:0|0:1,0:0:0:0:
256,192,85262,12,0,86138,0:0:0:0:
352,288,86357,5,14,0:1:0:0:
352,176,86576,1,14,0:1:0:0:
256,112,86795,1,14,0:1:0:0:
256,0,87014,1,14,0:1:0:0:
