osu file format v14

[General]
AudioFilename: audio.mp3
AudioLeadIn: 0
PreviewTime: 54824
Countdown: 0
SampleSet: Soft
StackLeniency: 0.4
Mode: 0
LetterboxInBreaks: 0
WidescreenStoryboard: 1

[Editor]
Bookmarks: 8620,15627,22634,29642,36649,43437,50664,55919,62926,69934,76941,83948
DistanceSpacing: 1
BeatDivisor: 4
GridSize: 16
TimelineZoom: 2.6

[Metadata]
Title:PHOENIX (TV Size)
TitleUnicode:PHOENIX (TV Size)
Artist:BURNOUT SYNDROMES
ArtistUnicode:BURNOUT SYNDROMES
Creator:hypercyte
Version:TO EASY!
Source:HAIKYU!! TO THE TOP
Tags:4 ハイキュー!! haikyuu to the top op opening 2020 fourth season 4th pheonix japanese anime version rock jrock j-rock hypercute 熊谷和海 Kazuumi Kumagai 石川大裕 Taiyu Ishikawa 廣瀬拓哉 Takuya Hirose
BeatmapID:2283483
BeatmapSetID:1092306

[Difficulty]
HPDrainRate:3
CircleSize:3
OverallDifficulty:3
ApproachRate:3
SliderMultiplier:1.04
SliderTickRate:1

[Events]
//Background and Video events
0,0,"46106910_p0.jpg",0,0
Video,0,"phoenix.mp4"
//Break Periods
2,22834,28202
//Storyboard Layer 0 (Background)
//Storyboard Layer 1 (Fail)
//Storyboard Layer 2 (Pass)
//Storyboard Layer 3 (Foreground)
//Storyboard Layer 4 (Overlay)
//Storyboard Sound Samples

[TimingPoints]
1613,437.956204379562,4,2,4,64,1,0
12123,-100,4,2,4,64,0,0
12561,-100,4,2,4,44,0,0
12999,-100,4,2,4,54,0,0
13437,-100,4,2,4,64,0,0
14313,-100,4,2,4,64,0,0
15627,-100,4,2,4,64,0,0
21430,-100,4,2,4,64,0,0
22634,-100,4,2,4,44,0,0
29642,-100,4,2,4,54,0,0
34459,-100,4,2,4,54,0,0
36649,-100,4,2,4,64,0,0
43437,-100,4,2,4,54,0,0
50664,-100,4,2,4,44,0,0
51977,-100,4,2,4,44,0,0
54167,-100,4,2,4,54,0,0
55919,-100,4,2,4,74,0,1
69824,-100,4,2,4,74,0,0
69934,-100,4,2,4,84,0,1
76941,-100,4,2,4,74,0,1
83948,-100,4,2,4,54,0,0
85262,-100,4,2,4,64,0,0

[Colours]
Combo1 : 188,194,241
Combo2 : 247,162,104

[HitObjects]
256,352,1613,5,12,0:0:0:0:
256,192,4240,12,0,7744,0:0:0:0:
160,235,9058,5,14,0:0:0:0:
327,111,9934,1,14,0:0:0:0:
369,314,10810,1,14,0:0:0:0:
172,246,11685,1,14,0:0:0:0:
148,144,12123,6,0,P|174:81|308:86,1,208,12|8,0:0|0:1,0:0:0:0:
332,175,13437,1,8,0:1:0:0:
433,198,13875,2,0,P|484:165|484:108,2,104,8|8|0,0:1|0:1|0:0,0:0:0:0:
273,64,15627,6,0,B|213:79|213:79|184:105|184:105|127:122,2,156,14|10|8,0:0|0:1|0:0,0:0:0:0:
367,107,17379,2,0,P|384:166|361:204,1,104,10|8,0:0|0:0,0:0:0:0:
269,242,18255,1,10,0:0:0:0:
173,200,18693,1,8,0:0:0:0:
71,221,19131,6,0,P|41:302|91:364,2,156,10|10|8,0:0|0:1|0:0,0:0:0:0:
209,149,21102,2,0,L|304:159,2,78,14|10|10,0:1|0:1|0:1,0:0:0:0:
117,100,22196,1,10,0:0:0:0:
39,169,22634,1,12,0:0:0:0:
321,246,29642,6,0,L|443:226,2,104,12|10|10,0:0|0:1|0:0,0:0:0:0:
229,295,30956,1,8,0:0:0:0:
140,239,31394,2,0,P|120:158|138:133,1,104,10|10,0:0|0:1,0:0:0:0:
215,91,32269,1,8,0:0:0:0:
304,143,32707,1,10,0:0:0:0:
401,106,33145,6,0,P|444:57|391:3,2,156,14|14|10,0:0|0:0|0:0,0:0:0:0:
304,67,34897,1,2,0:0:0:0:
98,34,35773,2,0,L|-9:59,1,104,8|8,0:1|0:1,0:0:0:0:
21,158,36649,6,0,L|122:134,1,104,14|10,0:0|0:0,0:0:0:0:
222,162,37525,2,0,L|393:127,1,156,10|10,0:0|0:1,0:0:0:0:
462,187,38620,2,0,P|477:235|444:285,2,104,10|10|2,0:0|0:1|0:0,0:0:0:0:
333,275,40153,6,0,L|205:265,1,104,10|8,0:0|0:0,0:0:0:0:
159,189,41029,1,10,0:0:0:0:
60,221,41467,2,0,P|19:272|34:320,1,104,10|8,0:0|0:0,0:0:0:0:
110,364,42342,1,8,0:3:0:0:
180,287,42780,1,10,0:1:0:0:
327,338,43437,6,0,P|347:273|406:197,1,156,14|8,0:0|0:0,0:0:0:0:
472,129,44532,1,10,0:1:0:0:
355,25,45189,6,0,P|274:17|203:60,1,156,14|8,0:0|0:1,0:0:0:0:
171,148,46284,1,10,0:1:0:0:
280,258,46941,6,0,L|390:228,2,104,14|8|8,0:0|0:1|0:0,0:0:0:0:
129,188,48474,1,10,0:1:0:0:
173,94,48912,2,0,L|283:64,2,104,8|2|0,0:0|0:3|0:0,0:0:0:0:
128,188,50226,1,8,0:3:0:0:
208,253,50664,1,14,0:0:0:0:
256,192,52196,12,8,54167,0:0:0:0:
336,83,55919,6,0,P|270:86|254:118,1,104,14|8,0:0|0:1,0:0:0:0:
273,216,56795,2,0,L|257:342,1,104,10|8,0:0|0:1,0:0:0:0:
167,367,57671,1,10,0:0:0:0:
83,305,58109,1,8,0:1:0:0:
136,216,58547,2,0,P|149:164|118:116,1,104,10|10,0:0|0:1,0:0:0:0:
48,51,59423,6,0,L|171:31,1,104,8|10,0:0|0:1,0:0:0:0:
246,74,60299,1,8,0:0:0:0:
338,26,60737,1,10,0:1:0:0:
426,80,61175,1,8,0:0:0:0:
393,178,61612,2,0,L|267:167,2,104,10|10|10,0:1|0:0|0:0,0:0:0:0:
487,221,62926,6,0,P|523:273|480:357,2,156,14|10|8,0:0|0:1|0:1,0:0:0:0:
384,237,64678,2,0,L|213:269,2,156,14|14|12,0:0|0:1|0:1,0:0:0:0:
455,161,66430,6,0,P|465:114|414:69,1,104,14|8,0:0|0:2,0:0:0:0:
327,64,67306,1,10,0:0:0:0:
245,129,67744,1,10,0:1:0:0:
150,86,68182,2,0,L|37:72,1,104,14|8,0:0|0:1,0:0:0:0:
1,167,69058,2,0,P|6:222|56:255,1,104,8|10,0:3|0:3,0:0:0:0:
142,227,69934,5,14,0:1:0:0:
237,268,70372,1,8,0:1:0:0:
313,197,70810,1,10,0:1:0:0:
406,243,71248,1,8,0:1:0:0:
490,183,71685,6,0,P|500:136|458:93,1,104,10|8,0:1|0:1,0:0:0:0:
363,76,72561,2,0,L|254:100,1,104,10|10,0:1|0:1,0:0:0:0:
158,83,73437,5,10,0:1:0:0:
88,160,73875,1,10,0:1:0:0:
144,247,74313,1,10,0:1:0:0:
96,339,74751,1,10,0:1:0:0:
19,268,75189,6,0,L|39:141,1,104,8|8,0:1|0:1,0:0:0:0:
116,100,76065,1,10,0:0:0:0:
212,137,76503,1,10,0:3:0:0:
292,71,76941,6,0,B|358:64|358:64|395:72|395:72|461:63,2,156,14|10|12,0:0|0:1|0:1,0:0:0:0:
212,137,78693,2,0,B|146:130|146:130|109:138|109:138|43:129,2,156,14|10|12,0:0|0:1|0:1,0:0:0:0:
302,187,80445,6,0,P|317:235|288:292,1,104,14|8,0:0|0:1,0:0:0:0:
198,314,81321,1,10,0:0:0:0:
119,245,81758,1,8,0:1:0:0:
24,287,82196,2,0,P|10:357|35:386,1,104,8|10,0:0|0:1,0:0:0:0:
129,361,83072,2,0,L|230:330,1,104,8|10,0:0|0:1,0:0:0:0:
328,302,83948,6,0,P|280:263|319:184,2,156,14|14|14,0:0|0:0|0:0,0:0:0:0:
436,189,85919,1,8,0:1:0:0:
417,86,86357,2,0,B|370:64|370:64|316:62|316:62|259:37,1,156,14|14,0:1|0:1,0:0:0:0:
