osu file format v14

[General]
AudioFilename: audio.mp3
AudioLeadIn: 0
PreviewTime: 31405
Countdown: 1
SampleSet: Soft
StackLeniency: 0.7
Mode: 2
LetterboxInBreaks: 0
WidescreenStoryboard: 1

[Editor]
DistanceSpacing: 0.8
BeatDivisor: 4
GridSize: 16
TimelineZoom: 1.4

[Metadata]
Title:Hikari Are (TV Size)
TitleUnicode:Hikari Are (TV Size)
Artist:BURNOUT SYNDROMES
ArtistUnicode:BURNOUT SYNDROMES
Creator:Vincs
Version:Rain
Source:Haikyuu!!: Karasuno Koukou VS Shiratorizawa Gakuen Koukou
Tags:haikyuu volleyball crows cawub karasuno
BeatmapID:1121144
BeatmapSetID:526177

[Difficulty]
HPDrainRate:6.2
CircleSize:3.8
OverallDifficulty:9.1
ApproachRate:8.9
SliderMultiplier:1.92
SliderTickRate:2

[Events]
//Background and Video events
0,0,"PxOj4yJ.png",0,0
//Break Periods
//Storyboard Layer 0 (Background)
//Storyboard Layer 1 (Fail)
//Storyboard Layer 2 (Pass)
//Storyboard Layer 3 (Foreground)
//Storyboard Sound Samples

[TimingPoints]
450,337.078651685393,4,2,0,100,1,0
7191,-83.3333333333333,4,2,0,100,0,0
7865,-76.9230769230769,4,2,0,100,0,0
8539,-100,4,2,0,100,0,0
10056,-90.9090909090909,4,2,0,100,0,0
10562,-100,4,2,0,100,0,0
11236,-83.3333333333333,4,2,0,100,0,0
15449,-83.3333333333333,4,2,0,100,0,0
15955,-100,4,2,0,100,0,0
16629,-83.3333333333333,4,2,0,100,0,0
17303,-71.4285714285714,4,2,0,100,0,0
17978,-62.5,4,2,0,100,0,0
19157,-100,4,2,0,100,0,0
19326,-76.9230769230769,4,2,0,100,0,0
19832,-71.4285714285714,4,2,0,100,0,0
20674,-62.5,4,2,0,100,0,0
21348,-66.6666666666667,4,2,0,100,0,0
22023,-66.6666666666667,4,2,0,100,0,0
22360,-100,4,2,0,100,0,0
27416,-100,4,2,0,100,0,0
27921,-83.3333333333333,4,2,0,100,0,0
28596,-100,4,2,0,100,0,0
29438,-76.9230769230769,4,2,0,100,0,0
32472,-83.3333333333333,4,2,0,100,0,0
32809,-83.3333333333333,4,2,0,100,0,1
42247,-83.3333333333333,4,2,0,100,0,0
43596,-83.3333333333333,4,2,0,100,0,1
46966,-76.9230769230769,4,2,0,100,0,1
47641,-83.3333333333333,4,2,0,100,0,1
52697,-83.3333333333333,4,2,0,100,0,0
53034,-83.3333333333333,4,2,0,100,0,0
53035,-83.3333333333333,4,2,0,100,0,0
54382,-66.6666666666667,4,2,0,100,0,1
62472,-76.9230769230769,4,2,0,100,0,1
63820,-76.9230769230769,4,2,0,100,0,0
65169,-66.6666666666667,4,2,0,100,0,1
73090,-83.3333333333333,4,2,0,100,0,1
74607,-83.3333333333333,4,2,0,100,0,1
75955,-76.9230769230769,4,2,0,100,0,0
81348,-90.9090909090909,4,2,0,100,0,0
86405,-90.9090909090909,4,2,0,100,0,0
86742,-76.9230769230769,4,2,0,100,0,0
87079,-62.5,4,2,0,100,0,0
87416,-58.8235294117647,4,2,0,100,0,0
87753,-55.5555555555556,4,2,0,100,0,0
88090,-76.9230769230769,4,2,0,100,0,0
89607,-76.9230769230769,4,2,0,100,0,0

[HitObjects]
192,288,281,5,0,0:0:0:0:
304,288,450,2,0,P|336:224|272:112,1,192,0|0,1:1|0:0,0:0:0:0:
176,128,955,1,0,0:3:0:0:
64,304,1124,2,0,P|32:240|96:128,1,192,0|0,1:1|0:0,0:0:0:0:
208,144,1629,1,0,0:0:0:0:
320,144,1798,6,0,P|400:176|320:224,1,192,0|0,1:1|0:0,0:0:0:0:
224,224,2303,6,0,P|144:256|224:304,1,192,0|0,1:1|0:0,0:0:0:0:
304,320,2809,2,0,L|192:320,1,96,0|0,1:1|1:1,0:0:0:0:
288,240,3146,2,0,P|375:281|364:378,1,192,0|0,1:1|0:0,0:0:0:0:
272,304,3652,1,0,0:0:0:0:
176,240,3820,2,0,P|89:281|100:378,1,192,0|0,1:1|0:0,0:0:0:0:
224,336,4326,1,0,0:0:0:0:
99,282,4494,6,0,P|49:216|128:192,1,192,0|0,1:1|0:0,0:0:0:0:
240,192,5000,1,0,0:0:0:0:
353,190,5169,6,0,P|431:217|381:282,1,192,0|0,1:1|0:0,0:0:0:0:
240,288,5674,1,0,0:0:0:0:
400,304,5843,2,0,P|368:208|256:224,1,192,0|0,1:1|0:0,0:0:0:0:
384,192,6348,1,0,0:0:0:0:
256,240,6517,2,0,P|166:223|144:135,1,192,0|0,1:1|0:0,0:0:0:0:
272,144,7023,1,0,0:0:0:0:
160,144,7191,6,0,P|81:128|132:233,1,230.39999296875,0|0,1:1|0:0,0:0:0:0:
208,240,7697,1,0,0:0:0:0:
320,224,7865,6,0,P|387:267|263:301,1,249.599988574219,0|0,1:1|0:0,0:0:0:0:
192,272,8371,1,0,0:0:0:0:
304,288,8539,2,0,P|352:303|347:200,1,192,0|0,1:1|0:0,0:0:0:0:
256,192,9045,1,0,0:0:0:0:
160,176,9214,2,0,P|112:191|117:88,1,192,0|0,1:1|0:0,0:0:0:0:
240,96,9719,1,0,0:0:0:0:
352,96,9888,1,0,1:1:0:0:
192,192,10056,6,0,L|304:192,2,105.600003222656,0|0|0,3:3|3:3|3:3,0:0:0:0:
368,256,10562,2,0,L|256:256,2,96,0|0|0,3:3|3:3|3:3,0:0:0:0:
224,320,11067,6,0,L|176:240,1,48,0|0,3:3|3:3,0:0:0:0:
352,272,11236,2,0,P|416:240|320:128,1,230.39999296875,0|0,1:1|0:0,0:0:0:0:
256,112,11742,1,0,0:0:0:0:
144,208,11910,2,0,P|80:176|176:64,1,230.39999296875,0|0,1:1|0:0,0:0:0:0:
288,64,12416,2,0,L|192:144,2,115.199996484375,0|0|0,0:0|1:1|0:0,0:0:0:0:
384,64,12921,2,0,L|480:144,2,115.199996484375,0|0|0,0:0|0:0|1:1,0:0:0:0:
240,208,13427,6,0,L|368:176,1,115.199996484375,0|0,3:3|3:3,0:0:0:0:
176,160,13764,1,0,3:3:0:0:
304,160,13933,6,0,P|368:208|272:256,1,230.39999296875,0|0,1:1|0:0,0:0:0:0:
160,208,14438,1,0,0:0:0:0:
288,160,14607,2,0,P|288:96|144:96,1,230.39999296875,0|0,1:1|0:0,0:0:0:0:
272,80,15112,1,0,0:0:0:0:
384,80,15281,1,0,1:1:0:0:
240,208,15449,6,0,L|368:208,2,115.199996484375,0|0|0,3:3|3:3|3:3,0:0:0:0:
112,160,15955,2,0,L|224:160,2,96,0|0|0,1:1|3:3|1:1,0:0:0:0:
240,128,16461,1,0,3:3:0:0:
64,160,16629,2,0,P|0:224|112:336,1,230.39999296875,0|0,1:1|0:0,0:0:0:0:
192,336,17135,1,0,0:0:0:0:
336,336,17303,2,0,P|400:288|256:240,1,268.799991796875,0|0,1:1|0:0,0:0:0:0:
144,192,17809,1,0,0:0:0:0:
304,192,17978,1,0,1:1:0:0:
160,96,18146,6,0,L|128:176,2,76.8,0|0|0,0:0|0:0|0:0,0:0:0:0:
320,96,18483,6,0,L|368:176,2,76.8,0|0|0,3:3|3:3|1:1,0:0:0:0:
160,96,18820,6,0,L|96:160,2,76.8,0|0|0,3:3|3:3|1:1,0:0:0:0:
320,96,19157,2,0,L|352:32,1,48,0|0,3:3|3:3,0:0:0:0:
128,224,19326,2,0,L|256:224,2,124.79999428711,0|0|0,1:1|1:1|1:1,0:0:0:0:
384,176,19832,2,0,L|240:176,2,134.399995898438,0|0|0,1:1|1:1|1:1,0:0:0:0:
128,112,20337,1,0,1:1:0:0:
384,112,20506,1,0,1:1:0:0:
240,112,20674,6,0,P|160:160|272:224,1,230.4,0|0,3:3|0:0,0:0:0:0:
320,160,21011,6,0,P|400:208|288:272,1,230.4,0|0,3:3|0:0,0:0:0:0:
240,288,21348,1,0,3:3:0:0:
368,224,21517,1,0,1:1:0:0:
128,224,21685,2,0,P|72:148|215:130,1,288.000010986329,0|0,1:1|1:1,0:0:0:0:
256,112,22107,5,0,3:3:0:0:
288,112,22191,1,0,3:3:0:0:
304,112,22275,1,0,3:3:0:0:
288,160,22360,1,0,1:1:0:0:
256,160,22444,1,0,3:3:0:0:
96,112,22528,5,0,1:1:0:0:
80,112,22612,1,0,3:3:0:0:
96,64,22697,1,0,3:3:0:0:
128,64,22781,1,0,3:3:0:0:
176,64,22865,1,0,1:1:0:0:
240,64,22949,1,0,3:3:0:0:
384,272,23034,5,0,1:1:0:0:
400,272,23118,1,0,3:3:0:0:
384,320,23203,1,0,3:3:0:0:
352,320,23287,1,0,3:3:0:0:
304,320,23371,1,0,1:1:0:0:
240,320,23455,1,0,3:3:0:0:
384,224,23539,5,0,1:1:0:0:
430,216,23623,1,0,3:3:0:0:
460,180,23707,1,0,3:3:0:0:
459,133,23791,1,0,3:3:0:0:
428,98,23876,1,0,1:1:0:0:
381,92,23960,1,0,3:3:0:0:
224,64,24045,5,0,1:1:0:0:
172,85,24129,1,0,3:3:0:0:
161,139,24213,1,0,3:3:0:0:
200,178,24297,1,0,3:3:0:0:
288,64,24382,5,0,1:1:0:0:
340,85,24466,1,0,3:3:0:0:
351,139,24550,1,0,3:3:0:0:
312,178,24634,1,0,3:3:0:0:
160,256,24719,5,0,1:1:0:0:
114,248,24803,1,0,3:3:0:0:
84,212,24887,1,0,1:1:0:0:
85,165,24971,1,0,3:3:0:0:
116,130,25056,1,0,3:3:0:0:
163,124,25140,1,0,3:3:0:0:
336,128,25225,5,0,1:1:0:0:
352,128,25309,1,0,3:3:0:0:
336,176,25394,1,0,3:3:0:0:
304,176,25478,1,0,3:3:0:0:
256,176,25562,1,0,1:1:0:0:
192,176,25646,1,0,3:3:0:0:
336,176,25730,5,0,1:1:0:0:
400,176,25814,1,0,3:3:0:0:
448,176,25898,1,0,3:3:0:0:
480,176,25982,1,0,3:3:0:0:
496,128,26067,1,0,1:1:0:0:
480,128,26151,1,0,3:3:0:0:
320,128,26236,5,0,1:1:0:0:
256,128,26320,1,0,3:3:0:0:
208,128,26404,1,0,3:3:0:0:
176,128,26488,1,0,3:3:0:0:
160,80,26573,1,0,1:1:0:0:
176,80,26657,1,0,3:3:0:0:
336,128,26742,5,0,1:1:0:0:
375,89,26826,1,0,3:3:0:0:
364,35,26910,1,0,3:3:0:0:
312,14,26994,1,0,3:3:0:0:
168,158,27079,5,0,1:1:0:0:
116,179,27163,1,0,3:3:0:0:
105,233,27247,1,0,3:3:0:0:
144,272,27331,1,0,3:3:0:0:
304,160,27416,2,0,L|176:160,2,96,0|0|0,1:1|3:3|1:1,0:0:0:0:
176,160,27921,6,0,P|96:144|144:16,1,230.39999296875,0|0,3:3|3:3,0:0:0:0:
363,22,28427,1,0,1:1:0:0:
240,48,28596,2,0,L|352:96,1,96,0|0,3:3|1:1,0:0:0:0:
480,128,28933,2,0,L|352:128,2,96,0|0|0,3:3|1:1|3:3,0:0:0:0:
336,128,29438,1,0,1:1:0:0:
208,128,29607,1,0,3:3:0:0:
336,144,29775,2,0,P|443:120|402:18,1,249.599988574219,0|0,1:1|1:1,0:0:0:0:
79,17,30281,5,0,1:1:0:0:
304,64,30618,1,0,1:1:0:0:
144,128,30955,1,0,1:1:0:0:
400,128,31124,6,0,P|441:229|334:254,1,249.599988574219,0|0,1:1|3:3,0:0:0:0:
272,224,31545,1,0,3:3:0:0:
416,240,31629,2,0,L|432:176,1,62.3999971435548,0|0,3:3|3:3,0:0:0:0:
208,192,31798,2,0,P|181:79|328:85,1,249.599988574219,0|0,3:3|3:3,0:0:0:0:
338,66,32219,1,0,3:3:0:0:
349,120,32303,1,0,3:3:0:0:
310,159,32387,1,0,3:3:0:0:
160,288,32472,5,0,1:1:0:0:
108,267,32556,1,0,1:1:0:0:
97,213,32640,1,0,1:1:0:0:
136,174,32724,1,0,0:0:0:0:
304,288,32809,6,0,P|352:203|214:151,1,230.39999296875,0|0,1:1|1:1,0:0:0:0:
160,240,33315,1,0,0:0:0:0:
304,160,33483,2,0,L|192:224,2,115.199996484375,0|0|0,1:1|0:0|1:1,0:0:0:0:
128,80,33989,1,0,0:0:0:0:
240,80,34157,6,0,P|320:160|224:240,1,230.39999296875,0|0,1:1|1:1,0:0:0:0:
144,240,34663,1,0,0:0:0:0:
32,240,34832,2,0,P|0:192|112:112,1,230.39999296875,0|0,1:1|1:1,0:0:0:0:
224,112,35337,1,0,0:0:0:0:
320,112,35506,2,0,P|352:176|272:192,1,172.799994726563,0|0,1:1|0:0,0:0:0:0:
208,144,35843,2,0,P|144:160|96:272,1,172.799994726563,0|0,1:1|0:0,0:0:0:0:
192,240,36180,2,0,P|256:256|288:368,1,172.799994726563,0|0,1:1|0:0,0:0:0:0:
192,336,36517,6,0,P|134:342|146:207,1,230.39999296875,0|0,1:1|1:1,0:0:0:0:
304,208,37023,1,0,0:0:0:0:
192,144,37191,2,0,L|304:224,2,115.199996484375,0|0|0,1:1|0:0|1:1,0:0:0:0:
384,144,37697,2,0,L|240:144,1,115.199996484375,0|0,0:0|1:1,0:0:0:0:
400,192,38034,1,0,0:0:0:0:
256,224,38202,6,0,P|192:288|320:320,1,230.39999296875,0|0,1:1|1:1,0:0:0:0:
368,352,38708,1,0,0:0:0:0:
216,354,38876,6,0,P|196:254|297:247,1,230.39999296875,0|0,1:1|1:1,0:0:0:0:
176,224,39382,1,0,0:0:0:0:
304,224,39551,2,0,P|384:176|320:64,1,230.39999296875,0|0,1:1|1:1,0:0:0:0:
208,144,40056,1,0,0:0:0:0:
384,96,40225,2,0,L|256:160,2,115.199996484375,0|0|0,1:1|0:0|1:1,0:0:0:0:
240,96,40730,1,0,0:0:0:0:
368,112,40898,5,0,1:1:0:0:
384,112,40982,1,0,3:3:0:0:
368,160,41067,1,0,3:3:0:0:
336,160,41151,1,0,3:3:0:0:
288,160,41235,1,0,1:1:0:0:
224,160,41320,1,0,3:3:0:0:
80,192,41405,5,0,1:1:0:0:
64,192,41489,1,0,3:3:0:0:
80,240,41574,1,0,1:1:0:0:
112,240,41658,1,0,3:3:0:0:
160,240,41742,1,0,3:3:0:0:
224,240,41827,1,0,3:3:0:0:
80,160,41911,5,0,1:1:0:0:
39,136,41995,1,0,3:3:0:0:
24,91,42079,1,0,3:3:0:0:
42,48,42163,1,0,3:3:0:0:
192,80,42247,5,0,1:1:0:0:
240,80,42332,1,0,3:3:0:0:
272,80,42416,1,0,3:3:0:0:
288,80,42500,1,0,3:3:0:0:
144,192,42584,5,0,1:1:0:0:
160,192,42669,1,0,3:3:0:0:
192,192,42753,1,0,3:3:0:0:
240,192,42837,1,0,3:3:0:0:
384,240,42921,5,0,1:1:0:0:
368,240,43005,1,0,3:3:0:0:
336,240,43089,1,0,3:3:0:0:
288,240,43174,1,0,3:3:0:0:
128,288,43258,5,2,1:1:0:0:
76,267,43342,1,0,1:1:0:0:
65,213,43426,1,0,1:1:0:0:
104,174,43510,1,0,1:1:0:0:
256,160,43596,6,0,P|286:99|150:93,1,230.39999296875,0|0,1:1|1:1,0:0:0:0:
272,48,44101,1,0,0:0:0:0:
144,48,44270,2,0,L|48:112,2,115.199996484375,0|0|0,1:1|0:0|1:1,0:0:0:0:
256,48,44775,1,0,0:0:0:0:
144,160,44944,6,0,P|114:99|250:93,1,230.39999296875,0|0,1:1|1:1,0:0:0:0:
336,48,45449,1,0,0:0:0:0:
176,48,45618,2,0,L|288:128,2,115.199996484375,0|0|0,1:1|0:0|1:1,0:0:0:0:
320,128,46124,1,0,3:3:0:0:
176,96,46292,2,0,P|144:144|176:256,1,172.799994726563,0|0,1:1|0:0,0:0:0:0:
272,176,46629,2,0,P|320:224|272:320,1,172.799994726563,0|0,1:1|0:0,0:0:0:0:
176,144,46966,2,0,P|112:192|208:240,1,187.199991430664,0|0,1:1|0:0,0:0:0:0:
288,224,47303,2,0,P|328:307|208:287,1,249.599988574219,0|0,1:1|1:1,0:0:0:0:
352,272,47809,6,0,L|272:368,2,115.199996484375,0|0|0,0:0|1:1|0:0,0:0:0:0:
160,208,48315,6,0,L|272:272,2,115.199996484375,0|0|0,1:1|0:0|1:1,0:0:0:0:
304,192,48820,1,0,0:0:0:0:
160,160,48989,2,0,P|128:96|160:64,1,115.199996484375,0|0,1:1|0:0,0:0:0:0:
288,128,49326,2,0,P|320:64|288:32,1,115.199996484375,0|0,1:1|0:0,0:0:0:0:
160,64,49663,2,0,L|288:32,1,115.199996484375,0|0,1:1|0:0,0:0:0:0:
112,80,50000,2,0,L|0:176,1,115.199996484375,0|0,1:1|0:0,0:0:0:0:
160,160,50337,2,0,L|288:224,2,115.199996484375,0|0|0,1:1|0:0|1:1,0:0:0:0:
288,240,50843,6,0,P|368:208|288:96,1,230.39999296875,0|0,1:1|1:1,0:0:0:0:
186,96,51348,1,0,1:1:0:0:
326,96,51517,2,0,L|352:32,1,57.5999982421876,0|0,1:1|3:3,0:0:0:0:
192,48,51685,5,0,1:1:0:0:
142,75,51769,1,0,3:3:0:0:
118,126,51853,1,0,3:3:0:0:
129,182,51937,1,0,3:3:0:0:
171,220,52022,1,0,1:1:0:0:
227,227,52106,1,0,3:3:0:0:
400,208,52191,5,0,3:3:0:0:
431,255,52275,1,0,3:3:0:0:
430,311,52359,1,0,1:1:0:0:
396,357,52443,1,0,3:3:0:0:
343,375,52528,1,0,3:3:0:0:
288,359,52612,1,0,3:3:0:0:
134,272,52697,5,0,1:1:0:0:
93,248,52781,1,0,3:3:0:0:
78,203,52865,1,0,3:3:0:0:
96,160,52949,1,0,3:3:0:0:
256,224,53034,2,0,L|272:176,1,28.7999991210938,0|0,1:1|0:0,0:0:0:0:
112,208,53371,2,0,L|96:160,1,28.7999991210938,0|0,1:1|0:0,0:0:0:0:
304,176,53708,2,0,L|320:128,1,28.7999991210938,0|0,1:1|0:0,0:0:0:0:
80,128,54045,5,0,1:1:0:0:
336,128,54214,1,0,1:1:0:0:
224,128,54382,2,0,P|152:162|268:234,1,288.000010986329,0|0,1:1|1:1,0:0:0:0:
144,256,54888,1,0,0:0:0:0:
256,256,55056,2,0,P|320:208|192:160,1,288.000010986329,0|0,1:1|1:1,0:0:0:0:
64,160,55562,1,0,0:0:0:0:
208,144,55730,6,0,L|96:48,2,144.000005493164,0|0|0,1:1|0:0|1:1,0:0:0:0:
320,144,56236,2,0,P|398:208|193:249,1,432.000016479493,0|0,0:0|1:1,0:0:0:0:
304,288,56910,1,0,0:0:0:0:
192,288,57079,2,0,P|144:224|224:96,1,216.000008239746,0|0,1:1|0:0,0:0:0:0:
304,192,57416,2,0,P|352:128|224:16,1,288.000010986329,0|0,1:1|1:1,0:0:0:0:
336,32,57921,1,0,0:0:0:0:
208,32,58090,2,0,P|106:115|180:222,1,288.000010986329,0|0,1:1|1:1,0:0:0:0:
320,224,58596,5,0,0:0:0:0:
176,272,58764,2,0,L|272:144,2,144.000005493164,0|0|0,1:1|0:0|1:1,0:0:0:0:
342,172,59270,2,0,L|256:288,1,144.000005493164,0|0,0:0|1:1,0:0:0:0:
400,144,59607,2,0,L|432:64,1,72.0000027465821,0|0,0:0|0:0,0:0:0:0:
256,80,59775,6,0,P|192:128|336:224,1,288.000010986329,0|0,1:1|1:1,0:0:0:0:
192,240,60281,1,0,0:0:0:0:
288,240,60449,2,0,P|352:192|224:144,1,288.000010986329,0|0,1:1|1:1,0:0:0:0:
112,144,60955,1,0,0:0:0:0:
240,176,61124,2,0,L|144:48,2,144.000005493164,0|0|0,1:1|0:0|1:1,0:0:0:0:
336,80,61629,1,0,0:0:0:0:
208,80,61798,6,0,P|128:112|192:224,1,216.000008239746,0|0,1:1|0:0,0:0:0:0:
256,192,62135,2,0,P|320:240|192:320,1,288.000010986329,0|0,1:1|1:1,0:0:0:0:
144,320,62556,5,0,3:3:0:0:
112,320,62640,1,0,3:3:0:0:
96,320,62724,1,0,3:3:0:0:
112,368,62809,1,0,1:1:0:0:
144,368,62893,1,0,3:3:0:0:
288,160,62978,5,0,3:3:0:0:
350,157,63062,1,0,3:3:0:0:
399,193,63147,1,0,1:1:0:0:
416,252,63231,1,0,3:3:0:0:
394,309,63315,1,0,3:3:0:0:
342,341,63399,1,0,3:3:0:0:
160,320,63483,5,0,1:1:0:0:
128,267,63567,1,0,3:3:0:0:
143,208,63651,1,0,3:3:0:0:
194,175,63735,1,0,3:3:0:0:
352,192,63820,5,0,1:1:0:0:
384,139,63904,1,0,3:3:0:0:
369,80,63988,1,0,3:3:0:0:
318,47,64072,1,0,3:3:0:0:
160,48,64157,5,0,1:1:0:0:
107,78,64241,1,0,3:3:0:0:
88,136,64325,1,0,3:3:0:0:
112,192,64409,1,0,3:3:0:0:
272,192,64494,5,0,1:1:0:0:
325,222,64578,1,0,3:3:0:0:
344,280,64662,1,0,3:3:0:0:
320,336,64746,1,0,0:0:0:0:
160,320,64832,2,0,L|112:240,1,62.3999971435548,0|0,1:1|1:1,0:0:0:0:
288,320,65000,2,0,L|320:240,1,62.3999971435548,0|0,1:1|1:1,0:0:0:0:
128,240,65169,6,0,P|80:176|224:128,1,288.000010986329,0|0,1:1|1:1,0:0:0:0:
352,128,65674,1,0,0:0:0:0:
192,128,65843,2,0,L|304:240,2,144.000005493164,0|0|0,1:1|0:0|1:1,0:0:0:0:
320,160,66348,1,0,0:0:0:0:
160,80,66517,2,0,P|111:143|270:231,1,288.000010986329,0|0,1:1|1:1,0:0:0:0:
128,256,67023,1,0,0:0:0:0:
256,176,67191,2,0,P|320:224|192:352,1,288.000010986329,0|0,1:1|1:1,0:0:0:0:
112,336,67697,1,0,0:0:0:0:
272,336,67865,6,0,P|304:272|272:128,1,216.000008239746,0|0,1:1|0:0,0:0:0:0:
176,256,68202,6,0,P|128:224|224:96,1,216.000008239746,0|0,1:1|0:0,0:0:0:0:
288,96,68539,2,0,P|368:160|256:192,1,216.000008239746,0|0,1:1|0:0,0:0:0:0:
192,224,68876,2,0,P|135:138|282:131,1,288.000010986329,0|0,1:1|1:1,0:0:0:0:
128,96,69382,2,0,L|224:240,2,144.000005493164,0|0|0,0:0|1:1|0:0,0:0:0:0:
288,128,69888,2,0,L|179:222,2,144.000005493164,0|0|0,1:1|0:0|1:1,0:0:0:0:
112,144,70393,1,0,0:0:0:0:
240,224,70562,2,0,P|272:160|240:80,1,144.000005493164,0|0,1:1|0:0,0:0:0:0:
96,160,70899,2,0,P|64:96|96:16,1,144.000005493164,0|0,1:1|0:0,0:0:0:0:
240,32,71236,6,0,L|112:144,2,144.000005493164,0|0|0,1:1|0:0|1:1,0:0:0:0:
368,32,71742,1,0,0:0:0:0:
240,112,71910,2,0,P|221:180|253:243,1,144.000005493164,0|0,1:1|0:0,0:0:0:0:
412,45,72247,2,0,P|431:113|400:176,1,144.000005493164,0|0,1:1|0:0,0:0:0:0:
272,48,72584,6,0,L|144:160,2,144.000005493164,0|0|0,1:1|0:0|1:1,0:0:0:0:
128,80,73090,6,0,L|96:16,1,57.5999982421876,0|0,1:1|3:3,0:0:0:0:
336,48,73258,1,0,1:1:0:0:
376,87,73342,1,0,3:3:0:0:
383,143,73426,1,0,3:3:0:0:
353,192,73510,1,0,3:3:0:0:
301,212,73595,1,0,1:1:0:0:
240,208,73680,1,0,3:3:0:0:
96,192,73764,5,0,3:3:0:0:
67,142,73848,1,0,3:3:0:0:
70,84,73932,1,0,1:1:0:0:
101,38,74016,1,0,0:0:0:0:
153,15,74101,1,0,3:3:0:0:
209,22,74185,1,0,3:3:0:0:
368,48,74270,5,0,1:1:0:0:
412,81,74354,1,0,3:3:0:0:
412,137,74438,1,0,3:3:0:0:
367,170,74522,1,0,3:3:0:0:
208,160,74607,2,0,P|144:256|320:304,1,345.599989453125,0|0,1:1|0:0,0:0:0:0:
432,96,75281,2,0,P|496:192|320:240,1,345.599989453125,0|0,1:1|0:0,0:0:0:0:
192,96,75955,6,0,L|352:96,2,124.79999428711,0|0|0,1:1|0:0|1:1,0:0:0:0:
96,96,76461,2,0,P|16:144|64:272,1,249.599988574219,0|0,0:0|0:0,0:0:0:0:
320,96,76966,6,0,L|448:144,2,124.79999428711,0|0|0,1:1|0:0|1:1,0:0:0:0:
208,96,77472,2,0,P|167:179|277:261,1,249.599988574219,0|0,0:0|0:0,0:0:0:0:
432,256,77978,2,0,P|432:176|336:96,1,187.199991430664,0|0,1:1|0:0,0:0:0:0:
256,80,78315,2,0,P|202:177|302:226,1,249.599988574219,0|0,1:1|1:1,0:0:0:0:
368,224,78736,5,0,3:3:0:0:
400,224,78820,1,0,3:3:0:0:
416,224,78904,1,0,3:3:0:0:
400,272,78989,1,0,1:1:0:0:
368,272,79073,1,0,3:3:0:0:
224,224,79157,5,0,3:3:0:0:
170,197,79241,1,0,3:3:0:0:
161,138,79325,1,0,1:1:0:0:
206,97,79409,1,0,3:3:0:0:
352,96,79494,2,0,L|368:32,1,62.3999971435548,0|0,3:3|3:3,0:0:0:0:
208,48,79663,6,0,L|64:128,2,124.79999428711,0|0|0,1:1|0:0|1:1,0:0:0:0:
32,32,80169,6,0,L|176:112,2,124.79999428711,0|0|0,0:0|1:1|0:0,0:0:0:0:
288,32,80674,5,0,1:1:0:0:
340,53,80758,1,0,0:0:0:0:
351,107,80842,1,0,0:0:0:0:
312,146,80926,1,0,0:0:0:0:
120,178,81011,5,0,1:1:0:0:
68,199,81095,1,0,0:0:0:0:
57,253,81179,1,0,0:0:0:0:
96,292,81263,1,0,0:0:0:0:
304,288,81348,6,0,L|176:288,2,105.600003222656,0|0|0,1:1|3:3|1:1,0:0:0:0:
112,224,81854,2,0,L|240:224,1,105.600003222656,0|0,3:3|1:1,0:0:0:0:
64,144,82191,1,0,3:3:0:0:
304,144,82360,2,0,L|176:144,3,105.600003222656,0|0|0|0,1:1|3:3|1:1|3:3,0:0:0:0:
448,288,83034,6,0,L|320:288,2,105.600003222656,0|0|0,1:1|3:3|1:1,0:0:0:0:
336,224,83539,6,0,L|208:224,2,105.600003222656,0|0|0,3:3|1:1|3:3,0:0:0:0:
99,160,84045,1,0,1:1:0:0:
224,160,84214,2,0,L|96:160,1,105.600003222656,0|0,3:3|1:1,0:0:0:0:
240,96,84551,2,0,L|352:96,2,105.600003222656,0|0|0,3:3|1:1|3:3,0:0:0:0:
96,96,85056,5,0,1:1:0:0:
336,192,85225,2,0,P|352:144|353:84,1,105.600003222656,0|0,3:3|1:1,0:0:0:0:
176,192,85562,2,0,P|160:144|159:84,1,105.600003222656,0|0,3:3|1:1,0:0:0:0:
336,192,85899,1,0,3:3:0:0:
192,192,86067,2,0,P|158:119|223:63,1,158.400004833985,0|0,1:1|0:0,0:0:0:0:
320,192,86405,2,0,P|353:119|288:63,1,158.400004833985,0|0,1:1|0:0,0:0:0:0:
224,112,86742,6,0,P|144:192|208:208,1,187.199991430664,0|0,1:1|0:0,0:0:0:0:
256,208,87079,6,0,P|352:256|272:352,1,230.4,0|0,1:1|0:0,0:0:0:0:
224,336,87416,2,0,P|128:288|232:207,1,244.80000466919,0|0,1:1|0:0,0:0:0:0:
288,192,87753,2,0,P|384:144|304:48,1,259.199992089844,0|0,1:1|0:0,0:0:0:0:
224,64,88090,5,0,1:1:0:0:
172,85,88174,1,0,3:3:0:0:
161,139,88258,1,0,3:3:0:0:
200,178,88342,1,0,3:3:0:0:
352,64,88427,2,0,L|368:0,1,62.3999971435548,0|0,1:1|3:3,0:0:0:0:
208,160,88596,5,0,3:3:0:0:
169,121,88680,1,0,3:3:0:0:
180,67,88764,1,0,1:1:0:0:
232,46,88848,1,0,3:3:0:0:
384,48,88933,2,0,L|400:128,1,62.3999971435548,0|0,3:3|3:3,0:0:0:0:
224,48,89101,2,0,L|208:128,1,62.3999971435548,0|0,1:1|3:3,0:0:0:0:
368,144,89270,2,0,L|384:224,1,62.3999971435548,0|0,3:3|3:3,0:0:0:0:
208,192,89438,2,0,L|192:272,1,62.3999971435548,0|0,1:1|3:3,0:0:0:0:
448,288,89607,1,0,1:1:0:0:
