osu file format v14

[General]
AudioFilename: audio.mp3
AudioLeadIn: 0
PreviewTime: 31405
Countdown: 1
SampleSet: Soft
StackLeniency: 0.7
Mode: 2
LetterboxInBreaks: 0
WidescreenStoryboard: 1

[Editor]
DistanceSpacing: 0.8
BeatDivisor: 4
GridSize: 16
TimelineZoom: 1.4

[Metadata]
Title:Hikari Are (TV Size)
TitleUnicode:Hikari Are (TV Size)
Artist:BURNOUT SYNDROMES
ArtistUnicode:BURNOUT SYNDROMES
Creator:Vincs
Version:Platter
Source:Haikyuu!!: Karasuno Koukou VS Shiratorizawa Gakuen Koukou
Tags:haikyuu volleyball crows cawub karasuno
BeatmapID:1121143
BeatmapSetID:526177

[Difficulty]
HPDrainRate:5.2
CircleSize:3.4
OverallDifficulty:8.3
ApproachRate:8
SliderMultiplier:1.6
SliderTickRate:2

[Events]
//Background and Video events
0,0,"PxOj4yJ.png",0,0
//Break Periods
//Storyboard Layer 0 (Background)
//Storyboard Layer 1 (Fail)
//Storyboard Layer 2 (Pass)
//Storyboard Layer 3 (Foreground)
//Storyboard Sound Samples

[TimingPoints]
450,337.078651685393,4,2,0,100,1,0
7191,-83.3333333333333,4,2,0,100,0,0
7865,-83.3333333333333,4,2,0,100,0,0
8539,-100,4,2,0,100,0,0
10056,-90.9090909090909,4,2,0,100,0,0
10562,-100,4,2,0,100,0,0
11236,-90.9090909090909,4,2,0,100,0,0
15449,-76.9230769230769,4,2,0,100,0,0
15955,-90.9090909090909,4,2,0,100,0,0
16629,-83.3333333333333,4,2,0,100,0,0
17303,-76.9230769230769,4,2,0,100,0,0
17978,-100,4,2,0,100,0,0
19157,-100,4,2,0,100,0,0
19326,-83.3333333333333,4,2,0,100,0,0
19832,-90.9090909090909,4,2,0,100,0,0
20674,-66.6666666666667,4,2,0,100,0,0
21348,-76.9230769230769,4,2,0,100,0,0
22023,-100,4,2,0,100,0,0
29438,-100,4,2,0,100,0,0
30112,-76.9230769230769,4,2,0,100,0,0
32809,-76.9230769230769,4,2,0,100,0,1
42247,-76.9230769230769,4,2,0,100,0,0
43596,-76.9230769230769,4,2,0,100,0,1
52697,-76.9230769230769,4,2,0,100,0,0
54382,-76.9230769230769,4,2,0,100,0,1
57079,-90.9090909090909,4,2,0,100,0,1
57584,-76.9230769230769,4,2,0,100,0,1
61798,-100,4,2,0,100,0,1
63820,-100,4,2,0,100,0,0
65169,-76.9230769230769,4,2,0,100,0,1
73258,-100,4,2,0,100,0,1
74607,-76.9230769230769,4,2,0,100,0,1
75955,-76.9230769230769,4,2,0,100,0,0
81348,-71.4285714285714,4,2,0,100,0,0
85225,-76.9230769230769,4,2,0,100,0,0
86742,-71.4285714285714,4,2,0,100,0,0
87079,-62.5,4,2,0,100,0,0
87416,-55.5555555555556,4,2,0,100,0,0
87753,-50,4,2,0,100,0,0
88090,-76.9230769230769,4,2,0,100,0,0

[HitObjects]
192,288,281,5,0,0:0:0:0:
288,288,450,2,0,P|352:256|272:128,1,240,0|0,1:1|0:3,0:0:0:0:
176,192,1124,2,0,P|112:160|192:48,1,240,0|0,1:1|0:0,0:0:0:0:
272,64,1798,2,0,P|272:112|160:176,1,160,0|0,1:1|0:0,0:0:0:0:
288,176,2303,2,0,P|362:220|218:310,1,320,0|0,1:1|1:1,0:0:0:0:
336,352,3146,2,0,P|368:320|272:176,1,240,0|0,1:1|0:0,0:0:0:0:
160,176,3820,2,0,P|112:144|208:32,1,240,0|0,1:1|0:0,0:0:0:0:
320,32,4494,6,0,P|357:121|236:166,1,240,0|0,1:1|0:0,0:0:0:0:
384,176,5169,2,0,P|448:240|352:336,1,240,0|0,1:1|0:0,0:0:0:0:
240,304,5843,2,0,P|224:240|352:128,1,240,0|0,1:1|0:0,0:0:0:0:
208,144,6517,2,0,P|147:122|135:15,1,160,0|0,1:1|0:0,0:0:0:0:
240,48,7023,1,0,0:0:0:0:
352,272,7191,6,0,P|416:176|272:160,1,287.999991210938,0|0,1:1|0:0,0:0:0:0:
176,192,7865,6,0,P|112:96|256:80,1,287.999991210938,0|0,1:1|0:0,0:0:0:0:
352,64,8539,2,0,P|416:128|400:208,1,160,0|0,1:1|0:0,0:0:0:0:
288,192,9045,1,0,0:0:0:0:
192,64,9214,2,0,P|128:128|160:208,1,160,0|0,1:1|0:0,0:0:0:0:
288,224,9719,2,0,L|176:224,1,80,0|0,0:0|1:1,0:0:0:0:
320,160,10056,2,0,L|416:160,2,88.000002685547,0|0|0,3:3|3:3|3:3,0:0:0:0:
224,112,10562,2,0,L|128:112,2,80,0|0|0,3:3|3:3|3:3,0:0:0:0:
352,112,11067,5,0,3:3:0:0:
112,112,11236,2,0,P|96:192|160:256,1,176.000005371094,0|0,1:1|0:0,0:0:0:0:
288,256,11742,1,0,0:0:0:0:
416,256,11910,2,0,P|464:208|384:128,1,176.000005371094,0|0,1:1|0:0,0:0:0:0:
304,128,12416,1,0,0:0:0:0:
192,128,12584,2,0,P|160:208|224:288,1,176.000005371094,0|0,1:1|0:0,0:0:0:0:
304,128,13090,1,0,0:0:0:0:
192,128,13258,1,0,1:1:0:0:
80,128,13427,6,0,L|192:128,2,88.000002685547,0|0|0,3:3|3:3|3:3,0:0:0:0:
336,112,13933,6,0,P|400:144|384:256,1,176.000005371094,0|0,1:1|0:0,0:0:0:0:
272,240,14438,1,0,0:0:0:0:
144,240,14607,2,0,P|147:158|240:128,1,176.000005371094,0|0,1:1|0:0,0:0:0:0:
96,128,15112,1,0,0:0:0:0:
208,128,15281,1,0,1:1:0:0:
320,128,15449,1,0,3:3:0:0:
208,128,15618,1,0,3:3:0:0:
96,128,15787,1,0,3:3:0:0:
208,208,15955,5,0,1:1:0:0:
96,208,16124,1,0,3:3:0:0:
208,208,16292,1,0,1:1:0:0:
320,208,16461,1,0,3:3:0:0:
208,208,16629,2,0,P|160:288|256:336,1,191.999994140625,0|0,1:1|0:0,0:0:0:0:
352,336,17135,5,0,0:0:0:0:
464,224,17303,2,0,P|450:143|302:114,1,207.999990478516,0|0,1:1|0:0,0:0:0:0:
208,64,17809,1,0,0:0:0:0:
304,64,17978,1,0,1:1:0:0:
192,176,18146,2,0,L|160:208,2,40,0|0|0,0:0|0:0|0:0,0:0:0:0:
320,176,18483,2,0,L|352:208,2,40,0|0|0,3:3|3:3|1:1,0:0:0:0:
176,112,18820,5,0,3:3:0:0:
160,112,18905,1,0,3:3:0:0:
144,112,18989,1,0,1:1:0:0:
336,112,19157,5,0,3:3:0:0:
352,112,19242,1,0,3:3:0:0:
368,112,19326,1,0,1:1:0:0:
256,112,19494,1,0,1:1:0:0:
144,112,19663,1,0,1:1:0:0:
256,112,19832,1,0,1:1:0:0:
144,112,20000,1,0,1:1:0:0:
256,112,20169,1,0,1:1:0:0:
368,112,20337,1,0,1:1:0:0:
240,176,20506,1,0,1:1:0:0:
112,176,20674,5,0,3:3:0:0:
400,176,21011,1,0,3:3:0:0:
176,112,21348,5,0,3:3:0:0:
304,96,21517,1,0,1:1:0:0:
32,64,21685,2,0,P|0:128|96:224,1,207.999990478516,0|0,1:1|1:1,0:0:0:0:
128,224,22107,1,0,3:3:0:0:
160,224,22191,1,0,3:3:0:0:
48,192,22360,1,0,1:1:0:0:
208,144,22528,5,0,1:1:0:0:
240,144,22612,1,0,3:3:0:0:
256,144,22697,1,0,3:3:0:0:
144,96,22865,1,0,1:1:0:0:
304,64,23034,2,0,L|352:64,2,40,0|0|0,1:1|3:3|3:3,0:0:0:0:
176,64,23371,1,0,1:1:0:0:
48,64,23539,2,0,L|0:64,2,40,0|0|0,1:1|3:3|3:3,0:0:0:0:
224,96,23876,1,0,1:1:0:0:
128,192,24045,5,0,1:1:0:0:
96,192,24129,1,0,3:3:0:0:
80,192,24213,1,0,3:3:0:0:
208,192,24382,5,0,1:1:0:0:
96,192,24551,1,0,3:3:0:0:
224,192,24719,1,0,1:1:0:0:
336,192,24887,5,0,1:1:0:0:
368,192,24971,1,0,3:3:0:0:
384,192,25056,1,0,3:3:0:0:
224,256,25224,5,0,1:1:0:0:
304,256,25393,5,0,3:3:0:0:
336,256,25477,1,0,3:3:0:0:
352,256,25562,1,0,1:1:0:0:
240,192,25730,1,0,1:1:0:0:
128,160,25899,5,0,3:3:0:0:
144,160,25984,1,0,0:0:0:0:
176,160,26068,1,0,1:1:0:0:
352,160,26235,5,0,1:1:0:0:
336,160,26320,1,0,3:3:0:0:
304,160,26404,1,0,3:3:0:0:
208,160,26573,5,0,1:1:0:0:
80,160,26742,1,0,1:1:0:0:
96,160,26826,1,0,3:3:0:0:
128,160,26910,1,0,3:3:0:0:
240,96,27079,1,0,1:1:0:0:
272,96,27163,1,0,3:3:0:0:
288,96,27247,1,0,3:3:0:0:
144,160,27416,6,0,L|240:160,2,80,0|0|0,1:1|3:3|1:1,0:0:0:0:
400,336,27921,2,0,P|398:259|330:224,1,160,0|0,3:3|3:3,0:0:0:0:
192,336,28427,1,0,1:1:0:0:
320,304,28596,6,0,L|240:240,1,80,0|0,3:3|1:1,0:0:0:0:
112,208,28933,6,0,L|208:208,2,80,0|0|0,3:3|1:1|3:3,0:0:0:0:
208,144,29438,2,0,L|288:144,1,80,0|0,1:1|3:3,0:0:0:0:
208,96,29775,2,0,L|128:96,1,80,0|0,1:1|3:3,0:0:0:0:
272,96,30112,1,0,1:1:0:0:
400,96,30281,1,0,1:1:0:0:
96,192,30618,1,0,1:1:0:0:
432,32,30955,1,0,1:1:0:0:
320,32,31124,6,0,P|288:96|352:208,1,207.999990478516,0|0,1:1|3:3,0:0:0:0:
96,208,31629,1,0,3:3:0:0:
224,192,31798,2,0,P|245:268|145:350,1,207.999990478516,0|0,3:3|1:1,0:0:0:0:
416,368,32472,1,0,1:1:0:0:
192,192,32809,2,0,P|128:160|192:32,1,207.999990478516,0|0,1:1|1:1,0:0:0:0:
272,32,33315,5,0,0:0:0:0:
160,32,33483,1,0,1:1:0:0:
48,32,33652,1,0,0:0:0:0:
160,32,33820,1,0,1:1:0:0:
272,32,33989,1,0,0:0:0:0:
384,32,34157,2,0,P|416:96|320:176,1,207.999990478516,0|0,1:1|1:1,0:0:0:0:
224,176,34663,1,0,0:0:0:0:
112,192,34832,2,0,P|80:240|176:336,1,207.999990478516,0|0,1:1|1:1,0:0:0:0:
304,336,35337,5,0,0:0:0:0:
176,336,35506,1,0,1:1:0:0:
448,208,35843,1,0,1:1:0:0:
48,208,36180,1,0,1:1:0:0:
304,128,36517,1,0,1:1:0:0:
192,128,36685,1,0,0:0:0:0:
304,128,36854,1,0,1:1:0:0:
416,128,37023,1,0,0:0:0:0:
304,224,37191,5,0,1:1:0:0:
192,224,37360,1,0,0:0:0:0:
304,224,37528,1,0,1:1:0:0:
192,224,37697,1,0,0:0:0:0:
304,224,37865,5,0,1:1:0:0:
192,224,38034,1,0,0:0:0:0:
80,224,38202,2,0,P|48:160|160:80,1,207.999990478516,0|0,1:1|1:1,0:0:0:0:
256,64,38708,1,0,0:0:0:0:
128,64,38876,1,0,1:1:0:0:
256,64,39045,1,0,0:0:0:0:
384,64,39214,1,0,1:1:0:0:
256,64,39382,1,0,0:0:0:0:
384,64,39551,6,0,P|437:137|369:256,1,207.999990478516,0|0,1:1|1:1,0:0:0:0:
288,256,40056,1,0,0:0:0:0:
176,256,40225,1,0,1:1:0:0:
288,256,40393,1,0,0:0:0:0:
176,256,40562,2,0,P|144:192|272:128,1,207.999990478516,0|0,1:1|1:1,0:0:0:0:
288,112,40983,1,0,3:3:0:0:
320,112,41067,1,0,3:3:0:0:
224,64,41236,1,0,1:1:0:0:
176,64,41320,1,0,3:3:0:0:
160,64,41404,5,0,1:1:0:0:
304,64,41573,5,0,1:1:0:0:
192,64,41742,1,0,3:3:0:0:
288,160,41910,5,0,1:1:0:0:
330,182,41994,1,0,3:3:0:0:
347,226,42078,1,0,3:3:0:0:
224,224,42247,5,0,1:1:0:0:
182,246,42331,1,0,3:3:0:0:
165,290,42415,1,0,3:3:0:0:
320,288,42584,5,0,1:1:0:0:
362,310,42668,1,0,3:3:0:0:
379,354,42752,1,0,3:3:0:0:
192,320,42921,5,0,1:1:0:0:
209,276,43005,1,0,3:3:0:0:
251,254,43089,1,0,3:3:0:0:
384,208,43258,5,2,1:1:0:0:
426,186,43342,1,0,1:1:0:0:
443,142,43426,1,0,1:1:0:0:
336,64,43596,6,0,P|272:80|304:224,1,207.999990478516,0|0,1:1|1:1,0:0:0:0:
384,208,44101,1,0,0:0:0:0:
288,208,44270,1,0,1:1:0:0:
192,208,44438,2,0,L|96:272,2,103.999995239258,0|0|0,0:0|1:1|0:0,0:0:0:0:
304,208,44944,2,0,P|368:192|357:46,1,207.999990478516,0|0,1:1|1:1,0:0:0:0:
256,48,45449,1,0,0:0:0:0:
160,48,45618,2,0,P|144:160|241:196,1,207.999990478516,0|0,1:1|1:1,0:0:0:0:
128,240,46124,5,0,3:3:0:0:
256,352,46292,5,0,1:1:0:0:
80,240,46629,1,0,1:1:0:0:
336,240,46966,1,0,1:1:0:0:
208,160,47303,5,0,1:1:0:0:
320,160,47472,1,0,0:0:0:0:
432,160,47641,1,0,1:1:0:0:
320,160,47809,1,0,0:0:0:0:
432,160,47978,1,0,1:1:0:0:
32,160,48315,1,0,1:1:0:0:
304,160,48652,1,0,1:1:0:0:
192,160,48820,1,0,0:0:0:0:
304,160,48989,2,0,P|368:208|272:304,1,207.999990478516,0|0,1:1|1:1,0:0:0:0:
192,304,49494,5,0,0:0:0:0:
80,304,49663,1,0,1:1:0:0:
192,304,49832,1,0,0:0:0:0:
304,304,50000,2,0,L|160:304,1,103.999995239258,0|0,1:1|0:0,0:0:0:0:
80,208,50337,2,0,L|192:208,2,103.999995239258,0|0|0,1:1|0:0|1:1,0:0:0:0:
192,208,50843,2,0,P|261:191|255:74,1,207.999990478516,0|0,1:1|1:1,0:0:0:0:
128,80,51348,5,0,1:1:0:0:
256,80,51517,1,0,1:1:0:0:
368,80,51685,2,0,L|400:176,2,51.999997619629,0|0|0,1:1|3:3|3:3,0:0:0:0:
272,192,52023,1,0,1:1:0:0:
160,208,52191,2,0,L|96:272,2,51.999997619629,0|0|0,3:3|3:3|1:1,0:0:0:0:
256,192,52528,1,0,3:3:0:0:
336,208,52697,2,0,L|400:240,2,51.999997619629,0|0|0,1:1|3:3|3:3,0:0:0:0:
112,112,53034,5,0,1:1:0:0:
400,112,53371,5,0,1:1:0:0:
112,112,53708,5,0,1:1:0:0:
336,208,54045,2,0,L|192:208,1,103.999995239258,0|0,1:1|1:1,0:0:0:0:
336,208,54382,2,0,P|400:176|320:96,1,207.999990478516,0|0,1:1|1:1,0:0:0:0:
240,80,54888,1,0,0:0:0:0:
144,208,55056,2,0,P|80:176|160:96,1,207.999990478516,0|0,1:1|1:1,0:0:0:0:
288,80,55562,1,0,0:0:0:0:
143,90,55730,6,0,L|271:90,2,103.999995239258,0|0|0,1:1|0:0|1:1,0:0:0:0:
256,192,56236,2,0,P|352:184|375:89,1,207.999990478516,0|0,0:0|0:0,0:0:0:0:
208,80,56742,1,0,1:1:0:0:
304,80,56910,1,0,0:0:0:0:
208,160,57079,2,0,L|112:192,1,88.000002685547,0|0,1:1|0:0,0:0:0:0:
304,160,57416,2,0,L|400:208,1,88.000002685547,0|0,1:1|0:0,0:0:0:0:
256,224,57753,1,0,1:1:0:0:
400,224,57921,1,0,0:0:0:0:
256,96,58090,6,0,L|128:96,2,103.999995239258,0|0|0,1:1|0:0|1:1,0:0:0:0:
368,192,58596,1,0,0:0:0:0:
272,192,58764,1,0,1:1:0:0:
176,192,58933,1,0,0:0:0:0:
272,192,59101,1,0,1:1:0:0:
176,192,59270,1,0,0:0:0:0:
80,192,59438,1,0,1:1:0:0:
176,192,59607,1,0,0:0:0:0:
80,192,59775,6,0,P|32:240|112:320,1,207.999990478516,0|0,1:1|1:1,0:0:0:0:
224,320,60281,1,0,0:0:0:0:
336,192,60449,6,0,P|384:240|304:320,1,207.999990478516,0|0,1:1|1:1,0:0:0:0:
208,288,60955,1,0,0:0:0:0:
96,288,61124,6,0,P|16:241|64:161,1,207.999990478516,0|0,1:1|1:1,0:0:0:0:
176,160,61629,1,0,0:0:0:0:
288,160,61798,2,0,L|208:160,1,80,0|0,1:1|0:0,0:0:0:0:
352,112,62135,2,0,L|432:112,1,80,0|0,1:1|0:0,0:0:0:0:
192,240,62472,6,0,L|144:288,2,40,0|0|0,1:1|3:3|3:3,0:0:0:0:
288,192,62809,1,0,1:1:0:0:
176,192,62978,5,0,3:3:0:0:
128,192,63062,1,0,3:3:0:0:
112,192,63146,1,0,1:1:0:0:
224,144,63315,1,0,3:3:0:0:
320,144,63483,5,0,1:1:0:0:
368,144,63567,1,0,3:3:0:0:
384,144,63651,1,0,3:3:0:0:
240,96,63820,2,0,L|224:144,2,40,0|0|0,1:1|3:3|3:3,0:0:0:0:
384,96,64157,2,0,L|416:128,2,40,0|0|0,1:1|3:3|3:3,0:0:0:0:
208,96,64494,2,0,L|160:112,2,40,0|0|0,1:1|3:3|3:3,0:0:0:0:
416,96,64832,2,0,L|464:96,2,40,0|0|0,1:1|1:1|1:1,0:0:0:0:
176,96,65169,2,0,P|128:160|224:224,1,207.999990478516,0|0,1:1|1:1,0:0:0:0:
320,224,65674,5,0,0:0:0:0:
192,224,65843,2,0,L|80:224,2,103.999995239258,0|0|0,1:1|0:0|1:1,0:0:0:0:
48,176,66348,1,0,0:0:0:0:
176,176,66517,2,0,P|240:160|256:16,1,207.999990478516,0|0,1:1|1:1,0:0:0:0:
160,32,67023,1,0,0:0:0:0:
272,32,67191,2,0,L|160:32,2,103.999995239258,0|0|0,1:1|0:0|1:1,0:0:0:0:
384,32,67697,1,0,0:0:0:0:
208,96,67865,5,0,1:1:0:0:
464,192,68202,1,0,1:1:0:0:
64,272,68539,1,0,1:1:0:0:
320,320,68876,2,0,L|208:272,2,103.999995239258,0|0|0,1:1|0:0|1:1,0:0:0:0:
192,320,69382,2,0,L|304:272,2,103.999995239258,0|0|0,0:0|1:1|0:0,0:0:0:0:
304,272,69888,2,0,L|448:272,1,103.999995239258,0|0,1:1|0:0,0:0:0:0:
208,192,70225,2,0,L|336:192,1,103.999995239258,0|0,1:1|0:0,0:0:0:0:
208,128,70562,1,0,1:1:0:0:
112,128,70730,1,0,0:0:0:0:
208,128,70899,6,0,P|272:176|208:304,1,207.999990478516,0|0,1:1|1:1,0:0:0:0:
128,288,71405,2,0,L|16:288,2,103.999995239258,0|0|0,0:0|1:1|0:0,0:0:0:0:
245,287,71910,2,0,L|357:287,2,103.999995239258,0|0|0,1:1|0:0|1:1,0:0:0:0:
352,208,72416,2,0,L|464:208,2,103.999995239258,0|0|0,0:0|1:1|0:0,0:0:0:0:
224,208,72921,1,0,1:1:0:0:
96,208,73090,1,0,1:1:0:0:
224,160,73258,6,0,L|288:128,2,40,0|0|0,1:1|3:3|3:3,0:0:0:0:
128,160,73596,1,0,1:1:0:0:
288,96,73764,6,0,L|352:64,2,40,0|0|0,3:3|3:3|1:1,0:0:0:0:
192,96,74102,1,0,3:3:0:0:
352,48,74270,6,0,L|416:16,2,40,0|0|0,1:1|3:3|3:3,0:0:0:0:
224,48,74607,2,0,P|127:113|126:214,1,207.999990478516,0|0,1:1|0:0,0:0:0:0:
256,192,75112,1,0,0:0:0:0:
384,128,75281,2,0,P|439:211|227:346,1,415.999980957032,0|0,1:1|1:1,0:0:0:0:
400,320,76124,6,0,L|288:320,2,103.999995239258,0|0|0,0:0|1:1|0:0,0:0:0:0:
288,288,76629,1,0,1:1:0:0:
176,272,76798,1,0,0:0:0:0:
64,272,76966,2,0,L|176:272,2,103.999995239258,0|0|0,1:1|0:0|1:1,0:0:0:0:
224,208,77472,1,0,0:0:0:0:
368,208,77641,1,0,1:1:0:0:
176,208,77809,1,0,0:0:0:0:
304,208,77978,2,0,L|448:208,1,103.999995239258,0|0,1:1|0:0,0:0:0:0:
208,208,78315,2,0,L|64:208,1,103.999995239258,0|0,1:1|0:0,0:0:0:0:
304,144,78652,6,0,L|176:144,2,103.999995239258,0|0|0,1:1|3:3|1:1,0:0:0:0:
416,144,79157,2,0,L|448:96,2,51.999997619629,0|0|0,3:3|3:3|1:1,0:0:0:0:
224,256,79494,6,0,L|96:256,2,103.999995239258,0|0|0,3:3|1:1|0:0,0:0:0:0:
336,256,80000,2,0,L|368:208,2,51.999997619629,0|0|0,1:1|0:0|0:0,0:0:0:0:
176,256,80337,2,0,L|144:208,2,51.999997619629,0|0|0,1:1|0:0|0:0,0:0:0:0:
336,208,80674,2,0,L|448:208,1,103.999995239258,0|0,1:1|0:0,0:0:0:0:
176,208,81011,2,0,L|64:208,1,103.999995239258,0|0,1:1|0:0,0:0:0:0:
240,160,81348,5,0,1:1:0:0:
128,160,81517,2,0,L|240:160,1,111.999996582031,0|0,3:3|1:1,0:0:0:0:
352,160,81854,2,0,P|384:224|240:272,1,223.999993164063,0|0,3:3|3:3,0:0:0:0:
144,304,82360,2,0,L|288:304,2,111.999996582031,0|0|0,1:1|3:3|1:1,0:0:0:0:
288,304,82865,2,0,P|362:270|298:137,1,223.999993164063,0|0,3:3|3:3,0:0:0:0:
192,144,83371,1,0,1:1:0:0:
48,144,83539,1,0,3:3:0:0:
176,80,83708,6,0,P|268:106|279:242,1,223.999993164063,0|0,1:1|1:1,0:0:0:0:
192,224,84214,1,0,3:3:0:0:
320,224,84382,1,0,1:1:0:0:
192,224,84551,2,0,P|128:208|128:64,1,223.999993164063,0|0,3:3|3:3,0:0:0:0:
240,64,85056,1,0,1:1:0:0:
128,64,85225,2,0,L|16:64,1,103.999995239258,0|0,3:3|1:1,0:0:0:0:
192,64,85562,2,0,L|304:64,2,103.999995239258,0|0|0,3:3|1:1|3:3,0:0:0:0:
320,64,86067,2,0,L|432:64,1,103.999995239258,0|0,1:1|3:3,0:0:0:0:
192,64,86405,2,0,L|80:64,1,103.999995239258,0|0,1:1|0:0,0:0:0:0:
352,176,86742,5,0,1:1:0:0:
160,176,87079,5,0,1:1:0:0:
400,176,87416,5,0,1:1:0:0:
112,176,87753,5,0,1:1:0:0:
448,272,88090,2,0,L|304:272,2,103.999995239258,0|0|0,1:1|3:3|1:1,0:0:0:0:
304,208,88596,2,0,L|160:208,2,103.999995239258,0|0|0,3:3|1:1|3:3,0:0:0:0:
128,144,89101,2,0,L|272:144,2,103.999995239258,0|0|0,1:1|3:3|1:1,0:0:0:0:
384,144,89607,1,0,1:1:0:0:
