osu file format v14

[General]
AudioFilename: audio.mp3
AudioLeadIn: 0
PreviewTime: 31250
Countdown: 0
SampleSet: Soft
StackLeniency: 0.2
Mode: 0
LetterboxInBreaks: 0
WidescreenStoryboard: 1

[Editor]
DistanceSpacing: 0.6
BeatDivisor: 4
GridSize: 4
TimelineZoom: 2

[Metadata]
Title:Hikari Are (TV Size)
TitleUnicode:ヒカリアレ (TV Size)
Artist:BURNOUT SYNDROMES
ArtistUnicode:BURNOUT SYNDROMES
Creator:Nevo
Version:Spike
Source:ハイキュー!! 烏野高校 VS 白鳥沢学園高校
Tags:haikyuu Karasuno Koukou VS Shiratorizawa Gakuen third season 3rd 3 volleyball anime japanese xandit frostwich synderes glaceon rock opening TritoBandito haikyuu!! bakabaka_answer jrock
BeatmapID:3048410
BeatmapSetID:1486782

[Difficulty]
HPDrainRate:5
CircleSize:4
OverallDifficulty:8.8
ApproachRate:9
SliderMultiplier:1.76
SliderTickRate:1

[Events]
//Background and Video events
0,0,"741751.jpg",0,0
Video,-840,"Ncop-1.mp4"
//Break Periods
//Storyboard Layer 0 (Background)
//Storyboard Layer 1 (Fail)
//Storyboard Layer 2 (Pass)
//Storyboard Layer 3 (Foreground)
//Storyboard Layer 4 (Overlay)
//Storyboard Sound Samples

[TimingPoints]
380,337.078651685393,4,2,1,60,1,0
380,-133.333333333333,4,2,1,60,0,0
11166,-100,4,2,1,60,0,0
20857,-100,4,2,1,5,0,0
20941,-100,4,2,1,60,0,0
21194,-100,4,2,1,5,0,0
21278,-83.3333333333333,4,2,1,60,0,0
21615,-100,4,2,1,60,0,0
21868,-100,4,2,1,60,0,0
21953,-100,4,2,1,75,0,0
32739,-90.9090909090909,4,2,1,75,0,1
35436,-100,4,2,1,75,0,1
35688,-100,4,2,1,5,0,1
35773,-100,4,2,1,75,0,1
36026,-100,4,2,1,5,0,1
36111,-100,4,2,1,75,0,1
38048,-100,4,2,1,5,0,1
38133,-100,4,2,1,75,0,1
43526,-86.9565217391304,4,2,1,75,0,1
46475,-86.9565217391304,4,2,1,5,0,1
46559,-86.9565217391304,4,2,1,75,0,1
46812,-86.9565217391304,4,2,1,5,0,1
46896,-86.9565217391304,4,2,1,75,0,1
47402,-100,4,2,1,75,0,0
47571,-100,4,2,1,75,0,0
47655,-100,4,2,1,75,0,0
49172,-100,4,2,1,5,0,0
49256,-100,4,2,1,75,0,0
53217,-100,4,2,1,75,0,0
53301,-100,4,2,1,75,0,0
53554,-100,4,2,1,75,0,0
53638,-100,4,2,1,75,0,0
53891,-100,4,2,1,75,0,0
53975,-100,4,2,1,75,0,0
54228,-100,4,2,1,5,0,0
54312,-90.9090909090909,4,2,1,75,0,1
58610,-90.9090909090909,4,2,1,5,0,1
58694,-90.9090909090909,4,2,1,75,0,1
58947,-90.9090909090909,4,2,1,5,0,1
59031,-90.9090909090909,4,2,1,75,0,1
59284,-90.9090909090909,4,2,1,5,0,1
59368,-90.9090909090909,4,2,1,75,0,1
65099,-86.9565217391304,4,2,1,75,0,1
70829,-90.9090909090909,4,2,1,75,0,1
74537,-117.647058823529,4,2,1,75,0,0
75211,-100,4,2,1,75,0,0
88020,329.67032967033,4,2,1,65,1,0
88020,-100,4,2,1,65,0,0

[Colours]
Combo1 : 128,255,128
Combo2 : 255,255,128
Combo3 : 255,168,81

[HitObjects]
192,284,380,6,0,P|135:248|51:268,1,132.000005035401,2|0,0:1|0:0,0:0:0:0:
116,342,885,1,2,0:0:0:0:
14,195,1054,2,0,L|30:327,1,132.000005035401,2|0,0:0|0:0,0:0:0:0:
99,159,1559,1,2,0:0:0:0:
59,77,1728,6,0,P|102:121|183:112,1,132.000005035401,2|0,0:0|0:0,0:0:0:0:
225,48,2233,2,0,L|209:192,1,132.000005035401,2|0,0:0|0:0,0:0:0:0:
279,245,2739,2,0,P|320:227|341:227,1,66.0000025177003,0|2,0:0|0:0,0:0:0:0:
399,326,3076,6,0,L|334:317,2,66.0000025177003,2|0|0,0:1|0:0|0:0,0:0:0:0:
503,341,3582,1,2,0:0:0:0:
497,189,3750,2,0,L|457:241,2,66.0000025177003,2|0|0,0:0|0:0|0:0,0:0:0:0:
467,97,4256,1,2,0:0:0:0:
278,147,4424,6,0,L|409:167,1,132.000005035401,2|0,0:0|0:0,0:0:0:0:
319,64,4930,1,2,0:0:0:0:
183,141,5099,2,0,P|193:198|281:238,1,132.000005035401,2|0,0:0|0:0,0:0:0:0:
278,147,5604,1,2,0:0:0:0:
147,56,5773,6,0,B|44:69|44:69|14:94,1,132.000005035401,2|0,0:1|0:0,0:0:0:0:
58,172,6278,1,2,0:0:0:0:
183,141,6447,2,0,B|80:154|80:154|50:179,1,132.000005035401,2|0,0:0|0:0,0:0:0:0:
94,257,6952,1,2,0:0:0:0:
202,245,7121,6,0,L|178:307,2,66.0000025177003,2|0|0,0:0|0:0|0:0,0:0:0:0:
272,306,7627,1,2,0:0:0:0:
371,202,7795,2,0,L|395:263,2,66.0000025177003,2|0|0,0:0|0:0|0:0,0:0:0:0:
313,141,8301,1,2,0:0:0:0:
485,62,8469,6,0,L|467:193,1,132.000005035401,2|0,0:1|0:0,0:0:0:0:
449,282,8975,1,2,0:0:0:0:
371,320,9144,2,0,P|318:289|230:308,1,132.000005035401,2|0,0:0|0:0,0:0:0:0:
297,374,9649,1,2,0:0:0:0:
184,232,9818,5,2,0:1:0:0:
249,295,9986,1,2,0:2:0:0:
101,266,10155,1,2,0:0:0:0:
119,172,10323,1,2,0:0:0:0:
174,322,10492,5,2,0:0:0:0:
97,361,10660,1,2,0:0:0:0:
184,232,10829,1,2,0:0:0:0:
240,384,10997,1,8,0:3:0:0:
240,384,11082,1,8,0:3:0:0:
240,384,11166,6,0,L|331:368,1,88,6|0,3:2|0:0,0:0:0:0:
361,200,11503,2,0,P|339:241|348:300,1,88,0|2,3:2|0:0,0:0:0:0:
512,130,11840,2,0,L|421:146,1,88,2|0,3:2|0:0,0:0:0:0:
311,27,12177,2,0,P|342:60|349:120,1,88,0|2,3:2|0:0,0:0:0:0:
165,88,12514,6,0,L|257:96,1,88,2|0,3:2|0:0,0:0:0:0:
127,8,12851,2,0,L|164:87,1,88,0|2,3:2|0:0,0:0:0:0:
34,171,13188,1,2,3:2:0:0:
61,90,13357,1,8,0:3:0:0:
98,245,13526,1,0,3:2:0:0:
11,257,13694,1,6,0:3:0:0:
123,155,13863,6,0,B|244:138|244:138|301:158,1,176,2|0,3:2|3:2,0:0:0:0:
235,228,14368,1,2,0:0:0:0:
354,93,14537,2,0,P|380:173|324:236,1,176,2|0,3:2|3:2,0:0:0:0:
294,155,15042,1,2,0:0:0:0:
494,193,15211,5,2,3:2:0:0:
324,235,15379,1,8,0:3:0:0:
453,110,15548,1,0,3:2:0:0:
496,284,15717,1,10,0:3:0:0:
294,155,15885,5,2,3:2:0:0:
382,164,16054,1,4,0:3:0:0:
268,308,16222,1,0,3:2:0:0:
360,322,16391,1,6,0:3:0:0:
230,220,16559,6,0,P|185:249|166:289,1,88,2|0,3:2|0:0,0:0:0:0:
34,166,16896,1,0,3:2:0:0:
126,192,17065,1,2,0:0:0:0:
87,20,17233,2,0,L|96:114,1,88,2|0,3:2|0:0,0:0:0:0:
269,33,17571,1,0,3:2:0:0:
178,55,17739,1,2,0:0:0:0:
336,116,17908,6,0,P|372:68|376:23,1,88,2|0,3:2|0:0,0:0:0:0:
248,128,18160,1,2,0:0:0:0:
248,128,18245,2,0,L|341:115,1,88,0|2,3:2|0:0,0:0:0:0:
464,53,18497,1,2,0:0:0:0:
464,53,18582,2,0,L|371:40,1,88,2|0,3:2|0:0,0:0:0:0:
376,190,18835,1,2,0:0:0:0:
376,190,18919,2,0,P|340:142|336:97,1,88,0|2,3:2|0:0,0:0:0:0:
466,228,19172,1,2,0:0:0:0:
466,228,19256,6,0,L|451:337,1,88,2|0,3:1|0:0,0:0:0:0:
209,346,19593,1,2,3:1:0:0:
362,276,19762,1,0,0:0:0:0:
200,189,19930,1,2,3:1:0:0:
357,119,20099,1,0,0:0:0:0:
264,263,20267,1,2,3:1:0:0:
161,93,20436,1,0,0:0:0:0:
78,365,20604,6,0,L|208:345,1,132,2|0,0:0|0:0,0:0:0:0:
143,247,20941,2,0,L|64:351,1,132,2|0,0:0|0:0,0:0:0:0:
27,251,21278,2,0,L|131:234,1,105.599996777344,2|0,0:0|3:0,0:0:0:0:
339,354,21615,2,0,P|280:322|264:258,1,132,10|0,0:0|0:0,0:0:0:0:
365,180,21953,6,0,L|351:267,1,88,6|2,3:2|0:0,0:0:0:0:
266,167,22290,1,10,0:0:0:0:
450,119,22458,2,0,P|467:158|464:205,1,88,6|0,3:1|0:0,0:0:0:0:
465,203,22711,1,0,0:0:0:0:
465,203,22795,1,10,0:0:0:0:
252,80,22964,6,0,L|266:167,1,88,6|2,3:2|0:0,0:0:0:0:
358,47,23301,1,10,0:0:0:0:
166,138,23469,2,0,P|123:144|79:129,1,88,6|0,3:1|0:0,0:0:0:0:
81,130,23722,1,0,0:0:0:0:
81,130,23806,1,10,0:0:0:0:
252,80,23975,1,6,3:2:0:0:
227,204,24144,1,2,0:0:0:0:
373,102,24312,1,6,3:1:0:0:
348,226,24481,1,2,0:0:0:0:
212,212,24649,5,6,3:2:0:0:
381,122,24818,1,10,0:2:0:0:
402,127,24902,1,8,0:2:0:0:
424,132,24986,1,10,0:2:0:0:
260,305,25155,2,0,L|157:314,1,88,6|8,3:1|0:2,0:0:0:0:
348,226,25492,1,10,0:2:0:0:
196,127,25660,6,0,P|195:165|238:241,1,88,6|10,3:2|0:3,0:0:0:0:
282,67,25997,1,10,0:3:0:0:
105,31,26166,2,0,L|193:24,1,88,6|4,3:1|0:3,0:0:0:0:
193,23,26419,1,4,0:3:0:0:
193,23,26503,1,4,0:3:0:0:
61,206,26672,2,0,P|13:162|5:128,1,88,6|2,3:2|0:0,0:0:0:0:
211,211,27009,2,0,P|268:180|285:150,1,88,6|2,3:1|0:0,0:0:0:0:
97,120,27346,5,14,0:0:0:0:
131,278,27514,1,2,3:1:0:0:
280,163,27683,1,8,0:0:0:0:
61,206,27851,2,0,L|31:304,1,88,2|8,3:1|0:0,0:0:0:0:
211,211,28188,1,2,3:1:0:0:
291,356,28357,5,10,0:0:0:0:
131,278,28526,1,2,3:1:0:0:
337,222,28694,1,8,0:0:0:0:
198,123,28863,2,0,L|211:217,1,88,2|8,3:1|0:0,0:0:0:0:
70,85,29200,1,2,3:1:0:0:
251,24,29368,6,0,B|286:16|286:16|345:29,1,88,10|0,0:0|3:1,0:0:0:0:
337,222,29705,2,0,B|312:195|312:195|294:138,1,88,10|0,0:0|3:1,0:0:0:0:
466,49,30042,5,10,3:2:0:0:
416,301,30211,1,10,3:2:0:0:
382,130,30548,1,10,3:2:0:0:
180,288,30885,5,10,3:2:0:0:
442,208,31054,1,10,3:2:0:0:
174,27,31391,5,10,0:3:0:0:
148,22,31475,1,8,0:3:0:0:
121,26,31559,1,4,0:3:0:0:
97,36,31643,1,4,0:3:0:0:
77,53,31728,2,0,L|102:185,1,132,10|0,0:0|0:0,0:0:0:0:
166,244,32065,5,10,3:1:0:0:
161,265,32149,1,8,0:1:0:0:
157,287,32233,1,8,0:1:0:0:
153,308,32317,1,8,0:1:0:0:
146,330,32402,6,0,L|135:287,1,44,10|8,3:1|0:1,0:0:0:0:
319,284,32571,2,0,L|330:241,1,44,8|8,0:1|0:1,0:0:0:0:
383,135,32739,6,0,P|337:122|290:130,1,96.8000029541017,6|0,3:1|0:0,0:0:0:0:
450,225,33076,1,12,0:2:0:0:
205,164,33245,1,2,0:0:0:0:
435,41,33413,2,0,B|412:134|412:134|454:236,1,193.600005908203,2|8,3:1|0:2,0:0:0:0:
512,126,33919,1,2,0:0:0:0:
329,241,34087,6,0,L|317:343,1,96.8000029541017,2|0,3:1|0:0,0:0:0:0:
167,205,34424,1,8,0:2:0:0:
321,136,34593,1,2,0:0:0:0:
82,159,34762,2,0,P|68:205|81:250,1,96.8000029541017,2|0,3:1|3:1,0:0:0:0:
186,93,35099,1,8,0:2:0:0:
3,73,35267,1,2,0:0:0:0:
167,205,35436,6,0,P|227:177|309:201,1,132,2|0,3:1|0:0,0:0:0:0:
345,264,35773,2,0,P|294:221|208:223,1,132,10|0,0:2|0:0,0:0:0:0:
171,327,36110,2,0,L|277:305,1,88,2|0,3:1|3:1,0:0:0:0:
424,371,36447,2,0,L|337:353,1,88,10|0,0:2|3:1,0:0:0:0:
197,228,36784,5,0,0:0:0:0:
171,327,36953,1,0,3:1:0:0:
294,245,37121,2,0,P|292:194|270:156,1,88,10|0,0:2|0:0,0:0:0:0:
105,178,37458,2,0,P|93:227|105:270,1,88,2|0,3:1|3:1,0:0:0:0:
179,97,37795,2,0,L|197:228,1,132,10|0,0:2|0:0,0:0:0:0:
95,68,38132,6,0,L|183:98,1,88,6|0,3:2|0:0,0:0:0:0:
275,161,38469,1,8,0:2:0:0:
247,12,38638,1,2,0:0:0:0:
105,178,38806,2,0,L|193:208,1,88,2|0,3:1|3:1,0:0:0:0:
313,76,39144,1,8,0:2:0:0:
294,245,39312,1,2,0:0:0:0:
412,116,39481,6,0,P|425:65|392:4,1,88,2|0,3:2|0:0,0:0:0:0:
188,206,39818,1,8,0:2:0:0:
313,76,39986,1,2,0:0:0:0:
445,210,40155,2,0,P|503:170|515:135,1,88,2|0,3:1|3:1,0:0:0:0:
265,171,40492,2,0,P|219:117|216:80,1,88,10|0,0:2|0:0,0:0:0:0:
356,171,40829,5,6,3:2:0:0:
350,202,40913,1,0,3:0:0:0:
344,232,40997,1,8,0:1:0:0:
340,262,41082,1,8,0:1:0:0:
334,293,41166,1,8,0:1:0:0:
329,324,41250,1,8,0:1:0:0:
325,354,41335,6,0,L|259:346,1,44,6|0,3:1|0:0,0:0:0:0:
175,291,41503,2,0,L|223:279,1,44,10|8,0:1|0:1,0:0:0:0:
95,369,41672,1,8,0:1:0:0:
75,345,41756,1,8,0:1:0:0:
65,316,41840,6,0,L|54:267,1,44,4|0,3:2|0:0,0:0:0:0:
222,179,42009,2,0,L|233:130,1,44,8|8,0:1|0:1,0:0:0:0:
43,162,42177,6,0,P|78:187|121:191,1,88,6|8,3:1|0:1,0:0:0:0:
39,54,42430,1,8,0:1:0:0:
39,54,42514,2,0,L|18:173,1,88,10|8,3:1|0:1,0:0:0:0:
126,23,42767,1,8,0:1:0:0:
126,23,42851,2,0,P|82:16|42:31,1,88,10|8,3:3|0:3,0:0:0:0:
227,105,43188,5,6,3:3:0:0:
270,101,43272,1,4,0:3:0:0:
314,98,43356,1,4,0:3:0:0:
358,95,43440,1,4,0:3:0:0:
402,92,43526,6,0,L|386:200,1,101.200001930237,6|0,3:1|0:0,0:0:0:0:
424,326,43863,1,8,0:2:0:0:
293,223,44031,1,2,0:0:0:0:
483,154,44200,2,0,P|494:202|478:249,1,101.200001930237,2|0,3:1|3:1,0:0:0:0:
214,284,44537,1,8,0:2:0:0:
340,159,44705,1,2,0:0:0:0:
201,85,44874,6,0,L|216:193,1,101.200001930237,2|0,3:1|0:0,0:0:0:0:
308,352,45211,1,8,0:2:0:0:
118,288,45379,1,2,0:0:0:0:
413,227,45548,2,0,P|371:254|321:258,1,101.200001930237,2|0,3:1|3:1,0:0:0:0:
99,157,45885,1,8,0:2:0:0:
213,301,46054,1,2,0:0:0:0:
373,142,46222,6,0,P|391:82|333:17,1,151.800002895355,2|0,3:1|0:0,0:0:0:0:
310,93,46559,2,0,L|469:46,1,151.800002895355,10|0,0:2|0:0,0:0:0:0:
227,30,46896,2,0,P|205:75|225:154,1,101.200001930237,2|0,3:1|3:1,0:0:0:0:
208,124,47149,1,0,3:0:0:0:
208,124,47233,1,10,0:2:0:0:
288,267,47402,6,0,L|310:93,1,176,0|0,3:1|3:1,0:0:0:0:
394,199,47908,2,0,P|421:251|417:288,1,88,10|0,0:2|0:0,0:0:0:0:
297,383,48245,2,0,P|238:381|208:359,1,88,2|0,3:1|3:1,0:0:0:0:
186,206,48582,2,0,P|217:155|251:140,1,88,10|0,0:2|0:0,0:0:0:0:
135,293,48919,6,0,B|46:287|46:287|14:256,1,132,6|0,3:2|0:0,0:0:0:0:
98,200,49256,2,0,L|196:206,1,88,10|0,0:2|0:0,0:0:0:0:
171,37,49593,1,0,3:1:0:0:
147,118,49762,1,0,3:1:0:0:
270,8,49930,2,0,L|284:99,1,88,10|0,0:2|0:0,0:0:0:0:
470,45,50267,6,0,L|377:53,1,88,2|0,3:2|0:0,0:0:0:0:
460,148,50604,2,0,L|372:155,1,88,10|2,0:2|0:0,0:0:0:0:
214,168,50941,1,0,3:1:0:0:
393,290,51110,1,0,3:1:0:0:
212,310,51278,1,10,0:2:0:0:
372,154,51447,1,2,0:0:0:0:
315,354,51615,5,6,3:2:0:0:
137,238,51784,1,8,0:1:0:0:
106,231,51868,1,8,0:1:0:0:
75,226,51953,1,8,0:1:0:0:
198,327,52121,5,4,3:1:0:0:
376,173,52290,1,8,0:1:0:0:
406,167,52374,1,8,0:1:0:0:
436,162,52459,1,8,0:1:0:0:
298,257,52627,5,4,3:2:0:0:
146,62,52795,1,0,3:1:0:0:
116,55,52879,1,0,3:0:0:0:
85,49,52964,5,10,3:2:0:0:
441,162,53301,1,10,3:2:0:0:
72,227,53638,1,10,3:2:0:0:
311,378,53975,6,0,P|346:340|336:251,1,132,10|0,3:2|0:0,0:0:0:0:
179,248,54312,6,0,P|226:294|276:302,1,96.8000029541017,6|0,3:1|0:0,0:0:0:0:
436,145,54649,1,8,0:2:0:0:
266,198,54818,1,2,0:0:0:0:
481,231,54986,1,2,3:1:0:0:
429,44,55155,1,0,3:1:0:0:
343,263,55323,1,8,0:2:0:0:
277,87,55492,1,2,0:0:0:0:
343,362,55660,6,0,P|390:356|427:326,1,96.8000029541017,2|0,3:1|3:1,0:0:0:0:
304,174,55997,1,8,0:2:0:0:
225,275,56166,1,2,3:0:0:0:
417,165,56335,1,2,0:1:0:0:
190,143,56503,1,0,3:1:0:0:
343,263,56672,1,8,0:2:0:0:
397,73,56840,1,2,0:0:0:0:
121,60,57009,6,0,P|82:106|81:161,1,96.8000029541017,2|0,3:1|0:0,0:0:0:0:
124,290,57346,2,0,L|219:273,1,96.8000029541017,10|0,0:2|0:0,0:0:0:0:
447,161,57683,1,2,3:1:0:0:
404,341,57851,1,2,3:1:0:0:
334,202,58020,2,0,P|322:155|333:108,1,96.8000029541017,10|0,0:2|3:1,0:0:0:0:
511,2,58357,6,0,P|443:42|369:30,1,145.200004431152,2|0,0:1|0:0,0:0:0:0:
333,108,58694,2,0,P|265:68|191:80,1,145.200004431152,10|0,0:2|0:0,0:0:0:0:
131,27,59031,2,0,B|159:72|159:72|137:171,1,145.200004431152,2|0,3:1|0:0,0:0:0:0:
50,230,59368,2,0,L|36:124,1,96.8000029541017,10|0,0:2|0:0,0:0:0:0:
247,287,59705,6,0,P|188:280|139:228,1,96.8000029541017,6|0,3:2|0:0,0:0:0:0:
410,124,60042,1,8,0:2:0:0:
376,317,60211,1,2,0:0:0:0:
240,189,60379,1,2,3:1:0:0:
455,223,60548,1,0,3:1:0:0:
247,287,60717,1,8,0:2:0:0:
313,110,60885,1,2,3:0:0:0:
295,369,61054,6,0,P|245:381|175:350,1,96.8000029541017,2|0,0:1|3:0,0:0:0:0:
106,255,61391,1,8,0:2:0:0:
36,372,61559,1,2,0:0:0:0:
247,287,61728,2,0,L|238:170,1,96.8000029541017,2|0,3:1|3:1,0:0:0:0:
62,133,62065,2,0,B|94:158|94:158|157:148,1,96.8000029541017,10|0,0:2|0:0,0:0:0:0:
430,14,62402,5,6,3:2:0:0:
384,0,62486,1,0,3:0:0:0:
338,14,62570,1,8,0:1:0:0:
307,50,62654,1,8,0:1:0:0:
301,97,62739,1,8,0:1:0:0:
322,140,62823,1,8,0:1:0:0:
363,165,62908,2,0,L|378:98,1,48.4000014770508,6|0,3:1|0:0,0:0:0:0:
231,185,63076,2,0,L|241:232,1,48.4000014770508,10|8,0:1|0:1,0:0:0:0:
417,347,63245,1,8,0:1:0:0:
417,347,63329,1,8,0:1:0:0:
417,347,63413,2,0,L|437:238,1,96.8000029541017,4|8,3:2|0:1,0:0:0:0:
275,316,63750,5,6,3:1:0:0:
227,323,63834,1,8,0:1:0:0:
183,305,63918,1,8,0:1:0:0:
155,266,64004,1,8,0:1:0:0:
124,230,64088,1,10,3:1:0:0:
77,223,64172,1,8,0:1:0:0:
37,250,64256,1,8,0:1:0:0:
26,296,64341,1,8,0:1:0:0:
48,338,64425,1,10,3:3:0:0:
92,355,64509,1,8,0:3:0:0:
136,336,64593,1,8,0:3:0:0:
171,303,64677,1,8,0:3:0:0:
191,259,64761,1,6,3:3:0:0:
195,211,64846,1,4,0:3:0:0:
181,165,64930,1,4,0:3:0:0:
151,127,65014,1,4,0:3:0:0:
110,102,65099,6,0,L|251:91,1,101.200001930237,6|0,3:1|0:0,0:0:0:0:
412,54,65436,1,12,0:2:0:0:
375,267,65604,1,2,0:0:0:0:
502,174,65773,1,2,3:1:0:0:
292,134,65941,1,0,3:1:0:0:
360,366,66110,1,8,0:2:0:0:
393,169,66278,1,2,3:1:0:0:
186,317,66447,6,0,P|253:323|283:307,1,101.200001930237,2|0,0:0|3:1,0:0:0:0:
37,181,66784,1,8,0:2:0:0:
84,372,66953,1,2,0:0:0:0:
127,111,67121,1,2,3:1:0:0:
14,291,67290,1,0,3:1:0:0:
223,230,67458,1,8,0:2:0:0:
37,88,67627,1,2,0:0:0:0:
239,21,67795,6,0,P|299:21|352:69,1,101.200001930237,2|0,3:1|0:0,0:0:0:0:
452,130,68132,2,0,P|386:150|355:205,1,101.200001930237,10|0,0:2|0:0,0:0:0:0:
321,347,68469,1,2,3:1:0:0:
487,222,68638,1,0,3:1:0:0:
257,161,68806,1,10,0:2:0:0:
436,331,68975,6,0,L|452:117,1,202.400003860474,0|0,3:1|3:1,0:0:0:0:
238,61,69481,2,0,L|262:191,1,101.200001930237,10|0,0:2|0:0,0:0:0:0:
122,47,69818,2,0,L|146:177,1,101.200001930237,2|0,3:1|3:1,0:0:0:0:
89,284,70155,2,0,P|131:248|202:243,1,101.200001930237,10|0,0:2|0:0,0:0:0:0:
281,354,70492,6,0,B|244:362|244:362|179:347,1,101.200001930237,6|0,3:2|0:0,0:0:0:0:
316,163,70829,2,0,L|280:357,1,193.600005908203,10|0,0:2|3:1,0:0:0:0:
174,238,71335,1,0,3:1:0:0:
417,284,71503,2,0,L|515:266,1,96.8000029541017,10|0,0:2|3:0,0:0:0:0:
427,77,71840,6,0,L|450:208,1,96.8000029541017,2|0,0:2|3:1,0:0:0:0:
244,62,72177,1,10,0:2:0:0:
322,2,72346,1,2,0:0:0:0:
348,185,72514,2,0,L|325:316,1,96.8000029541017,0|0,3:1|3:1,0:0:0:0:
174,118,72851,2,0,P|213:145|260:150,1,96.8000029541017,10|2,0:2|0:0,0:0:0:0:
117,18,73188,5,6,3:2:0:0:
85,40,73272,1,0,3:0:0:0:
63,72,73356,1,8,0:1:0:0:
54,109,73440,1,8,0:1:0:0:
58,147,73525,1,8,0:1:0:0:
75,182,73609,1,8,0:1:0:0:
103,208,73694,2,0,L|171:206,1,48.4000014770508,4|0,3:1|0:0,0:0:0:0:
135,349,73863,2,0,L|132:281,1,48.4000014770508,8|8,0:1|0:1,0:0:0:0:
273,255,74031,2,0,L|205:257,1,48.4000014770508,8|8,0:1|0:1,0:0:0:0:
241,114,74200,6,0,L|243:181,1,48.4000014770508,6|0,3:2|0:0,0:0:0:0:
371,279,74368,2,0,L|369:230,1,48.4000014770508
359,13,74537,5,6,3:1:0:0:
147,122,75127,1,0,3:0:0:0:
151,137,75211,1,14,0:2:0:0:
406,257,75885,6,0,P|431:201|420:139,1,88,6|2,3:2|0:0,0:0:0:0:
335,192,76222,1,10,0:0:0:0:
481,306,76391,2,0,L|291:284,1,176,6|10,3:1|0:0,0:0:0:0:
159,370,76896,2,0,L|256:359,1,88,6|2,3:2|0:0,0:0:0:0:
99,287,77233,5,10,0:0:0:0:
208,179,77402,2,0,L|186:304,1,88,6|0,3:1|0:0,0:0:0:0:
335,192,77739,1,10,0:0:0:0:
272,92,77908,2,0,P|232:71|166:74,1,88,6|2,3:2|0:0,0:0:0:0:
43,190,78245,2,0,P|76:159|140:145,1,88,6|2,3:1|0:0,0:0:0:0:
227,365,78582,5,6,3:2:0:0:
185,350,78666,1,0,3:0:0:0:
152,321,78750,1,10,0:2:0:0:
132,282,78834,1,8,0:2:0:0:
128,239,78919,1,10,0:2:0:0:
272,92,79087,2,0,L|258:216,1,88,6|8,3:1|0:2,0:0:0:0:
333,335,79424,1,10,0:2:0:0:
453,183,79593,1,6,3:2:0:0:
257,267,79762,1,10,0:3:0:0:
446,305,79930,5,10,0:3:0:0:
356,160,80099,2,0,L|371:247,1,88,6|4,3:1|0:3,0:0:0:0:
446,102,80436,1,4,0:3:0:0:
355,60,80604,2,0,L|272:28,1,88,6|2,3:2|0:0,0:0:0:0:
165,159,80941,2,0,L|247:127,1,88,6|2,3:1|0:0,0:0:0:0:
77,126,81278,5,14,0:0:0:0:
93,213,81447,1,2,3:1:0:0:
146,78,81615,1,8,0:0:0:0:
10,185,81784,2,0,P|10:252|133:291,1,176,2|2,3:1|3:1,0:0:0:0:
274,238,82290,5,10,0:0:0:0:
186,224,82458,1,2,3:1:0:0:
93,213,82627,1,8,0:0:0:0:
140,381,82795,2,0,B|181:343|181:343|322:330,1,176,2|2,3:1|3:1,0:0:0:0:
418,368,83301,2,0,P|389:312|389:276,2,88,10|0|10,0:0|3:1|0:0,0:0:0:0:
486,297,83806,1,0,3:1:0:0:
312,229,83975,5,14,0:0:0:0:
475,180,84144,1,2,3:1:0:0:
318,104,84312,1,8,0:0:0:0:
424,26,84481,2,0,L|409:134,1,88,2|8,3:1|0:0,0:0:0:0:
398,245,84818,1,2,3:1:0:0:
252,162,84986,2,0,P|209:152|166:160,1,88,10|2,0:0|3:1,0:0:0:0:
207,246,85323,1,8,0:0:0:0:
112,334,85492,6,0,L|96:237,1,88,2|8,3:1|0:0,0:0:0:0:
34,156,85829,1,2,3:1:0:0:
183,74,85997,2,0,L|160:186,1,88,10|0,0:0|3:1,0:0:0:0:
8,52,86335,2,0,P|70:62|108:45,1,88,10|0,0:0|3:1,0:0:0:0:
338,49,86672,6,0,L|319:150,1,88,6|0,3:1|0:0,0:0:0:0:
436,53,87009,2,0,P|366:46|343:30,1,88,2|0,0:0|0:0,0:0:0:0:
148,173,87346,6,0,L|131:86,1,88,2|0,0:0|0:0,0:0:0:0:
48,203,87683,2,0,P|88:185|131:187,1,88,2|0,0:0|0:0,0:0:0:0:
190,367,88020,6,0,L|146:346,1,44,10|8,0:1|0:1,0:0:0:0:
205,236,88184,2,0,L|210:285,1,44,10|8,0:3|0:3,0:0:0:0:
66,302,88349,2,0,L|103:271,1,44,10|8,0:3|0:3,0:0:0:0:
322,367,88514,6,0,L|366:346,1,44,10|8,0:1|0:1,0:0:0:0:
307,236,88679,2,0,L|302:285,1,44,10|8,0:3|0:3,0:0:0:0:
446,302,88844,2,0,L|408:271,1,44,10|8,0:3|0:3,0:0:0:0:
258,164,89009,6,0,L|302:143,1,44,10|8,0:1|0:1,0:0:0:0:
243,33,89173,2,0,L|238:82,1,44,10|8,0:3|0:3,0:0:0:0:
382,99,89338,2,0,L|344:68,1,44,10|8,0:3|0:3,0:0:0:0:
130,99,89503,5,6,2:3:0:0:
