osu file format v14

[General]
AudioFilename: audio.mp3
AudioLeadIn: 0
PreviewTime: 31250
Countdown: 0
SampleSet: None
StackLeniency: 0.2
Mode: 0
LetterboxInBreaks: 0
WidescreenStoryboard: 0

[Editor]
DistanceSpacing: 1
BeatDivisor: 4
GridSize: 4
TimelineZoom: 2

[Metadata]
Title:Hikari Are (Anime Version)
TitleUnicode:ヒカリアレ(アニメバージョン)
Artist:BURNOUT SYNDROMES
ArtistUnicode:BURNOUT SYNDROMES
Creator:Monstrata
Version:Luminous
Source:ハイキュー!! 烏野高校 VS 白鳥沢学園高校
Tags:iyiyo haruto haruto_aizawa mugiwarasekai pata-mon irohas haikyu haikyuu let there be light Karasuno Koukou VS Shiratorizawa Gakuen Koukou third season
BeatmapID:1127204
BeatmapSetID:531938

[Difficulty]
HPDrainRate:6
CircleSize:4
OverallDifficulty:8
ApproachRate:9
SliderMultiplier:1.76
SliderTickRate:1

[Events]
//Background and Video events
0,0,"741751.jpg",0,0
//Break Periods
//Storyboard Layer 0 (Background)
//Storyboard Layer 1 (Fail)
//Storyboard Layer 2 (Pass)
//Storyboard Layer 3 (Foreground)
//Storyboard Sound Samples

[TimingPoints]
366,337.078651685393,4,3,1,80,1,0
366,-133.333333333333,4,3,1,80,0,0
11152,-100,4,3,1,80,0,0
21854,-100,4,3,1,5,0,0
21939,-100,4,3,1,80,0,0
47557,-100,4,3,1,45,0,0
47641,-100,4,3,1,80,0,0
53203,-100,4,3,1,5,0,0
53287,-100,4,3,1,80,0,0
53540,-100,4,3,1,5,0,0
53624,-100,4,3,1,80,0,0
53877,-100,4,3,1,5,0,0
53961,-100,4,3,1,80,0,0
54214,-100,4,3,1,5,0,0
54298,-100,4,3,1,80,0,0
74523,-117.647058823529,4,3,1,80,0,0
75197,-100,4,3,1,80,0,0
89523,-100,4,3,1,45,0,0
89607,-100,4,3,1,5,0,0

[Colours]
Combo1 : 128,255,128
Combo2 : 255,255,128
Combo3 : 255,168,81

[HitObjects]
193,226,197,5,0,0:0:0:0:
266,177,366,2,0,P|280:236|239:302,1,132.000005035401,2|0,0:2|0:0,0:0:0:0:
193,226,871,1,0,0:0:0:0:
187,138,1040,2,0,L|329:127,1,132.000005035401,2|0,0:2|0:0,0:0:0:0:
181,50,1545,1,0,0:0:0:0:
101,150,1714,6,0,P|131:206|192:225,1,132.000005035401,2|0,0:2|0:0,0:0:0:0:
319,218,2219,2,0,P|291:235|271:261,1,66.0000025177003,2|0,0:2|0:0,0:0:0:0:
352,302,2557,1,2,0:2:0:0:
442,316,2725,2,0,P|440:283|428:252,1,66.0000025177003,2|0,0:2|0:0,0:0:0:0:
351,126,3062,6,0,P|401:165|465:160,1,132.000005035401,2|0,0:2|0:0,0:0:0:0:
424,79,3568,1,0,0:0:0:0:
274,87,3736,2,0,P|264:150|301:203,1,132.000005035401,2|0,0:2|0:0,0:0:0:0:
351,126,4242,1,0,0:0:0:0:
430,13,4410,6,0,L|421:102,2,66.0000025177003,2|0|0,0:2|0:0|0:0,0:0:0:0:
346,39,4916,1,2,0:2:0:0:
274,87,5085,2,0,L|280:152,2,66.0000025177003,2|0|0,0:2|0:0|0:0,0:0:0:0:
202,39,5590,1,0,0:0:0:0:
162,168,5759,6,0,P|218:136|285:155,1,132.000005035401,2|0,0:2|0:0,0:0:0:0:
230,224,6264,1,0,0:0:0:0:
369,236,6433,2,0,L|355:104,1,132.000005035401,2|0,0:2|0:0,0:0:0:0:
280,151,6939,1,0,0:0:0:0:
339,319,7107,6,0,P|403:318|452:268,1,132.000005035401,2|0,0:2|0:0,0:0:0:0:
369,236,7612,1,0,0:0:0:0:
230,224,7781,2,0,B|250:272|250:272|233:350,1,132.000005035401,2|0,0:2|0:0,0:0:0:0:
230,224,8287,1,0,0:0:0:0:
257,94,8455,6,0,L|229:223,1,132.000005035401,2|0,0:2|0:0,0:0:0:0:
146,192,8961,1,0,0:0:0:0:
173,62,9130,2,0,L|145:191,1,132.000005035401,2|0,0:2|0:0,0:0:0:0:
62,160,9635,1,0,0:0:0:0:
89,30,9804,5,0,0:2:0:0:
10,81,9972,1,2,0:2:0:0:
62,160,10141,1,0,0:2:0:0:
140,108,10309,1,2,0:2:0:0:
150,294,10478,1,0,0:0:0:0:
145,202,10646,1,2,0:2:0:0:
67,252,10815,1,2,0:2:0:0:
228,244,10983,1,0,0:0:0:0:
228,244,11068,1,0,0:0:0:0:
228,244,11152,6,0,P|241:288|219:357,1,88,6|0,0:2|0:0,0:0:0:0:
312,234,11489,2,0,P|271:249|227:243,1,88,2|0,0:0|0:0,0:0:0:0:
212,89,11826,2,0,L|262:162,1,88,2|0,0:2|0:0,0:0:0:0:
346,153,12163,2,0,P|302:146|261:161,1,88,2|0,0:0|0:0,0:0:0:0:
128,81,12500,6,0,P|171:74|212:89,1,88,2|0,0:2|0:0,0:0:0:0:
154,249,12837,2,0,L|163:162,1,88,2|0,0:0|0:0,0:0:0:0:
73,285,13174,5,2,0:2:0:0:
225,300,13343,1,8,0:0:0:0:
83,198,13512,1,8,0:0:0:0:
73,285,13680,1,8,0:0:0:0:
128,81,13849,6,0,P|171:74|212:89,1,88,2|0,0:2|0:0,0:0:0:0:
246,169,14186,2,0,P|203:176|162:161,1,88,2|0,0:0|0:0,0:0:0:0:
260,14,14523,2,0,P|302:7|343:22,1,88,2|0,0:2|0:0,0:0:0:0:
414,186,14860,2,0,P|372:193|331:178,1,88,2|0,0:0|0:0,0:0:0:0:
431,30,15197,5,2,0:2:0:0:
468,108,15365,1,8,0:0:0:0:
294,94,15534,1,8,0:0:0:0:
343,22,15702,1,8,0:0:0:0:
416,244,15871,5,8,0:0:0:0:
382,102,16040,1,2,0:0:0:0:
326,237,16208,1,2,0:0:0:0:
450,160,16377,1,2,0:0:0:0:
305,148,16545,6,0,P|257:176|237:242,1,88,2|0,0:2|0:0,0:0:0:0:
82,225,16882,1,2,0:0:0:0:
156,169,17051,1,2,0:2:0:0:
58,46,17219,2,0,L|70:134,1,88,2|0,0:2|0:0,0:0:0:0:
230,113,17557,1,2,0:0:0:0:
144,76,17725,1,2,0:2:0:0:
306,58,17894,6,0,P|322:98|317:141,1,88,6|0,0:2|0:0,0:0:0:0:
302,183,18146,1,0,0:0:0:0:
302,183,18231,2,0,L|405:170,1,88,2|0,0:0|0:0,0:0:0:0:
213,153,18568,2,0,P|208:196|225:237,1,88,2|0,0:2|0:0,0:0:0:0:
206,277,18821,1,0,0:0:0:0:
206,277,18905,2,0,P|210:320|194:360,1,88,2|0,0:0|0:0,0:0:0:0:
125,142,19242,6,0,L|212:153,1,88,6|0,0:2|0:0,0:0:0:0:
71,212,19579,1,8,0:0:0:0:
266,60,19748,2,0,L|178:71,1,88,6|0,0:2|0:0,0:0:0:0:
200,240,20085,1,8,0:0:0:0:
266,60,20253,1,2,0:0:0:0:
125,142,20422,1,0,0:0:0:0:
319,294,20590,5,2,0:2:0:0:
404,317,20927,1,2,0:2:0:0:
489,340,21264,5,2,0:2:0:0:
444,170,21433,1,2,0:0:0:0:
341,379,21601,2,0,P|256:355|233:286,1,132,8|0,0:0|0:0,0:0:0:0:
307,206,21939,6,0,L|322:318,1,88,12|0,0:0|0:0,0:0:0:0:
225,172,22276,1,2,0:0:0:0:
382,109,22444,1,8,0:0:0:0:
379,130,22528,1,0,0:0:0:0:
376,152,22612,1,0,0:0:0:0:
463,75,22781,1,2,0:0:0:0:
283,30,22950,6,0,L|295:118,1,88,8|0,0:0|0:0,0:0:0:0:
370,18,23287,1,2,0:0:0:0:
213,83,23455,1,8,0:0:0:0:
191,86,23539,1,0,0:0:0:0:
169,89,23623,1,0,0:0:0:0:
283,30,23792,1,2,0:0:0:0:
307,206,23961,6,0,L|263:200,1,44,8|0,0:0|0:0,0:0:0:0:
213,83,24130,2,0,L|207:126,1,44,8|0,0:0|0:0,0:0:0:0:
84,146,24298,2,0,L|127:140,1,44,2|0,0:0|0:0,0:0:0:0:
178,23,24467,2,0,L|183:66,1,44,2|0,0:0|0:0,0:0:0:0:
141,219,24635,5,12,0:0:0:0:
141,219,24719,1,0,0:0:0:0:
141,219,24804,2,0,P|185:197|209:148,1,88,2|0,0:2|0:0,0:0:0:0:
73,76,25141,1,10,0:2:0:0:
73,76,25225,1,0,0:0:0:0:
73,76,25310,2,0,P|95:119|144:143,1,88,2|0,0:0|0:0,0:0:0:0:
216,7,25646,5,10,0:2:0:0:
216,7,25730,1,0,0:0:0:0:
216,7,25815,2,0,P|172:29|148:78,1,88
284,150,26152,1,10,0:2:0:0:
284,150,26236,1,0,0:0:0:0:
284,150,26321,2,0,P|261:106|212:82,1,88
216,259,26658,6,0,L|223:215,1,44,2|0,0:0|0:0,0:0:0:0:
304,297,26826,2,0,L|296:253,1,44
190,329,26995,2,0,L|182:285,1,44,2|0,0:0|0:0,0:0:0:0:
330,367,27163,2,0,L|337:323,1,44
133,384,27332,5,2,0:2:0:0:
106,300,27500,1,0,0:0:0:0:
79,216,27669,1,8,0:0:0:0:
155,63,27837,2,0,L|138:150,1,88,2|0,0:2|0:0,0:0:0:0:
52,132,28174,1,8,0:0:0:0:
238,35,28343,5,2,0:2:0:0:
155,63,28511,1,0,0:0:0:0:
303,92,28680,1,8,0:0:0:0:
202,207,28849,2,0,L|220:121,1,88,2|0,0:2|0:0,0:0:0:0:
118,234,29186,1,8,0:0:0:0:
350,236,29354,5,2,0:2:0:0:
285,179,29523,1,0,0:0:0:0:
249,349,29691,1,10,0:2:0:0:
270,351,29775,1,0,0:0:0:0:
292,348,29859,1,0,0:0:0:0:
312,339,29943,1,0,0:0:0:0:
328,325,30028,5,8,0:0:0:0:
220,121,30197,2,0,P|200:157|202:207,1,88,8|0,0:0|0:0,0:0:0:0:
349,236,30534,2,0,P|369:200|366:149,1,88,2|0,0:0|0:0,0:0:0:0:
238,35,30871,1,8,0:0:0:0:
267,265,31040,2,0,P|288:300|332:323,1,88,2|0,0:0|0:0,0:0:0:0:
285,179,31377,5,0,0:0:0:0:
285,179,31461,1,0,0:0:0:0:
285,179,31545,1,0,0:0:0:0:
285,179,31630,1,0,0:0:0:0:
285,179,31714,2,0,L|178:189,1,88,8|0,0:0|0:0,0:0:0:0:
238,35,32051,5,2,0:0:0:0:
263,25,32135,1,2,0:0:0:0:
291,21,32219,1,8,0:0:0:0:
318,24,32303,1,2,0:0:0:0:
344,33,32388,1,2,0:0:0:0:
369,43,32472,1,2,0:0:0:0:
396,48,32556,1,8,0:0:0:0:
424,45,32640,1,8,0:0:0:0:
450,37,32725,6,0,B|440:154,1,88,6|0,0:0|0:0,0:0:0:0:
238,35,33062,2,0,B|248:152,1,88,8|0,0:0|0:0,0:0:0:0:
26,33,33399,1,0,0:0:0:0:
111,157,33568,1,0,0:0:0:0:
238,35,33736,1,8,0:0:0:0:
104,70,33905,1,0,0:0:0:0:
118,243,34073,6,0,P|159:231|188:198,1,88,2|0,0:0|0:0,0:0:0:0:
32,119,34410,2,0,P|22:161|36:202,1,88,8|0,0:0|0:0,0:0:0:0:
245,122,34748,1,2,0:0:0:0:
111,157,34916,1,2,0:0:0:0:
252,35,35085,2,0,P|293:47|322:80,1,88,8|0,0:0|0:0,0:0:0:0:
318,255,35422,6,0,L|320:167,1,88,2|0,0:0|0:0,0:0:0:0:
399,39,35759,2,0,L|398:127,1,88,8|0,0:0|0:0,0:0:0:0:
242,209,36096,1,2,0:0:0:0:
231,240,36180,1,0,0:0:0:0:
232,273,36264,1,2,0:0:0:0:
245,303,36348,1,2,0:0:0:0:
267,327,36433,1,8,0:0:0:0:
395,212,36601,1,0,0:0:0:0:
228,122,36770,6,0,L|241:208,1,88,2|0,0:0|0:0,0:0:0:0:
339,69,37107,2,0,L|325:155,1,88,8|0,0:0|0:0,0:0:0:0:
145,90,37444,1,2,0:0:0:0:
256,37,37613,1,0,0:0:0:0:
61,58,37781,2,0,P|57:101|73:141,1,88,8|0,0:0|0:0,0:0:0:0:
61,325,38118,6,0,P|57:282|73:242,1,88,6|0,0:0|0:0,0:0:0:0:
232,301,38455,2,0,L|145:294,1,88,8|0,0:0|0:0,0:0:0:0:
239,213,38792,1,2,0:0:0:0:
319,308,38961,1,2,0:0:0:0:
414,213,39130,2,0,L|327:220,1,88,8|0,0:0|0:0,0:0:0:0:
400,39,39467,6,0,L|407:126,1,88,2|0,0:0|0:0,0:0:0:0:
239,213,39804,1,8,0:0:0:0:
319,133,39972,1,0,0:0:0:0:
159,133,40141,1,2,0:0:0:0:
239,213,40309,1,0,0:0:0:0:
239,53,40478,2,0,L|128:41,1,88,8|0,0:0|0:0,0:0:0:0:
71,142,40815,5,2,0:0:0:0:
92,139,40899,1,0,0:0:0:0:
114,137,40983,1,2,0:0:0:0:
136,134,41067,1,2,0:0:0:0:
158,132,41152,2,0,L|147:195,1,44,8|0,0:0|0:0,0:0:0:0:
90,275,41321,2,0,L|79:212,1,44,8|0,0:0|0:0,0:0:0:0:
239,213,41489,1,2,0:0:0:0:
260,215,41573,1,0,0:0:0:0:
282,217,41657,1,2,0:0:0:0:
304,220,41741,1,2,0:0:0:0:
326,222,41826,2,0,L|309:130,1,88,8|0,0:0|0:0,0:0:0:0:
169,262,42163,5,2,0:0:0:0:
172,283,42247,1,0,0:0:0:0:
176,305,42331,1,0,0:0:0:0:
180,327,42415,1,2,0:0:0:0:
184,348,42500,2,0,P|232:356|279:336,1,88,8|0,0:0|0:0,0:0:0:0:
321,273,42753,1,2,0:0:0:0:
321,273,42837,2,0,P|369:281|416:261,1,88,8|0,0:0|0:0,0:0:0:0:
354,148,43090,1,2,0:0:0:0:
354,148,43174,2,0,L|360:192,1,44,8|0,0:0|0:0,0:0:0:0:
273,103,43343,2,0,L|267:146,1,44
174,13,43512,6,0,L|186:101,1,88,6|0,0:0|0:0,0:0:0:0:
352,55,43849,2,0,P|319:24|256:10,1,88,8|0,0:0|0:0,0:0:0:0:
111,141,44186,2,0,P|154:127|197:80,1,88,2|0,0:0|0:0,0:0:0:0:
439,66,44523,2,0,L|351:54,1,88,8|0,0:0|0:0,0:0:0:0:
223,196,44860,6,0,L|311:184,1,88,2|0,0:0|0:0,0:0:0:0:
334,359,45197,2,0,L|322:271,1,88,8|0,0:0|0:0,0:0:0:0:
136,208,45534,1,2,0:0:0:0:
235,283,45703,1,2,0:0:0:0:
211,108,45871,2,0,L|223:196,1,88,8|0,0:0|0:0,0:0:0:0:
135,381,46208,6,0,L|147:293,1,88,2|0,0:0|0:0,0:0:0:0:
299,97,46545,2,0,L|311:185,1,88,8|0,0:0|0:0,0:0:0:0:
136,208,46882,1,2,0:0:0:0:
211,108,47051,1,0,0:0:0:0:
322,271,47219,1,8,0:0:0:0:
386,85,47388,6,0,L|298:97,1,88,0|6,0:0|0:0,0:0:0:0:
264,177,47725,1,0,0:0:0:0:
443,152,47894,2,0,P|467:116|473:73,1,88,8|0,0:0|0:0,0:0:0:0:
240,28,48231,2,0,P|215:64|210:107,1,88,2|0,0:0|0:0,0:0:0:0:
288,326,48568,2,0,P|312:289|317:246,1,88,8|0,0:0|0:0,0:0:0:0:
142,259,48905,6,0,L|230:259,1,88,2|0,0:0|0:0,0:0:0:0:
298,106,49242,2,0,L|210:106,1,88,8|0,0:0|0:0,0:0:0:0:
342,181,49579,1,2,0:0:0:0:
253,30,49748,1,2,0:0:0:0:
166,182,49916,2,0,L|253:181,1,88,8|0,0:0|0:0,0:0:0:0:
429,180,50253,6,0,P|419:137|388:106,1,88,8|0,0:0|0:0,0:0:0:0:
210,106,50590,1,2,0:0:0:0:
301,255,50759,2,0,P|330:223|342:181,1,88,8|0,0:0|0:0,0:0:0:0:
253,30,51096,1,2,0:0:0:0:
171,181,51264,2,0,P|213:189|255:178,1,88,8|0,0:0|0:0,0:0:0:0:
165,30,51601,6,0,L|175:91,1,44,4|0,0:0|0:0,0:0:0:0:
87,185,51770,1,0,0:0:0:0:
87,185,51854,1,2,0:0:0:0:
87,185,51939,1,8,0:0:0:0:
77,30,52107,2,0,L|87:91,1,44,2|0,0:0|0:0,0:0:0:0:
171,181,52276,1,0,0:0:0:0:
171,181,52360,1,2,0:0:0:0:
171,181,52444,1,8,0:0:0:0:
253,30,52613,2,0,L|263:91,1,44,8|0,0:0|0:0,0:0:0:0:
343,113,52781,2,0,L|333:174,1,44,8|0,0:0|0:0,0:0:0:0:
182,276,52950,6,0,L|338:250,1,132,8|0,0:0|2:0,0:0:0:0:
337,332,53287,6,0,L|180:306,1,132,8|0,0:0|2:0,0:0:0:0:
134,384,53624,6,0,L|290:358,1,132,8|0,0:0|2:0,0:0:0:0:
312,255,53961,6,0,P|264:298|264:362,1,132,8|0,0:0|2:0,0:0:0:0:
337,332,54298,6,0,L|346:216,1,88,6|0,0:0|0:0,0:0:0:0:
198,170,54635,1,8,0:0:0:0:
235,249,54803,1,0,0:0:0:0:
291,88,54972,1,2,0:0:0:0:
285,176,55140,1,0,0:0:0:0:
204,82,55309,1,8,0:0:0:0:
235,249,55478,1,0,0:0:0:0:
364,136,55646,5,2,0:0:0:0:
198,170,55815,1,0,0:0:0:0:
252,9,55983,1,8,0:0:0:0:
285,176,56152,2,0,P|339:220|368:223,1,88,0|2,0:0|0:0,0:0:0:0:
291,88,56489,1,2,0:0:0:0:
147,242,56658,1,8,0:0:0:0:
204,82,56826,1,0,0:0:0:0:
323,256,56995,6,0,P|361:220|372:180,1,88,2|0,0:0|0:0,0:0:0:0:
342,17,57332,2,0,P|369:52|376:94,1,88,8|0,0:0|0:0,0:0:0:0:
235,249,57669,1,2,0:0:0:0:
291,88,57837,1,0,0:0:0:0:
272,328,58006,1,8,0:0:0:0:
198,168,58174,1,0,0:0:0:0:
9,308,58343,6,0,L|97:315,1,88,2|0,0:0|0:0,0:0:0:0:
286,163,58680,2,0,L|198:169,1,88,8|0,0:0|0:0,0:0:0:0:
296,315,59017,1,2,0:0:0:0:
374,157,59186,1,2,0:0:0:0:
144,98,59354,2,0,P|117:132|110:175,1,88,8|0,0:0|0:0,0:0:0:0:
423,225,59691,6,0,P|407:184|373:156,1,88,6|0,0:0|0:0,0:0:0:0:
162,258,60028,1,8,0:0:0:0:
302,316,60197,1,0,0:0:0:0:
196,178,60365,1,2,0:0:0:0:
128,338,60534,1,0,0:0:0:0:
249,247,60702,1,8,0:0:0:0:
75,269,60871,1,0,0:0:0:0:
283,167,61040,5,2,0:0:0:0:
162,258,61208,1,0,0:0:0:0:
336,236,61377,1,8,0:0:0:0:
196,178,61545,1,0,0:0:0:0:
302,316,61714,1,2,0:0:0:0:
230,98,61882,1,2,0:0:0:0:
75,269,62051,2,0,P|91:309|124:337,1,88,8|0,0:0|0:0,0:0:0:0:
196,178,62388,5,8,0:0:0:0:
174,180,62472,1,0,0:0:0:0:
152,183,62556,1,0,0:0:0:0:
130,185,62640,1,2,0:0:0:0:
108,188,62725,1,8,0:0:0:0:
230,98,62894,1,2,0:0:0:0:
249,247,63062,1,8,0:0:0:0:
361,93,63231,1,2,0:0:0:0:
339,90,63315,1,2,0:0:0:0:
317,87,63399,2,0,L|330:166,1,44,8|0,0:0|0:0,0:0:0:0:
389,210,63568,2,0,L|402:131,1,44,8|0,0:0|0:0,0:0:0:0:
343,4,63736,5,2,0:0:0:0:
321,0,63820,1,0,0:0:0:0:
299,0,63905,1,2,0:0:0:0:
278,7,63988,1,2,0:0:0:0:
260,19,64073,1,8,0:0:0:0:
245,35,64157,1,0,0:0:0:0:
235,54,64242,1,2,0:0:0:0:
229,76,64325,1,2,0:0:0:0:
229,97,64410,6,0,L|158:104,1,44,8|0,0:0|0:0,0:0:0:0:
171,231,64579,2,0,L|176:188,1,44,8|0,0:0|0:0,0:0:0:0:
307,175,64748,2,0,L|235:181,1,44,8|0,0:0|0:0,0:0:0:0:
249,309,64917,2,0,L|253:265,1,44,8|0,0:0|0:0,0:0:0:0:
315,87,65085,6,0,L|305:187,1,88,6|0,0:0|0:0,0:0:0:0:
171,231,65422,1,8,0:0:0:0:
65,119,65590,1,0,0:0:0:0:
107,293,65759,1,2,0:0:0:0:
149,144,65927,1,2,0:0:0:0:
86,206,66096,1,8,0:0:0:0:
234,169,66264,1,0,0:0:0:0:
65,119,66433,6,0,P|25:143|-4:199,2,88,2|0|8,0:0|0:0|0:0,0:0:0:0:
171,231,66939,1,0,0:0:0:0:
86,206,67107,1,2,0:0:0:0:
234,169,67276,1,2,0:0:0:0:
233,294,67444,1,8,0:0:0:0:
296,232,67613,1,0,0:0:0:0:
147,316,67781,6,0,P|176:362|226:384,1,88,2|0,0:0|0:0,0:0:0:0:
149,145,68118,2,0,P|103:174|81:224,1,88,8|0,0:0|0:0,0:0:0:0:
320,147,68455,2,0,P|291:101|241:79,1,88,2|0,0:0|0:0,0:0:0:0:
318,318,68792,2,0,P|364:289|386:239,1,88,8|0,0:0|0:0,0:0:0:0:
171,231,69130,5,2,0:0:0:0:
233,294,69298,1,2,0:0:0:0:
234,169,69467,1,8,0:0:0:0:
296,232,69635,1,0,0:0:0:0:
147,316,69804,1,2,0:0:0:0:
148,145,69972,1,2,0:0:0:0:
318,318,70141,2,0,P|364:289|386:239,1,88,8|0,0:0|0:0,0:0:0:0:
371,85,70478,6,0,L|376:172,1,88,2|0,0:0|0:0,0:0:0:0:
152,57,70815,2,0,L|147:144,1,88,8|0,0:0|0:0,0:0:0:0:
283,103,71152,1,2,0:0:0:0:
287,190,71321,1,2,0:0:0:0:
63,74,71489,1,8,0:0:0:0:
58,161,71657,1,0,0:0:0:0:
279,16,71826,6,0,P|337:35|367:80,1,88,2|0,0:0|0:0,0:0:0:0:
147,144,72163,1,8,0:0:0:0:
283,103,72332,1,0,0:0:0:0:
66,34,72500,1,2,0:0:0:0:
201,75,72669,1,2,0:0:0:0:
61,209,72837,2,0,L|63:121,1,88,8|0,0:0|0:0,0:0:0:0:
285,190,73174,6,0,L|287:278,1,88,12|0,0:0|0:0,0:0:0:0:
287,278,73427,1,2,0:0:0:0:
287,278,73512,1,8,0:0:0:0:
166,143,73680,2,0,L|191:227,1,88,8|0,0:0|0:0,0:0:0:0:
191,227,73933,1,2,0:0:0:0:
191,227,74018,1,8,0:0:0:0:
38,127,74186,1,8,0:0:0:0:
49,145,74270,1,0,0:0:0:0:
61,164,74354,1,0,0:0:0:0:
72,183,74438,1,2,0:0:0:0:
84,202,74523,6,0,B|119:244|186:219|206:178|182:126|182:126|162:173,1,224.40000428009,12|0,0:0|0:0,0:0:0:0:
117,76,75197,6,0,B|148:32|224:28|258:89|258:89|367:90,1,264,8|0,0:0|0:0,0:0:0:0:
484,7,75871,6,0,P|456:40|450:83,1,88,12|0,0:0|0:0,0:0:0:0:
343,242,76208,1,2,0:0:0:0:
352,89,76377,2,0,P|379:122|385:165,1,88,8|0,0:0|0:0,0:0:0:0:
493,324,76713,1,2,0:0:0:0:
484,171,76882,2,0,P|456:204|450:247,1,88,8|0,0:0|0:0,0:0:0:0:
300,318,77219,1,2,0:0:0:0:
211,171,77388,2,0,P|239:204|245:248,1,88,8|0,0:0|0:0,0:0:0:0:
212,330,77725,1,2,0:0:0:0:
276,112,77894,5,2,0:0:0:0:
211,171,78062,1,2,0:0:0:0:
424,79,78231,1,0,0:0:0:0:
341,53,78399,1,0,0:0:0:0:
460,247,78568,5,8,0:0:0:0:
442,163,78736,1,0,0:0:0:0:
442,163,78821,1,2,0:0:0:0:
442,163,78905,1,8,0:0:0:0:
276,112,79073,1,8,0:0:0:0:
302,204,79242,1,0,0:0:0:0:
302,204,79326,1,2,0:0:0:0:
302,204,79410,1,8,0:0:0:0:
341,53,79579,1,8,0:0:0:0:
211,171,79748,6,0,P|213:231|238:262,1,88,0|2,0:0|0:0,0:0:0:0:
138,95,80085,2,0,P|136:155|111:186,1,88,4|0,0:0|0:0,0:0:0:0:
12,132,80422,2,0,L|55:120,1,44,2|0,0:0|0:0,0:0:0:0:
221,70,80590,1,8,0:0:0:0:
157,10,80759,1,2,0:0:0:0:
121,176,80927,2,0,L|140:291,1,88,8|0,0:0|0:0,0:0:0:0:
285,130,81264,5,8,0:0:0:0:
138,95,81433,1,0,0:0:0:0:
266,215,81601,1,8,0:0:0:0:
182,241,81770,5,2,0:0:0:0:
201,156,81939,1,0,0:0:0:0:
331,274,82107,1,8,0:0:0:0:
304,45,82276,5,2,0:0:0:0:
266,215,82444,1,0,0:0:0:0:
349,188,82613,1,8,0:0:0:0:
201,156,82781,5,2,0:0:0:0:
367,102,82950,1,0,0:0:0:0:
331,274,83118,1,8,0:0:0:0:
415,247,83287,5,2,0:0:0:0:
266,215,83455,1,8,0:0:0:0:
367,102,83624,1,8,0:0:0:0:
349,188,83792,1,0,0:0:0:0:
221,70,83961,5,2,0:0:0:0:
266,215,84130,1,0,0:0:0:0:
285,130,84298,1,8,0:0:0:0:
247,300,84467,5,2,0:0:0:0:
349,188,84635,1,0,0:0:0:0:
182,241,84804,1,8,0:0:0:0:
201,156,84972,5,2,0:0:0:0:
99,268,85140,1,0,0:0:0:0:
266,215,85309,1,8,0:0:0:0:
136,97,85478,5,2,0:0:0:0:
118,183,85646,1,0,0:0:0:0:
285,130,85815,1,8,0:0:0:0:
52,124,85983,5,2,0:0:0:0:
99,268,86152,1,0,0:0:0:0:
202,157,86321,2,0,L|96:188,1,88,8|0,0:0|0:0,0:0:0:0:
310,157,86658,6,0,L|415:188,1,88
196,327,86995,2,0,P|182:286|191:243,1,88
320,243,87332,2,0,P|329:286|315:327,1,88
256,87,87669,1,0,0:0:0:0:
22,176,88006,6,0,L|12:118,1,44,2|0,0:0|0:0,0:0:0:0:
60,62,88174,2,0,L|52:105,1,44,2|0,0:0|0:0,0:0:0:0:
99,165,88343,2,0,L|157:155,1,44,8|0,0:0|0:0,0:0:0:0:
172,77,88512,2,0,L|129:85,1,44,2|0,0:0|0:0,0:0:0:0:
211,187,88680,2,0,L|221:129,1,44,8|0,0:0|0:0,0:0:0:0:
339,77,88849,2,0,L|383:85,1,44,10|0,0:0|0:0,0:0:0:0:
301,187,89017,2,0,L|293:143,1,44,8|0,0:0|0:0,0:0:0:0:
452,62,89186,2,0,L|459:105,1,44,2|0,0:0|0:0,0:0:0:0:
413,165,89355,2,0,L|369:157,1,44,8|0,0:0|0:0,0:0:0:0:
345,33,89523,2,0,L|338:77,1,44,4|0,0:0|0:0,0:0:0:0:
