osu file format v14

[General]
AudioFilename: audio.mp3
AudioLeadIn: 0
PreviewTime: 31250
Countdown: 0
SampleSet: None
StackLeniency: 0.4
Mode: 0
LetterboxInBreaks: 0
WidescreenStoryboard: 0

[Editor]
Bookmarks: 43512
DistanceSpacing: 0.9
BeatDivisor: 4
GridSize: 32
TimelineZoom: 2.3

[Metadata]
Title:Hikari Are (Anime Version)
TitleUnicode:ヒカリアレ(アニメバージョン)
Artist:BURNOUT SYNDROMES
ArtistUnicode:BURNOUT SYNDROMES
Creator:Monstrata
Version:Irohas' Normal
Source:ハイキュー!! 烏野高校 VS 白鳥沢学園高校
Tags:iyiyo haruto haruto_aizawa mugiwarasekai pata-mon irohas haikyu haikyuu let there be light Karasuno Koukou VS Shiratorizawa Gakuen Koukou third season
BeatmapID:1158418
BeatmapSetID:531938

[Difficulty]
HPDrainRate:4
CircleSize:3.5
OverallDifficulty:4
ApproachRate:5
SliderMultiplier:1.14
SliderTickRate:1

[Events]
//Background and Video events
0,0,"741751.jpg",0,0
//Break Periods
//Storyboard Layer 0 (Background)
//Storyboard Layer 1 (Fail)
//Storyboard Layer 2 (Pass)
//Storyboard Layer 3 (Foreground)
//Storyboard Sound Samples

[TimingPoints]
366,337.078651685393,4,3,1,80,1,0
366,-100,4,3,1,80,0,0
11152,-100,4,3,1,80,0,0
21939,-100,4,3,1,80,0,0
27332,-100,4,3,1,80,0,0
31714,-100,4,3,1,80,0,0
32051,-100,4,3,1,80,0,0
32725,-100,4,3,1,80,0,1
33062,-100,4,3,1,80,0,1
42163,-100,4,3,1,80,0,0
43512,-100,4,3,1,80,0,1
52950,-100,4,3,1,80,0,0
54298,-100,4,3,1,80,0,1
63736,-100,4,3,1,80,0,0
65085,-100,4,3,1,80,0,1
74186,-100,4,3,1,80,0,0
74439,-100,4,3,1,80,0,0
74523,-100,4,3,1,80,0,0
75197,-100,4,3,1,80,0,0
75871,-100,4,3,1,80,0,0
80000,-100,4,3,1,80,0,0
80085,-100,4,3,1,80,0,0
86658,-100,4,3,1,80,0,0

[Colours]
Combo1 : 128,255,128
Combo2 : 255,255,128
Combo3 : 255,168,81

[HitObjects]
62,140,366,6,0,P|104:97|175:97,1,114,2|0,0:2|0:0,0:0:0:0:
248,48,1040,2,0,P|310:52|373:57,1,114,2|0,0:2|0:0,0:0:0:0:
458,90,1714,2,0,P|439:146|457:198,1,114,2|0,0:2|0:0,0:0:0:0:
408,287,2388,1,0,0:0:0:0:
326,224,2725,1,2,0:2:0:0:
240,281,3062,6,0,P|178:285|115:290,2,114,2|0|2,0:2|0:0|0:2,0:0:0:0:
305,360,4073,1,0,0:0:0:0:
391,305,4410,2,0,P|453:309|516:314,2,114,2|0|2,0:2|0:0|0:2,0:0:0:0:
326,224,5422,2,0,P|329:186|336:158,1,57
359,123,5759,6,0,P|299:127|236:134,1,114,2|0,0:2|0:0,0:0:0:0:
188,217,6433,2,0,P|131:210|74:207,1,114,2|0,0:2|0:0,0:0:0:0:
20,120,7107,2,0,P|76:113|133:110,1,114,2|0,0:2|0:0,0:0:0:0:
226,67,7781,1,2,0:2:0:0:
315,117,8118,1,0,0:0:0:0:
405,68,8455,6,0,P|418:117|402:179,2,114,2|0|2,0:2|0:0|0:2,0:0:0:0:
314,19,9467,1,0,0:0:0:0:
226,67,9804,2,0,P|189:61|162:58,2,57,2|2|0,0:2|0:2|0:2,0:0:0:0:
315,117,10478,2,0,P|320:152|314:193,1,57,0|2,0:0|0:2,0:0:0:0:
278,206,10815,2,0,P|273:234|274:262,1,57,2|0,0:2|0:0,0:0:0:0:
263,317,11152,6,0,P|211:311|147:308,1,114,6|2,0:2|0:0,0:0:0:0:
62,254,11826,2,0,P|33:250|-4:247,2,57,2|0|2,0:2|0:0|0:0,0:0:0:0:
148,199,12500,2,0,P|160:138|141:84,1,114,2|2,0:2|0:0,0:0:0:0:
230,32,13174,2,0,P|259:40|289:44,1,57,2|8,0:2|0:0,0:0:0:0:
307,90,13512,2,0,P|336:92|367:91,1,57,8|8,0:0|0:0,0:0:0:0:
410,78,13849,6,0,P|414:141|419:198,1,114,2|2,0:2|0:0,0:0:0:0:
356,273,14523,2,0,P|353:304|358:337,2,57,2|0|2,0:2|0:0|0:0,0:0:0:0:
292,192,15197,2,0,P|239:174|184:191,1,114,2|8,0:2|0:0,0:0:0:0:
139,212,15702,1,0,0:0:0:0:
139,212,15871,2,0,P|137:172|134:143,1,57,8|2,0:0|0:0,0:0:0:0:
86,140,16208,2,0,P|83:105|81:83,1,57,2|2,0:0|0:0,0:0:0:0:
106,38,16545,6,0,P|165:40|224:46,1,114,2|2,0:2|0:0,0:0:0:0:
317,71,17219,2,0,P|347:67|386:66,2,57,2|0|2,0:2|0:0|0:0,0:0:0:0:
233,131,17894,2,0,B|222:176|222:176|234:252,1,114,2|2,0:0|0:0,0:0:0:0:
282,332,18568,2,0,P|314:314|346:310,1,57,2|0,0:2|0:0,0:0:0:0:
376,281,18905,2,0,P|411:278|448:284,1,57,2|0,0:0|0:0,0:0:0:0:
479,259,19242,6,0,P|473:205|466:145,1,114,6|8,0:2|0:0,0:0:0:0:
411,58,19916,2,0,P|373:34|301:42,1,114,0|2,0:0|0:0,0:0:0:0:
224,103,20590,1,2,0:2:0:0:
224,103,21939,6,0,P|230:156|236:223,1,114,12|2,0:0|0:0,0:0:0:0:
237,267,22444,1,8,0:0:0:0:
320,326,22781,1,2,0:0:0:0:
320,326,22950,2,0,P|377:346|433:325,1,114,8|2,0:0|0:0,0:0:0:0:
459,291,23455,1,8,0:0:0:0:
488,192,23792,1,2,0:0:0:0:
488,192,23961,2,0,B|483:132|476:71,1,114,8|2,0:0|0:0,0:0:0:0:
374,66,24635,6,0,P|317:46|261:67,1,114,12|0,0:0|0:0,0:0:0:0:
228,94,25140,1,10,0:2:0:0:
177,183,25478,1,0,0:0:0:0:
177,183,25646,2,0,P|184:241|193:307,1,114,10|0,0:2|0:0,0:0:0:0:
200,346,26152,1,10,0:2:0:0:
102,314,26489,1,0,0:0:0:0:
102,314,26658,2,0,P|94:257|87:200,1,114,2|2,0:0|0:0,0:0:0:0:
98,99,27332,6,0,P|138:65|213:70,1,114,2|8,0:2|0:0,0:0:0:0:
271,134,28006,2,0,P|273:168|277:200,2,57,0|8|2,0:0|0:0|0:2,0:0:0:0:
298,90,28512,1,0,0:0:0:0:
298,90,28680,2,0,B|337:84|337:84|386:89|411:92,1,114,8|0,0:0|0:0,0:0:0:0:
494,151,29354,2,0,B|500:182|500:182|497:216,1,57,2|0,0:2|0:0,0:0:0:0:
490,258,29691,1,10,0:2:0:0:
435,344,30028,6,0,P|400:348|363:340,1,57,8|2,0:0|0:0,0:0:0:0:
325,257,30534,2,0,B|286:251|286:251|237:256|205:260,1,114,8|2,0:0|0:0,0:0:0:0:
160,253,31040,1,8,0:0:0:0:
83,321,31377,2,0,P|86:351|88:382,2,57,0|0|8,0:0|0:0|0:0,0:0:0:0:
50,227,32051,2,0,P|51:198|54:170,1,57,2|8,0:0|0:0,0:0:0:0:
101,149,32388,2,0,P|99:120|96:92,1,57,2|8,0:0|0:0,0:0:0:0:
68,48,32725,6,0,P|124:45|181:41,1,114,6|8,0:0|0:0,0:0:0:0:
275,82,33399,2,0,P|305:82|350:87,2,57,0|0|8,0:0|0:0|0:0,0:0:0:0:
238,118,33905,1,0,0:0:0:0:
238,118,34073,2,0,P|220:174|235:226,1,114,2|8,0:0|0:0,0:0:0:0:
293,314,34748,2,0,P|331:309|368:307,1,57,2|2,0:0|0:0,0:0:0:0:
378,264,35085,2,0,P|416:259|453:257,1,57,8|0,0:0|0:0,0:0:0:0:
486,256,35422,6,0,P|473:200|485:145,1,114,2|8,0:0|0:0,0:0:0:0:
448,49,36096,2,0,P|419:37|383:39,1,57,2|2,0:0|0:0,0:0:0:0:
343,49,36433,1,8,0:0:0:0:
263,114,36770,2,0,P|273:144|276:182,1,57,2|0,0:0|0:0,0:0:0:0:
319,197,37107,2,0,P|310:244|308:320,1,114,8|2,0:0|0:0,0:0:0:0:
284,355,37613,1,0,0:0:0:0:
284,355,37781,1,8,0:0:0:0:
191,311,38118,6,0,P|131:308|60:306,1,114,6|8,0:0|0:0,0:0:0:0:
131,219,38792,2,0,P|159:221|204:223,2,57,2|2|8,0:0|0:0|0:0,0:0:0:0:
81,208,39298,1,0,0:0:0:0:
81,208,39467,2,0,P|63:153|81:96,1,114,2|8,0:0|0:0,0:0:0:0:
161,41,40141,2,0,P|189:32|225:36,1,57,2|0,0:0|0:0,0:0:0:0:
263,54,40478,1,8,0:0:0:0:
351,106,40815,6,0,B|380:184|329:196|354:273,2,171,4|12|8,0:0|0:0|0:0,0:0:0:0:
261,156,42163,2,0,P|199:150|131:146,1,114,2|8,0:0|0:0,0:0:0:0:
71,215,42837,2,0,P|80:250|81:292,1,57,8|0,0:0|0:0,0:0:0:0:
88,321,43174,1,8,0:0:0:0:
174,376,43512,6,0,P|221:333|286:333,1,114,6|8,0:0|0:0,0:0:0:0:
368,302,44186,2,0,P|400:305|433:311,2,57,2|0|8,0:0|0:0|0:0,0:0:0:0:
329,267,44691,1,0,0:0:0:0:
329,267,44860,2,0,P|345:207|327:145,1,114,2|8,0:0|0:0,0:0:0:0:
250,97,45534,2,0,P|213:99|179:103,1,57,2|2,0:0|0:0,0:0:0:0:
157,63,45871,2,0,P|128:64|100:67,1,57,8|0,0:0|0:0,0:0:0:0:
51,49,46208,6,0,P|58:92|67:165,1,114,2|8,0:0|0:0,0:0:0:0:
115,243,46882,2,0,P|149:254|186:251,1,57,2|0,0:0|0:0,0:0:0:0:
212,235,47219,1,8,0:0:0:0:
299,180,47557,2,0,P|294:139|291:113,1,57,2|0,0:0|0:0,0:0:0:0:
294,72,47894,2,0,P|246:74|167:81,1,114,8|2,0:0|0:0,0:0:0:0:
137,51,48399,1,0,0:0:0:0:
137,51,48568,1,8,0:0:0:0:
55,112,48905,6,0,P|37:167|48:232,1,114,4|8,0:0|0:0,0:0:0:0:
116,294,49579,2,0,P|119:327|113:365,2,57,2|2|8,0:0|0:0|0:0,0:0:0:0:
155,261,50085,1,0,0:0:0:0:
155,261,50253,2,0,P|190:242|270:253,1,114,8|2,0:0|0:0,0:0:0:0:
350,299,50927,2,0,P|346:242|342:185,1,114,0|8,0:0|0:0,0:0:0:0:
294,94,51601,6,0,P|259:75|179:86,1,114,4|8,0:0|0:0,0:0:0:0:
148,115,52107,2,0,P|143:171|140:228,1,114,6|8,0:0|0:0,0:0:0:0:
136,280,52613,1,8,0:0:0:0:
229,322,52950,2,0,P|288:318|355:312,1,114,8|8,0:0|0:0,0:0:0:0:
314,215,53624,2,8,P|374:220|428:224,1,114
496,148,54298,6,0,P|457:103|392:104,1,114,6|8,0:0|0:0,0:0:0:0:
321,158,54972,2,0,P|314:191|314:221,2,57,2|0|8,0:0|0:0|0:0,0:0:0:0:
309,107,55478,1,0,0:0:0:0:
309,107,55646,2,0,P|246:101|180:96,1,114,2|8,0:0|0:0,0:0:0:0:
95,122,56321,2,0,P|104:155|107:190,1,57,2|2,0:0|0:0,0:0:0:0:
141,215,56658,2,0,P|133:242|129:270,1,57,8|0,0:0|0:0,0:0:0:0:
140,318,56995,6,0,P|196:335|257:310,1,114,2|8,0:0|0:0,0:0:0:0:
320,246,57669,2,0,P|353:238|391:243,1,57,2|0,0:0|0:0,0:0:0:0:
422,260,58006,1,8,0:0:0:0:
494,187,58343,2,0,P|487:131|476:59,1,114,2|8,0:0|0:0,0:0:0:0:
378,53,59017,2,0,P|322:36|261:61,1,114,2|8,0:0|0:0,0:0:0:0:
168,53,59691,6,0,P|176:109|183:165,1,114,6|8,0:0|0:0,0:0:0:0:
249,244,60365,2,0,P|245:275|244:318,2,57,2|0|8,0:0|0:0|0:0,0:0:0:0:
276,200,60871,1,0,0:0:0:0:
276,200,61040,2,0,B|309:187|309:187|354:189|403:194,1,114,2|8,0:0|0:0,0:0:0:0:
474,160,61714,2,0,B|477:125|477:125|471:91,1,57,2|2,0:0|0:0,0:0:0:0:
450,57,62051,1,8,0:0:0:0:
354,91,62388,6,0,P|293:87|229:85,1,114,12|8,0:0|0:0,0:0:0:0:
191,67,62894,2,0,P|134:69|77:72,1,114,6|2,0:0|0:0,0:0:0:0:
29,90,63399,1,8,0:0:0:0:
102,162,63736,2,0,P|122:212|107:277,1,114,2|8,0:0|0:0,0:0:0:0:
167,354,64410,2,0,B|209:341|209:341|248:343|293:348,1,114,8|8,0:0|0:0,0:0:0:0:
356,279,65085,6,0,P|342:223|360:170,1,114,6|8,0:0|0:0,0:0:0:0:
440,108,65759,2,0,P|468:110|503:114,2,57,2|2|8,0:0|0:0|0:0,0:0:0:0:
396,80,66264,1,0,0:0:0:0:
396,80,66433,2,0,B|354:67|354:67|315:69|270:74,1,114,2|8,0:0|0:0,0:0:0:0:
183,51,67107,2,0,P|154:53|126:56,1,57,2|2,0:0|0:0,0:0:0:0:
108,104,67444,2,0,P|79:106|51:109,1,57,8|0,0:0|0:0,0:0:0:0:
13,144,67781,6,0,P|20:189|27:266,1,114,2|8,0:0|0:0,0:0:0:0:
103,325,68455,2,0,P|128:305|162:299,1,57,2|0,0:0|0:0,0:0:0:0:
202,291,68792,1,8,0:0:0:0:
296,331,69130,2,0,P|333:332|371:338,1,57,2|2,0:0|0:0,0:0:0:0:
398,309,69467,2,0,P|409:248|391:199,1,114,8|2,0:0|0:0,0:0:0:0:
385,149,69972,1,2,0:0:0:0:
385,149,70141,1,8,0:0:0:0:
285,125,70478,6,0,P|232:128|153:134,1,114,4|8,0:0|0:0,0:0:0:0:
75,168,71152,2,0,P|46:164|12:161,2,57,2|2|8,0:0|0:0|0:0,0:0:0:0:
118,195,71658,1,0,0:0:0:0:
118,195,71826,2,0,P|115:250|111:312,1,114,2|8,0:0|0:0,0:0:0:0:
194,368,72500,2,0,P|229:335|305:330,1,114,2|8,0:0|0:0,0:0:0:0:
381,376,73174,6,0,B|390:340|390:340|387:309|382:258,1,114,12|8,0:0|0:0,0:0:0:0:
341,232,73680,2,0,B|332:196|332:196|335:165|340:114,1,114,12|8,0:0|0:0,0:0:0:0:
372,80,74186,1,8,0:0:0:0:
275,42,74523,2,0,B|214:19|163:49|163:49|107:81|46:45,1,228,12|8,0:0|0:0,0:0:0:0:
56,50,75871,6,0,P|39:102|47:162,1,114,12|2,0:0|0:0,0:0:0:0:
72,204,76377,1,8,0:0:0:0:
156,264,76714,1,2,0:0:0:0:
156,264,76882,2,0,P|216:260|280:256,1,114,12|2,0:0|0:0,0:0:0:0:
320,242,77388,1,2,0:0:0:0:
405,185,77725,1,2,0:0:0:0:
405,185,77894,2,0,P|413:128|396:75,1,114,6|0,0:0|0:0,0:0:0:0:
303,30,78568,6,0,P|247:33|190:37,1,114,12|8,0:0|0:0,0:0:0:0:
141,17,79073,1,8,0:0:0:0:
47,58,79410,2,0,P|53:99|57:133,1,57,8|12,0:0|0:0,0:0:0:0:
21,153,79748,1,0,0:0:0:0:
112,198,80085,2,0,P|128:252|119:311,1,114,0|2,0:0|0:0,0:0:0:0:
155,344,80590,2,0,P|208:364|262:345,1,114,12|8,0:0|0:0,0:0:0:0:
358,317,81264,6,0,P|356:263|349:190,1,114,8|8,0:0|0:0,0:0:0:0:
352,151,81770,1,2,0:0:0:0:
282,75,82107,2,0,P|281:40|280:6,2,57,8|2|0,0:0|0:0|0:0,0:0:0:0:
267,124,82613,1,8,0:0:0:0:
267,124,82781,2,0,P|211:139|158:122,1,114,2|8,0:0|0:0,0:0:0:0:
142,74,83287,2,0,P|95:76|17:79,1,114,2|8,0:0|0:0,0:0:0:0:
4,178,83961,6,0,P|-12:231|2:295,1,114,2|8,0:0|0:0,0:0:0:0:
31,326,84467,1,2,0:0:0:0:
121,278,84804,2,0,P|119:245|116:207,2,57,8|2|0,0:0|0:0|0:0,0:0:0:0:
152,319,85309,1,8,0:0:0:0:
152,319,85478,2,0,P|210:316|271:315,1,114,2|8,0:0|0:0,0:0:0:0:
303,278,85983,2,0,P|341:244|416:247,1,114,2|8,0:0|0:0,0:0:0:0:
494,284,86658,5,0,0:0:0:0:
256,192,88006,12,0,89523,0:0:0:0:
