osu file format v14

[General]
AudioFilename: audio.mp3
AudioLeadIn: 0
PreviewTime: 31292
Countdown: 0
SampleSet: None
StackLeniency: 0.7
Mode: 2
LetterboxInBreaks: 0
WidescreenStoryboard: 0

[Editor]
DistanceSpacing: 1
BeatDivisor: 4
GridSize: 32
TimelineZoom: 1.7

[Metadata]
Title:Hikari Are (Anime Version)
TitleUnicode:ヒカリアレ(アニメバージョン)
Artist:BURNOUT SYNDROMES
ArtistUnicode:BURNOUT SYNDROMES
Creator:Ascendance
Version:The View from the Top
Source:ハイキュー!! 烏野高校 VS 白鳥沢学園高校
Tags:haikyu haikyuu let there be light Karasuno Koukou VS Shiratorizawa Gakuen Koukou third season
BeatmapID:1519186
BeatmapSetID:719392

[Difficulty]
HPDrainRate:7
CircleSize:4.2
OverallDifficulty:9.4
ApproachRate:9.4
SliderMultiplier:1.96
SliderTickRate:2

[Events]
//Background and Video events
0,0,"Best-Haikyuu-Wallpapers-Picture-1366x768.png",0,0
//Break Periods
//Storyboard Layer 0 (Background)
//Storyboard Layer 1 (Fail)
//Storyboard Layer 2 (Pass)
//Storyboard Layer 3 (Foreground)
//Storyboard Sound Samples

[TimingPoints]
366,337.078651685393,4,3,1,80,1,0
366,-117.647058823529,4,3,1,80,0,0
11152,-100,4,3,1,80,0,0
21854,-100,4,3,1,5,0,0
21939,-100,4,3,1,80,0,0
47557,-100,4,3,1,45,0,0
47641,-100,4,3,1,80,0,0
53203,-100,4,3,1,5,0,0
53287,-100,4,3,1,80,0,0
53540,-100,4,3,1,5,0,0
53624,-100,4,3,1,80,0,0
53877,-100,4,3,1,5,0,0
53961,-100,4,3,1,80,0,0
54214,-100,4,3,1,5,0,0
54298,-100,4,3,1,80,0,0
74523,-100,4,3,1,80,0,0
75197,-100,4,3,1,80,0,0
89523,-100,4,3,1,45,0,0
89607,-100,4,3,1,5,0,0

[HitObjects]
115,72,197,5,0,0:0:0:0:
216,148,366,2,0,L|35:155,1,166.600003177643,2|0,0:2|0:0,0:0:0:0:
157,243,871,1,0,0:0:0:0:
322,337,1040,2,0,L|337:160,1,166.600003177643,2|0,0:2|0:0,0:0:0:0:
200,230,1545,1,0,0:0:0:0:
367,141,1714,6,0,L|178:124,1,166.600003177643,2|0,0:2|0:0,0:0:0:0:
306,258,2219,2,0,L|479:247,1,166.600003177643,2|2,0:2|0:2,0:0:0:0:
282,363,2725,2,0,L|177:354,1,83.3000015888214,2|0,0:2|0:0,0:0:0:0:
383,308,3062,6,0,P|424:239|354:169,1,166.600003177643,2|0,0:2|0:0,0:0:0:0:
287,170,3568,1,0,0:0:0:0:
120,170,3736,2,0,L|310:169,1,166.600003177643,2|0,0:2|0:0,0:0:0:0:
178,97,4242,1,0,0:0:0:0:
60,89,4410,6,0,P|7:147|71:208,1,166.600003177643,2|0,0:2|0:0,0:0:0:0:
160,206,4916,1,2,0:2:0:0:
9,289,5085,2,0,L|196:290,1,166.600003177643,2|0,0:2|0:0,0:0:0:0:
263,287,5590,1,0,0:0:0:0:
423,285,5759,6,0,L|242:285,1,166.600003177643,2|0,0:2|0:0,0:0:0:0:
157,281,6264,1,0,0:0:0:0:
319,283,6433,2,0,L|141:281,1,166.600003177643,2|0,0:2|0:0,0:0:0:0:
23,283,6939,1,0,0:0:0:0:
191,321,7107,6,0,L|199:141,1,166.600003177643,2|0,0:2|0:0,0:0:0:0:
70,197,7613,1,0,0:0:0:0:
248,112,7781,2,0,L|421:115,1,166.600003177643,2|0,0:2|0:0,0:0:0:0:
308,40,8287,1,0,0:0:0:0:
152,36,8455,6,0,P|93:79|147:168,1,166.600003177643,2|0,0:2|0:0,0:0:0:0:
241,171,8961,1,0,0:0:0:0:
77,241,9130,2,0,L|251:242,1,166.600003177643,2|0,0:2|0:0,0:0:0:0:
126,315,9635,1,0,0:0:0:0:
239,315,9804,5,0,0:2:0:0:
104,313,9972,2,0,L|-5:314,2,83.3000015888214,2|0|2,0:2|0:2|0:2,0:0:0:0:
224,332,10478,2,0,L|317:332,1,83.3000015888214,0|2,0:0|0:2,0:0:0:0:
148,261,10815,2,0,L|46:261,1,83.3000015888214,2|0,0:2|0:0,0:0:0:0:
120,236,11068,1,0,0:0:0:0:
318,293,11152,6,0,L|339:184,1,98,6|0,0:2|0:0,0:0:0:0:
207,80,11489,2,0,L|226:199,1,98,2|0,0:0|0:0,0:0:0:0:
378,106,11826,2,0,L|259:120,1,98,2|0,0:2|0:0,0:0:0:0:
161,198,12163,2,0,L|27:210,1,98,2|0,0:0|0:0,0:0:0:0:
226,292,12500,6,0,L|252:192,1,98,2|0,0:2|0:0,0:0:0:0:
130,101,12837,2,0,L|234:91,1,98,2|0,0:0|0:0,0:0:0:0:
371,178,13174,2,0,L|259:168,1,98,2|8,0:2|0:0,0:0:0:0:
144,155,13512,1,8,0:0:0:0:
309,100,13680,1,8,0:0:0:0:
67,92,13849,6,0,L|74:206,1,98,2|0,0:2|0:0,0:0:0:0:
211,202,14186,2,0,L|222:311,1,98,2|0,0:0|0:0,0:0:0:0:
90,281,14523,2,0,L|201:264,1,98,2|0,0:2|0:0,0:0:0:0:
299,140,14860,2,0,L|192:160,1,98,2|0,0:0|0:0,0:0:0:0:
381,222,15197,5,2,0:2:0:0:
255,178,15365,2,0,L|255:59,1,98,8|8,0:0|0:0,0:0:0:0:
360,37,15703,1,8,0:0:0:0:
230,113,15871,2,0,L|113:113,1,98,8|2,0:0|0:0,0:0:0:0:
299,179,16208,2,0,L|430:178,1,98,2|2,0:0|0:0,0:0:0:0:
124,339,16545,6,0,L|109:229,1,98,2|0,0:2|0:0,0:0:0:0:
207,181,16882,2,0,L|103:162,1,98,2|2,0:0|0:2,0:0:0:0:
223,270,17219,2,0,L|336:254,1,98,2|0,0:2|0:0,0:0:0:0:
433,328,17557,2,0,L|456:212,1,98,2|2,0:0|0:2,0:0:0:0:
191,185,17894,5,6,0:2:0:0:
296,152,18062,2,0,L|301:77,2,49,0|0|2,0:0|0:0|0:0,0:0:0:0:
181,192,18399,1,0,0:0:0:0:
70,194,18568,1,2,0:2:0:0:
192,192,18736,2,0,L|269:192,2,49,0|0|2,0:0|0:0|0:0,0:0:0:0:
56,193,19073,2,0,L|117:193,1,49,0|0,0:0|0:0,0:0:0:0:
276,243,19242,6,0,L|479:244,1,196,6|8,0:2|0:0,0:0:0:0:
349,217,19748,1,6,0:2:0:0:
197,215,19916,2,0,L|80:215,1,98,0|8,0:0|0:0,0:0:0:0:
361,148,20253,2,0,L|485:148,1,98,2|0,0:0|0:0,0:0:0:0:
51,57,20590,6,0,L|254:73,2,196,2|2|2,0:2|0:2|0:2,0:0:0:0:
150,159,21433,2,0,L|208:153,1,49,2|0,0:0|0:0,0:0:0:0:
439,220,21601,2,0,L|324:209,1,98,8|0,0:0|0:0,0:0:0:0:
72,338,21939,6,0,L|69:277,1,49,12|0,0:0|0:0,0:0:0:0:
121,255,22107,1,0,0:0:0:0:
281,250,22276,1,2,0:0:0:0:
36,193,22444,2,0,P|24:110|116:45,1,196,8|2,0:0|0:0,0:0:0:0:
367,174,22950,5,8,0:0:0:0:
415,169,23034,1,0,0:0:0:0:
464,164,23118,1,0,0:0:0:0:
297,103,23287,1,2,0:0:0:0:
40,54,23455,2,0,L|42:157,1,98,8|0,0:0|0:0,0:0:0:0:
191,192,23792,2,0,L|254:197,1,49,2|0,0:0|0:0,0:0:0:0:
67,346,23961,5,8,0:0:0:0:
38,302,24045,1,0,0:0:0:0:
46,254,24129,1,8,0:0:0:0:
88,220,24213,1,0,0:0:0:0:
285,215,24298,2,0,L|366:216,1,49,2|0,0:0|0:0,0:0:0:0:
136,127,24467,2,0,L|77:127,1,49,2|0,0:0|0:0,0:0:0:0:
321,80,24635,6,0,L|386:80,2,49,12|0|2,0:0|0:0|0:2,0:0:0:0:
192,79,24972,1,0,0:0:0:0:
430,238,25141,2,0,P|469:158|381:88,1,196,10|0,0:2|0:0,0:0:0:0:
137,77,25646,5,10,0:2:0:0:
185,75,25730,1,0,0:0:0:0:
234,73,25814,1,0,0:0:0:0:
58,23,25983,1,0,0:0:0:0:
344,204,26152,2,0,L|141:190,1,196,10|0,0:2|0:0,0:0:0:0:
408,340,26658,6,0,L|426:275,1,49,2|0,0:0|0:0,0:0:0:0:
262,236,26826,2,0,L|277:174,1,49,0|0,0:0|0:0,0:0:0:0:
458,133,26995,2,0,L|398:132,1,49,2|0,0:0|0:0,0:0:0:0:
240,97,27163,2,0,L|165:97,1,49,0|0,0:0|0:0,0:0:0:0:
429,47,27332,6,0,L|507:46,2,49,2|0|0,0:2|0:0|0:0,0:0:0:0:
310,47,27669,1,8,0:0:0:0:
78,99,27837,2,0,L|210:99,1,98,2|0,0:2|0:0,0:0:0:0:
317,96,28174,1,8,0:0:0:0:
44,182,28343,5,2,0:2:0:0:
93,182,28427,1,0,0:0:0:0:
142,182,28511,1,0,0:0:0:0:
17,229,28680,1,8,0:0:0:0:
328,260,28849,2,0,L|441:261,2,98,2|0|8,0:2|0:0|0:0,0:0:0:0:
65,339,29354,2,0,L|187:339,1,98,2|0,0:2|0:0,0:0:0:0:
423,346,29691,2,0,L|304:346,1,98,10|0,0:2|0:0,0:0:0:0:
68,341,30028,5,8,0:0:0:0:
461,230,30197,1,8,0:0:0:0:
194,107,30534,2,0,L|417:123,1,196,2|8,0:0|0:0,0:0:0:0:
80,233,31040,2,0,L|68:117,1,98,2|0,0:0|0:0,0:0:0:0:
315,324,31377,6,0,L|320:255,1,49,0|0,0:0|0:0,0:0:0:0:
241,252,31545,2,0,L|244:180,1,49,0|0,0:0|0:0,0:0:0:0:
452,161,31714,2,0,L|376:151,1,49,8|0,0:0|0:0,0:0:0:0:
257,100,31882,2,0,L|183:90,1,49,0|0,0:0|0:0,0:0:0:0:
381,24,32051,5,2,0:0:0:0:
447,73,32135,2,0,L|456:129,2,49,2|8|2,0:0|0:0|0:0,0:0:0:0:
257,100,32388,2,0,L|177:105,1,49,2|2,0:0|0:0,0:0:0:0:
371,198,32557,2,0,L|444:191,1,49,8|0,0:0|0:0,0:0:0:0:
188,345,32725,6,0,P|146:262|220:192,1,196,6|8,0:0|0:0,0:0:0:0:
328,188,33231,1,0,0:0:0:0:
199,189,33399,2,0,L|73:189,1,98,0|0,0:0|0:0,0:0:0:0:
378,278,33736,2,0,L|482:278,1,98,8|0,0:0|0:0,0:0:0:0:
212,332,34073,6,0,L|1:331,1,196,2|8,0:0|0:0,0:0:0:0:
112,278,34579,1,0,0:0:0:0:
393,325,34748,2,0,L|398:216,1,98,2|2,0:0|0:0,0:0:0:0:
96,145,35085,2,0,L|201:128,1,98,8|0,0:0|0:0,0:0:0:0:
481,132,35422,6,0,L|342:117,1,98,2|0,0:0|0:0,0:0:0:0:
268,239,35759,2,0,L|398:232,1,98,8|0,0:0|0:0,0:0:0:0:
133,341,36096,2,0,P|104:257|177:211,1,147,2|2,0:0|0:0,0:0:0:0:
324,188,36433,2,0,L|450:188,1,98,8|0,0:0|0:0,0:0:0:0:
66,76,36770,5,2,0:0:0:0:
191,107,36939,2,0,L|188:208,1,98,0|8,0:0|0:0,0:0:0:0:
47,262,37276,2,0,L|178:274,2,98,0|2|0,0:0|0:0|0:0,0:0:0:0:
315,330,37781,2,0,L|458:318,1,98,8|0,0:0|0:0,0:0:0:0:
151,353,38118,6,0,P|104:276|189:210,1,196,6|8,0:0|0:0,0:0:0:0:
296,210,38624,1,0,0:0:0:0:
158,94,38792,2,0,L|156:207,1,98,2|2,0:0|0:0,0:0:0:0:
297,218,39130,2,0,L|411:245,1,98,8|0,0:0|0:0,0:0:0:0:
94,333,39467,6,0,L|303:318,1,196,2|8,0:0|0:0,0:0:0:0:
149,253,39972,1,0,0:0:0:0:
283,221,40141,2,0,L|383:211,1,98,2|0,0:0|0:0,0:0:0:0:
142,167,40478,2,0,L|31:178,1,98,8|0,0:0|0:0,0:0:0:0:
429,296,40815,5,2,0:0:0:0:
471,268,40899,1,0,0:0:0:0:
478,220,40983,1,2,0:0:0:0:
448,177,41067,1,2,0:0:0:0:
286,172,41152,2,0,L|211:171,1,49,8|0,0:0|0:0,0:0:0:0:
413,98,41321,2,0,L|470:97,1,49,8|0,0:0|0:0,0:0:0:0:
242,33,41489,5,2,0:0:0:0:
191,54,41573,1,0,0:0:0:0:
178,100,41657,1,2,0:0:0:0:
211,144,41741,1,2,0:0:0:0:
398,204,41826,2,0,L|330:203,1,49,8|0,0:0|0:0,0:0:0:0:
165,221,41995,2,0,L|109:221,1,49,0|0,0:0|0:0,0:0:0:0:
310,338,42163,6,0,L|315:280,1,49,2|0,0:0|0:0,0:0:0:0:
245,261,42332,2,0,L|250:201,1,49,0|0,0:0|0:0,0:0:0:0:
431,169,42500,2,0,L|488:169,1,49,8|0,0:0|0:0,0:0:0:0:
431,169,42669,2,0,L|345:169,1,49,0|2,0:0|0:0,0:0:0:0:
198,157,42837,6,0,L|137:156,1,49,8|0,0:0|0:0,0:0:0:0:
236,113,43006,2,0,L|261:58,1,49,0|2,0:0|0:0,0:0:0:0:
93,50,43174,2,0,L|21:48,1,49,8|0,0:0|0:0,0:0:0:0:
340,103,43343,2,0,L|422:101,1,49,0|0,0:0|0:0,0:0:0:0:
164,331,43512,6,0,P|126:260|205:178,1,196,6|8,0:0|0:0,0:0:0:0:
306,185,44017,1,0,0:0:0:0:
37,204,44186,2,0,L|36:97,1,98,2|0,0:0|0:0,0:0:0:0:
141,31,44523,2,0,L|36:12,1,98,8|0,0:0|0:0,0:0:0:0:
287,152,44860,6,0,L|497:139,1,196,2|8,0:0|0:0,0:0:0:0:
373,84,45365,1,0,0:0:0:0:
241,117,45534,2,0,L|245:222,1,98,2|2,0:0|0:0,0:0:0:0:
396,225,45871,2,0,L|399:346,1,98,8|0,0:0|0:0,0:0:0:0:
121,300,46208,6,0,L|20:313,1,98,2|0,0:0|0:0,0:0:0:0:
181,235,46545,2,0,L|300:250,1,98,8|0,0:0|0:0,0:0:0:0:
26,143,46882,2,0,L|142:124,1,98,2|0,0:0|0:0,0:0:0:0:
410,199,47219,2,0,L|422:96,1,98,8|0,0:0|0:0,0:0:0:0:
170,42,47557,5,6,0:0:0:0:
313,74,47725,1,0,0:0:0:0:
142,73,47894,2,0,L|131:182,1,98,8|0,0:0|0:0,0:0:0:0:
280,172,48231,2,0,L|387:182,1,98,2|0,0:0|0:0,0:0:0:0:
85,333,48568,2,0,P|60:262|133:215,1,147,8|0,0:0|0:0,0:0:0:0:
322,204,48905,6,0,L|408:205,2,49,2|0|0,0:0|0:0|0:0,0:0:0:0:
175,205,49242,2,0,L|285:204,1,98,8|0,0:0|0:0,0:0:0:0:
413,203,49579,2,0,L|304:203,1,98,2|2,0:0|0:0,0:0:0:0:
57,278,49916,2,0,L|50:169,1,98,8|0,0:0|0:0,0:0:0:0:
354,65,50253,6,0,L|152:85,1,196,8|2,0:0|0:0,0:0:0:0:
436,289,50759,2,0,P|485:211|417:136,1,196,8|2,0:0|0:0,0:0:0:0:
200,100,51264,2,0,L|316:99,1,98,8|0,0:0|0:0,0:0:0:0:
244,73,51517,1,0,0:0:0:0:
90,64,51601,6,0,L|33:53,1,49,4|0,0:0|0:0,0:0:0:0:
239,195,51770,2,0,L|295:196,1,49,0|2,0:0|0:0,0:0:0:0:
239,195,51939,2,0,L|176:193,1,49,8|0,0:0|0:0,0:0:0:0:
434,312,52107,2,0,L|439:248,1,49,2|0,0:0|0:0,0:0:0:0:
221,311,52276,6,0,L|220:261,1,49,0|2,0:0|0:0,0:0:0:0:
299,242,52444,2,0,L|301:178,1,49,8|0,0:0|0:0,0:0:0:0:
119,172,52613,2,0,L|47:170,1,49,8|0,0:0|0:0,0:0:0:0:
328,72,52781,2,0,L|233:70,1,49,8|0,0:0|0:0,0:0:0:0:
43,74,52950,6,0,L|201:47,1,147,8|0,0:0|2:0,0:0:0:0:
387,170,53287,2,0,L|198:144,1,147,8|0,0:0|2:0,0:0:0:0:
43,74,53624,2,0,L|201:47,1,147,8|0,0:0|2:0,0:0:0:0:
401,108,53961,2,0,L|459:93,1,49,8|0,0:0|0:0,0:0:0:0:
197,241,54130,2,0,L|142:229,1,49,0|0,0:0|2:0,0:0:0:0:
419,351,54298,6,0,P|466:284|386:196,1,196,6|8,0:0|0:0,0:0:0:0:
284,201,54804,1,0,0:0:0:0:
59,281,54972,2,0,L|188:280,1,98,2|0,0:0|0:0,0:0:0:0:
296,317,55309,2,0,L|423:319,1,98,8|0,0:0|0:0,0:0:0:0:
126,180,55646,6,0,L|328:181,1,196,2|8,0:0|0:0,0:0:0:0:
198,115,56152,1,0,0:0:0:0:
326,188,56321,2,0,L|342:81,1,98,2|2,0:0|0:0,0:0:0:0:
54,97,56658,2,0,L|70:-5,1,98,8|0,0:0|0:0,0:0:0:0:
418,180,56995,6,0,L|432:69,1,98,2|0,0:0|0:0,0:0:0:0:
280,133,57332,2,0,L|162:118,1,98,8|0,0:0|0:0,0:0:0:0:
479,246,57669,2,0,L|350:250,1,98,2|0,0:0|0:0,0:0:0:0:
131,322,58006,2,0,L|-2:325,1,98,8|0,0:0|0:0,0:0:0:0:
330,349,58343,5,2,0:0:0:0:
375,316,58427,1,0,0:0:0:0:
375,268,58511,1,0,0:0:0:0:
331,233,58595,1,0,0:0:0:0:
141,192,58680,2,0,L|218:192,1,49,8|0,0:0|0:0,0:0:0:0:
351,166,58849,2,0,L|404:166,1,49,0|0,0:0|0:0,0:0:0:0:
191,106,59017,6,0,L|134:106,1,49,2|0,0:0|0:0,0:0:0:0:
191,106,59186,2,0,L|246:106,1,49,2|0,0:0|0:0,0:0:0:0:
414,64,59354,2,0,L|341:64,1,49,8|0,0:0|0:0,0:0:0:0:
169,48,59523,2,0,L|91:48,1,49,0|0,0:0|0:0,0:0:0:0:
302,136,59691,6,0,L|503:137,1,196,6|8,0:0|0:0,0:0:0:0:
385,182,60197,1,0,0:0:0:0:
56,256,60365,2,0,L|166:256,1,98,2|0,0:0|0:0,0:0:0:0:
33,334,60703,2,0,L|145:333,1,98,8|0,0:0|0:0,0:0:0:0:
412,364,61040,6,0,P|459:289|386:217,1,196,2|8,0:0|0:0,0:0:0:0:
263,215,61545,1,0,0:0:0:0:
383,210,61714,2,0,L|486:210,1,98,2|2,0:0|0:0,0:0:0:0:
119,172,62051,2,0,L|19:171,1,98,8|0,0:0|0:0,0:0:0:0:
341,101,62388,6,0,L|423:101,1,49,8|0,0:0|0:0,0:0:0:0:
206,199,62557,2,0,L|202:147,1,49,0|0,0:0|0:0,0:0:0:0:
282,128,62725,2,0,L|279:68,1,49,8|0,0:0|0:0,0:0:0:0:
59,67,62894,6,0,L|126:61,1,49,2|0,0:0|0:0,0:0:0:0:
337,250,63062,2,0,L|346:192,1,49,8|0,0:0|0:0,0:0:0:0:
260,178,63231,2,0,L|274:112,1,49,2|2,0:0|0:0,0:0:0:0:
453,94,63399,6,0,L|390:93,1,49,8|0,0:0|0:0,0:0:0:0:
216,62,63568,2,0,L|151:62,1,49,8|0,0:0|0:0,0:0:0:0:
429,328,63736,5,2,0:0:0:0:
471,291,63820,1,0,0:0:0:0:
465,243,63904,1,2,0:0:0:0:
416,216,63988,1,2,0:0:0:0:
161,272,64073,5,8,0:0:0:0:
83,226,64158,2,0,L|61:175,2,49,0|2|0,0:0|0:0|0:0,0:0:0:0:
376,216,64410,6,0,L|435:207,1,49,8|0,0:0|0:0,0:0:0:0:
218,135,64579,2,0,L|156:141,1,49,8|0,0:0|0:0,0:0:0:0:
338,190,64748,2,0,L|397:181,1,49,8|0,0:0|0:0,0:0:0:0:
180,109,64917,2,0,L|118:115,1,49,8|0,0:0|0:0,0:0:0:0:
450,313,65085,6,0,P|483:222|399:162,1,196,6|8,0:0|0:0,0:0:0:0:
297,172,65590,1,0,0:0:0:0:
29,88,65759,2,0,L|142:95,1,98,2|2,0:0|0:0,0:0:0:0:
263,174,66096,2,0,L|134:191,1,98,8|0,0:0|0:0,0:0:0:0:
461,327,66433,6,0,L|260:309,1,196,2|8,0:0|0:0,0:0:0:0:
136,297,66939,1,0,0:0:0:0:
290,307,67107,2,0,L|314:206,1,98,2|2,0:0|0:0,0:0:0:0:
63,159,67444,2,0,L|47:52,1,98,8|0,0:0|0:0,0:0:0:0:
313,126,67781,6,0,L|441:115,1,98,2|0,0:0|0:0,0:0:0:0:
255,78,68118,2,0,L|136:88,1,98,8|0,0:0|0:0,0:0:0:0:
420,320,68455,2,0,P|461:243|407:185,1,147,2|0,0:0|0:0,0:0:0:0:
252,168,68792,2,0,L|143:166,1,98,8|0,0:0|0:0,0:0:0:0:
468,67,69130,5,2,0:0:0:0:
340,123,69298,1,2,0:0:0:0:
345,171,69382,1,0,0:0:0:0:
350,220,69466,1,8,0:0:0:0:
474,61,69635,1,0,0:0:0:0:
207,176,69804,2,0,L|98:169,1,98,2|2,0:0|0:0,0:0:0:0:
380,313,70141,2,0,L|389:257,1,49,8|0,0:0|0:0,0:0:0:0:
204,174,70309,2,0,L|190:115,1,49,0|0,0:0|0:0,0:0:0:0:
390,152,70478,6,0,L|508:140,1,98,2|0,0:0|0:0,0:0:0:0:
165,104,70815,2,0,L|20:118,1,98,8|0,0:0|0:0,0:0:0:0:
360,224,71152,2,0,L|472:209,1,98,2|2,0:0|0:0,0:0:0:0:
174,59,71489,2,0,L|300:70,1,98,8|0,0:0|0:0,0:0:0:0:
34,254,71826,6,0,L|156:243,2,98,2|0|8,0:0|0:0|0:0,0:0:0:0:
350,230,72332,2,0,L|142:205,1,196,0|2,0:0|0:0,0:0:0:0:
430,350,72837,2,0,L|455:238,1,98,8|0,0:0|0:0,0:0:0:0:
206,265,73174,6,0,L|204:202,1,49,12|0,0:0|0:0,0:0:0:0:
385,142,73343,2,0,L|322:137,1,49,0|2,0:0|0:0,0:0:0:0:
152,115,73512,2,0,L|86:108,1,49,8|0,0:0|0:0,0:0:0:0:
360,231,73680,6,0,L|416:236,1,49,8|0,0:0|0:0,0:0:0:0:
197,333,73849,2,0,L|200:259,1,49,0|2,0:0|0:0,0:0:0:0:
426,143,74017,2,0,L|359:133,1,49,8|0,0:0|0:0,0:0:0:0:
73,108,74186,6,0,L|127:102,1,49,8|0,0:0|0:0,0:0:0:0:
370,64,74354,2,0,L|451:57,1,49,0|2,0:0|0:0,0:0:0:0:
130,199,74523,6,0,L|356:217,1,196,12|0,0:0|0:0,0:0:0:0:
440,230,75028,1,0,0:0:0:0:
103,346,75197,6,0,L|82:235,1,98,8|0,0:0|0:0,0:0:0:0:
320,264,75534,2,0,L|369:254,1,49,0|0,0:0|0:0,0:0:0:0:
142,182,75703,2,0,L|91:192,1,49,0|0,0:0|0:0,0:0:0:0:
460,147,75871,6,0,L|339:136,2,98,12|0|2,0:0|0:0|0:0,0:0:0:0:
126,110,76377,1,8,0:0:0:0:
241,101,76545,1,0,0:0:0:0:
360,88,76714,2,0,L|365:38,1,49,2|0,0:0|0:0,0:0:0:0:
39,41,76882,6,0,L|140:50,2,98,8|0|2,0:0|0:0|0:0,0:0:0:0:
371,258,77388,1,8,0:0:0:0:
256,249,77556,1,0,0:0:0:0:
137,236,77725,2,0,L|132:186,1,49,2|0,0:0|0:0,0:0:0:0:
354,134,77894,6,0,L|416:134,1,49,2|0,0:0|0:0,0:0:0:0:
354,134,78062,2,0,L|279:134,1,49,2|0,0:0|0:0,0:0:0:0:
133,130,78231,2,0,L|191:131,1,49,0|0,0:0|0:0,0:0:0:0:
396,197,78399,2,0,L|470:197,1,49,0|0,0:0|0:0,0:0:0:0:
147,292,78568,6,0,L|22:292,2,98,8|0|8,0:0|0:0|0:0,0:0:0:0:
417,294,79073,1,8,0:0:0:0:
291,296,79242,1,0,0:0:0:0:
422,296,79410,2,0,L|434:243,1,49,8|0,0:0|0:0,0:0:0:0:
186,165,79579,5,8,0:0:0:0:
326,152,79748,1,0,0:0:0:0:
186,165,79916,1,2,0:0:0:0:
489,157,80085,2,0,L|382:143,1,98,4|0,0:0|0:0,0:0:0:0:
242,198,80422,2,0,L|176:194,1,49,2|0,0:0|0:0,0:0:0:0:
416,346,80590,6,0,L|424:271,1,49,8|0,0:0|0:0,0:0:0:0:
263,252,80759,2,0,L|193:247,1,49,2|0,0:0|0:0,0:0:0:0:
455,195,80927,2,0,L|385:192,1,49,8|0,0:0|0:0,0:0:0:0:
191,166,81096,2,0,L|109:162,1,49,0|0,0:0|0:0,0:0:0:0:
420,47,81264,5,8,0:0:0:0:
190,87,81433,2,0,L|192:199,1,98,0|8,0:0|0:0,0:0:0:0:
462,205,81770,2,0,L|327:212,2,98,2|0|8,0:0|0:0|0:0,0:0:0:0:
55,334,82276,5,2,0:0:0:0:
315,264,82444,2,0,L|183:257,1,98,0|8,0:0|0:0,0:0:0:0:
475,137,82781,1,2,0:0:0:0:
346,158,82950,1,0,0:0:0:0:
485,116,83118,1,8,0:0:0:0:
162,212,83287,6,0,L|54:206,1,98,2|8,0:0|0:0,0:0:0:0:
369,326,83624,2,0,L|481:318,1,98,8|0,0:0|0:0,0:0:0:0:
92,337,83961,5,2,0:0:0:0:
356,242,84130,2,0,L|365:132,1,98,0|8,0:0|0:0,0:0:0:0:
33,135,84467,2,0,L|149:123,2,98,2|0|8,0:0|0:0|0:0,0:0:0:0:
372,234,84972,5,2,0:0:0:0:
104,29,85141,2,0,L|209:43,1,98,0|8,0:0|0:0,0:0:0:0:
470,99,85478,1,2,0:0:0:0:
329,119,85646,1,0,0:0:0:0:
478,113,85815,1,8,0:0:0:0:
137,298,85983,6,0,L|111:175,1,98,2|0,0:0|0:0,0:0:0:0:
378,231,86321,2,0,L|497:215,1,98,8|0,0:0|0:0,0:0:0:0:
46,77,86658,6,0,L|269:98,2,196,0|0|0,0:0|0:0|0:0,0:0:0:0:
244,199,87669,2,0,L|418:181,1,147,0|0,0:0|0:0,0:0:0:0:
108,329,88006,6,0,L|106:242,1,49,2|0,0:0|0:0,0:0:0:0:
287,225,88174,2,0,L|222:212,1,49,2|0,0:0|0:0,0:0:0:0:
49,165,88343,2,0,L|140:157,1,49,8|0,0:0|0:0,0:0:0:0:
360,137,88512,6,0,L|366:67,1,49,2|0,0:0|0:0,0:0:0:0:
171,81,88680,2,0,L|104:71,1,49,8|0,0:0|0:0,0:0:0:0:
404,202,88849,2,0,L|471:195,1,49,10|0,0:0|0:0,0:0:0:0:
193,364,89017,6,0,L|191:306,1,49,8|0,0:0|0:0,0:0:0:0:
387,270,89186,2,0,L|312:260,1,49,2|0,0:0|0:0,0:0:0:0:
90,210,89354,2,0,L|21:202,1,49,8|0,0:0|0:0,0:0:0:0:
406,129,89523,2,0,L|481:121,1,49,4|0,0:0|0:0,0:0:0:0:
