osu file format v14

[General]
AudioFilename: audio.mp3
AudioLeadIn: 0
PreviewTime: 31292
Countdown: 0
SampleSet: None
StackLeniency: 0.7
Mode: 2
LetterboxInBreaks: 0
WidescreenStoryboard: 1

[Editor]
DistanceSpacing: 1
BeatDivisor: 4
GridSize: 32
TimelineZoom: 1.7

[Metadata]
Title:Hikari Are (Anime Version)
TitleUnicode:ヒカリアレ(アニメバージョン)
Artist:BURNOUT SYNDROMES
ArtistUnicode:BURNOUT SYNDROMES
Creator:Ascendance
Version:Platter
Source:ハイキュー!! 烏野高校 VS 白鳥沢学園高校
Tags:haikyu haikyuu let there be light Karasuno Koukou VS Shiratorizawa Gakuen Koukou third season
BeatmapID:1519345
BeatmapSetID:719392

[Difficulty]
HPDrainRate:5
CircleSize:3.5
OverallDifficulty:8
ApproachRate:8
SliderMultiplier:1.6
SliderTickRate:2

[Events]
//Background and Video events
0,0,"Best-Haikyuu-Wallpapers-Picture-1366x768.png",0,0
//Break Periods
//Storyboard Layer 0 (Background)
//Storyboard Layer 1 (Fail)
//Storyboard Layer 2 (Pass)
//Storyboard Layer 3 (Foreground)
//Storyboard Sound Samples

[TimingPoints]
366,337.078651685393,4,3,1,80,1,0
366,-117.647058823529,4,3,1,80,0,0
11152,-100,4,3,1,80,0,0
21854,-100,4,3,1,5,0,0
21939,-100,4,3,1,80,0,0
47557,-100,4,3,1,45,0,0
47641,-100,4,3,1,80,0,0
53203,-100,4,3,1,5,0,0
53287,-100,4,3,1,80,0,0
53540,-100,4,3,1,5,0,0
53624,-100,4,3,1,80,0,0
53877,-100,4,3,1,5,0,0
53961,-100,4,3,1,80,0,0
54214,-100,4,3,1,5,0,0
54298,-100,4,3,1,80,0,0
74523,-100,4,3,1,80,0,0
75197,-100,4,3,1,80,0,0
89523,-100,4,3,1,45,0,0
89607,-100,4,3,1,5,0,0

[HitObjects]
92,83,197,5,0,0:0:0:0:
208,83,366,2,0,L|359:82,1,136.000002593994
185,156,1040,2,0,L|31:156,1,136.000002593994
262,235,1714,2,0,L|480:234,2,204.000003890991
149,234,2894,1,0,0:0:0:0:
321,320,3062,6,0,P|359:264|306:212,1,136.000002593994
170,145,3736,2,0,L|318:130,1,136.000002593994
108,25,4410,2,0,L|251:37,1,136.000002593994
52,216,5085,2,0,L|41:77,1,136.000002593994
148,45,5590,1,0,0:0:0:0:
336,38,5759,6,0,P|383:60|484:30,1,136.000002593994
288,124,6433,2,0,P|229:105|151:131,1,136.000002593994
354,259,7107,2,0,L|374:115,1,136.000002593994
203,155,7781,2,0,L|65:116,1,136.000002593994
155,95,8287,1,0,0:0:0:0:
317,98,8455,6,0,P|354:153|298:218,1,136.000002593994
164,304,9130,2,0,L|316:314,1,136.000002593994
50,349,9804,6,0,L|40:273,2,68.0000012969971
178,267,10309,2,0,L|260:251,2,68.0000012969971
51,167,10815,2,0,L|129:178,1,68.0000012969971
362,228,11152,6,0,L|379:132,1,80
248,142,11489,2,0,L|220:55,1,80
99,118,11826,2,0,L|8:102,1,80
122,222,12163,2,0,L|219:203,1,80
304,142,12500,6,0,L|477:161,2,160
170,113,13343,2,0,L|53:126,2,80
314,189,13849,6,0,L|331:102,1,80
198,325,14186,2,0,L|186:228,1,80
333,276,14523,2,0,L|436:292,1,80
311,188,14860,2,0,L|216:198,1,80
421,236,15197,6,0,P|465:172|403:100,1,160
318,80,15703,2,0,L|234:90,2,80
469,31,16208,2,0,L|360:19,1,80
195,159,16545,6,0,L|180:70,1,80
318,170,16882,2,0,L|303:258,1,80
202,276,17219,2,0,L|122:284,1,80
242,350,17557,2,0,L|344:367,1,80
142,352,17894,6,0,L|128:258,1,80
216,210,18231,2,0,L|304:198,1,80
162,150,18568,2,0,L|76:164,1,80
162,150,18905,2,0,L|262:132,1,80
489,90,19242,5,0,0:0:0:0:
334,123,19579,2,0,L|343:216,1,80
460,204,19916,2,0,L|467:308,1,80
379,337,20253,2,0,L|281:349,1,80
49,350,20590,6,0,P|25:281|96:209,1,160
216,149,21264,2,0,L|31:127,1,160
336,87,21939,6,0,L|450:77,2,80
160,96,22444,2,0,P|118:147|160:221,1,160
309,250,22950,2,0,L|393:244,2,80
134,368,23455,6,0,P|96:308|157:239,1,160
247,272,23961,2,0,L|261:182,1,80
161,150,24298,2,0,L|75:140,1,80
321,88,24635,5,0,0:0:0:0:
402,77,24804,1,0,0:0:0:0:
483,64,24972,1,0,0:0:0:0:
313,152,25141,2,0,L|136:142,1,160
245,255,25646,6,0,L|260:171,1,80
166,141,25983,1,0,0:0:0:0:
315,90,26152,2,0,L|142:73,1,160
257,186,26658,2,0,L|350:168,1,80
212,166,26995,2,0,L|120:155,1,80
395,311,27332,6,0,L|487:298,2,80
220,329,27837,2,0,P|201:253|273:197,1,160
346,200,28343,2,0,L|449:214,2,80
164,130,28849,2,0,L|355:104,1,160
73,62,29354,2,0,L|63:225,1,160
246,245,30028,6,0,L|341:232,1,80
166,98,30534,2,0,L|349:113,1,160
68,189,31040,1,0,0:0:0:0:
236,318,31377,5,0,0:0:0:0:
270,298,31461,1,0,0:0:0:0:
293,266,31545,1,0,0:0:0:0:
298,226,31629,1,0,0:0:0:0:
286,189,31714,1,0,0:0:0:0:
259,160,31798,1,0,0:0:0:0:
221,147,31882,1,0,0:0:0:0:
98,146,32051,2,0,L|32:146,2,40
337,147,32388,2,0,L|405:147,2,40
53,304,32725,6,0,P|25:228|94:161,1,160
197,163,33231,1,0,0:0:0:0:
356,162,33399,2,0,L|170:163,1,160
91,160,33905,1,0,0:0:0:0:
270,221,34073,6,0,P|314:161|258:105,1,160
150,108,34579,1,0,0:0:0:0:
314,108,34748,2,0,L|476:108,1,160
384,51,35253,1,0,0:0:0:0:
223,49,35422,6,0,L|56:49,2,160
348,86,36264,2,0,L|455:86,1,80
237,160,36770,1,0,0:0:0:0:
385,247,37107,2,0,L|194:247,2,160
491,247,37950,1,0,0:0:0:0:
190,350,38118,6,0,P|155:276|221:219,1,160
302,218,38624,1,0,0:0:0:0:
409,222,38792,2,0,L|242:220,1,160
144,221,39298,1,0,0:0:0:0:
310,293,39467,6,0,P|348:237|284:157,1,160
181,155,39972,1,0,0:0:0:0:
300,158,40141,2,0,L|468:159,1,160
51,237,40815,6,0,P|28:157|83:97,1,160
309,260,41321,2,0,P|355:180|292:122,1,160
208,122,41826,1,0,0:0:0:0:
427,49,42163,6,0,L|244:69,1,160
91,219,42837,2,0,L|81:52,1,160
178,26,43343,1,0,0:0:0:0:
432,30,43512,6,0,P|478:80|423:155,1,160
327,152,44017,1,0,0:0:0:0:
163,150,44186,2,0,P|96:184|18:144,1,160
120,215,44691,1,0,0:0:0:0:
289,259,44860,6,0,P|369:284|445:254,1,160
354,183,45365,1,0,0:0:0:0:
181,126,45534,2,0,P|114:106|19:144,1,160
116,185,46040,1,0,0:0:0:0:
276,251,46208,6,0,L|86:271,1,160
300,335,46882,2,0,L|401:347,1,80
70,347,47219,1,0,0:0:0:0:
220,216,47557,2,0,L|391:229,2,160
43,205,48568,1,0,0:0:0:0:
464,79,48905,5,0,0:0:0:0:
315,18,49242,2,0,L|327:190,1,160
484,178,49916,2,0,L|386:194,1,80
158,332,50253,6,0,P|132:269|205:193,1,160
289,171,50759,2,0,L|113:157,1,160
231,273,51264,2,0,L|324:262,1,80
80,356,51601,6,0,P|35:283|136:174,1,240
310,184,52444,2,0,L|407:197,2,80
58,347,52950,6,0,P|33:287|85:223,1,120
112,213,53287,2,0,L|235:223,1,120
317,147,53624,2,0,L|181:166,1,120
315,232,53961,2,0,L|428:248,1,80
99,361,54298,6,0,P|65:289|137:230,1,160
252,234,54804,1,0,0:0:0:0:
130,294,54972,2,0,L|118:187,1,80
252,234,55309,2,0,L|280:137,1,80
131,69,55646,6,0,L|326:59,1,160
403,166,56152,2,0,L|417:67,1,80
275,158,56489,1,0,0:0:0:0:
406,218,56658,2,0,L|421:314,1,80
271,273,56995,6,0,L|95:292,1,160
298,176,57669,2,0,L|406:191,2,80
118,303,58343,6,0,L|290:286,1,160
456,347,59017,2,0,P|488:248|429:216,1,160
349,205,59523,1,0,0:0:0:0:
101,296,59691,6,0,P|56:216|119:149,1,160
217,141,60197,1,0,0:0:0:0:
104,152,60365,2,0,L|88:64,1,80
254,159,60703,2,0,L|246:249,1,80
111,316,61040,6,0,L|300:333,1,160
392,366,61545,2,0,L|398:272,1,80
294,243,61882,1,0,0:0:0:0:
404,192,62051,2,0,L|487:207,1,80
200,327,62388,6,0,P|173:252|241:192,1,160
309,182,62894,2,0,L|149:161,1,160
264,91,63399,2,0,L|376:73,1,80
100,26,63736,5,0,0:0:0:0:
61,36,63820,1,0,0:0:0:0:
32,63,63904,1,0,0:0:0:0:
20,100,63988,1,0,0:0:0:0:
26,140,64073,1,0,0:0:0:0:
50,171,64157,1,0,0:0:0:0:
86,187,64241,1,0,0:0:0:0:
361,181,64410,5,0,0:0:0:0:
399,191,64494,1,0,0:0:0:0:
428,218,64578,1,0,0:0:0:0:
440,255,64662,1,0,0:0:0:0:
434,295,64747,1,0,0:0:0:0:
410,326,64831,1,0,0:0:0:0:
374,342,64915,1,0,0:0:0:0:
88,367,65085,6,0,P|51:295|128:236,1,160
210,231,65590,1,0,0:0:0:0:
97,241,65759,2,0,L|86:153,1,80
210,231,66096,2,0,L|310:216,1,80
173,103,66433,6,0,L|370:130,1,160
423,222,66939,2,0,L|444:134,1,80
308,248,67276,2,0,L|200:253,2,80
175,333,67781,6,0,L|163:240,1,80
302,247,68118,2,0,L|319:151,1,80
183,170,68455,2,0,L|74:153,1,80
424,88,68792,1,0,0:0:0:0:
201,91,69130,5,0,0:0:0:0:
362,154,69467,2,0,L|350:323,1,160
184,237,70141,2,0,L|96:246,1,80
351,335,70478,6,0,P|398:261|335:199,1,160
245,244,70983,2,0,L|237:150,1,80
342,117,71321,1,0,0:0:0:0:
194,130,71489,2,0,L|81:136,1,80
420,350,71826,6,0,P|456:269|394:210,1,160
294,180,72332,2,0,L|111:196,1,160
250,77,72837,2,0,L|346:86,1,80
71,314,73174,5,0,0:0:0:0:
37,293,73258,1,0,0:0:0:0:
20,257,73342,1,0,0:0:0:0:
26,218,73426,1,0,0:0:0:0:
52,189,73511,1,0,0:0:0:0:
206,200,73680,5,0,0:0:0:0:
239,179,73764,1,0,0:0:0:0:
256,143,73848,1,0,0:0:0:0:
250,104,73932,1,0,0:0:0:0:
224,75,74017,1,0,0:0:0:0:
76,45,74186,2,0,L|17:50,2,40
337,31,74523,6,0,P|422:76|338:243,1,320
259,300,75534,2,0,L|370:293,1,80
63,353,75871,6,0,P|33:264|104:212,1,160
211,231,76377,2,0,P|253:165|177:106,1,160
53,78,76882,2,0,L|221:64,1,160
299,179,77388,2,0,L|123:166,1,160
415,327,77894,5,0,0:0:0:0:
482,265,78062,1,0,0:0:0:0:
468,188,78231,1,0,0:0:0:0:
383,156,78399,1,0,0:0:0:0:
121,259,78568,6,0,P|80:174|139:118,1,160
236,106,79073,2,0,L|402:113,1,160
294,205,79579,2,0,L|120:223,1,160
293,335,80085,2,0,P|335:252|286:204,1,160
41,228,80590,2,0,L|32:144,1,80
322,150,80927,2,0,L|413:132,1,80
121,66,81264,6,0,L|24:53,2,80
261,130,81770,2,0,L|88:165,1,160
248,285,82276,2,0,L|259:194,1,80
145,163,82613,1,0,0:0:0:0:
396,266,82781,6,0,P|447:205|385:138,1,160
287,178,83287,2,0,L|280:85,1,80
406,121,83624,2,0,L|494:105,1,80
200,283,83961,6,0,L|97:270,2,80
333,343,84467,2,0,P|343:268|260:214,1,160
170,200,84972,2,0,L|85:213,2,80
461,272,85478,6,0,P|486:194|401:146,1,160
182,94,85983,2,0,L|9:101,1,160
262,36,86658,6,0,L|436:57,1,160
218,118,87332,2,0,L|38:137,1,160
38,274,87837,1,0,0:0:0:0:
417,346,88006,5,0,0:0:0:0:
447,321,88090,1,0,0:0:0:0:
460,283,88174,1,0,0:0:0:0:
450,245,88258,1,0,0:0:0:0:
422,218,88343,1,0,0:0:0:0:
258,230,88512,5,0,0:0:0:0:
236,196,88596,1,0,0:0:0:0:
234,157,88680,1,0,0:0:0:0:
252,121,88764,1,0,0:0:0:0:
285,100,88849,1,0,0:0:0:0:
478,69,89017,5,0,0:0:0:0:
438,64,89101,1,0,0:0:0:0:
398,60,89185,1,0,0:0:0:0:
358,55,89269,1,0,0:0:0:0:
318,51,89354,1,0,0:0:0:0:
69,33,89523,5,0,0:0:0:0:
