osu file format v14

[General]
AudioFilename: audio.mp3
AudioLeadIn: 0
PreviewTime: 20590
Countdown: 0
SampleSet: None
StackLeniency: 0.7
Mode: 2
LetterboxInBreaks: 0
WidescreenStoryboard: 0

[Editor]
DistanceSpacing: 0.8
BeatDivisor: 4
GridSize: 16
TimelineZoom: 1

[Metadata]
Title:Hikari Are
TitleUnicode:Hikari Are
Artist:BURNOUT SYNDROMES
ArtistUnicode:BURNOUT SYNDROMES
Creator:-Joni-
Version:Asma's Cup
Source:ハイキュー!! 烏野高校 VS 白鳥沢学園高校
Tags:
BeatmapID:1927568
BeatmapSetID:923055

[Difficulty]
HPDrainRate:3
CircleSize:2
OverallDifficulty:5
ApproachRate:5
SliderMultiplier:1
SliderTickRate:1

[Events]
//Background and Video events
0,0,"741751.jpg",0,0
//Break Periods
//Storyboard Layer 0 (Background)
//Storyboard Layer 1 (Fail)
//Storyboard Layer 2 (Pass)
//Storyboard Layer 3 (Foreground)
//Storyboard Sound Samples

[TimingPoints]
366,337.078651685393,4,2,0,100,1,0
21939,-100,4,2,0,100,0,1
30028,-100,4,2,0,100,0,0
32725,-100,4,2,0,100,0,1
40815,-100,4,2,0,100,0,0
43512,-100,4,2,0,100,0,1
51601,-100,4,2,0,100,0,0
54298,-100,4,2,0,100,0,1
62388,-100,4,2,0,100,0,0
65085,-100,4,2,0,100,0,1
75871,-100,4,2,0,100,0,0

[Colours]
Combo1 : 106,23,23
Combo2 : 255,255,128
Combo3 : 67,82,78
Combo4 : 255,128,0

[HitObjects]
115,309,366,6,0,P|72:210|121:129,1,200
250,221,1714,2,0,L|320:87,2,150
337,230,3062,6,0,P|390:126|340:49,1,200
199,62,4410,2,0,L|131:212,2,150
269,50,5759,5,0,0:0:0:0:
342,51,6433,1,0,0:0:0:0:
269,50,7107,2,0,L|225:255,1,200
139,304,8455,6,0,P|82:225|143:142,1,200
233,173,9804,2,0,L|270:73,3,100
365,34,11152,6,0,P|410:123|362:207,1,200
242,257,12163,1,0,0:0:0:0:
143,185,12500,6,0,P|98:99|143:14,1,200
58,113,13849,6,0,L|21:317,1,200
126,349,14860,1,0,0:0:0:0:
216,295,15197,2,0,P|267:207|215:117,1,200
309,220,16545,6,0,L|249:17,1,200
356,37,17557,1,0,0:0:0:0:
459,49,17894,2,0,P|504:133|460:219,1,200
309,123,19242,6,0,L|254:275,2,150
233,67,20590,1,0,0:0:0:0:
104,283,21939,6,0,L|40:129,2,150
237,282,23455,1,0,0:0:0:0:
355,226,23961,2,0,L|349:109,1,100
451,173,24635,6,0,L|515:19,2,150
296,235,26152,2,0,L|269:75,1,150
139,39,27332,6,0,L|108:191,1,150
235,299,28343,2,0,L|264:152,1,150
390,171,29354,2,0,L|371:66,1,100
264,115,30028,6,0,L|273:55,1,50
182,36,30534,1,0,0:0:0:0:
82,48,30871,2,0,L|76:-2,1,50
172,306,31377,2,0,L|199:193,1,100
294,192,32051,2,0,L|300:88,1,100
408,55,32725,6,0,L|468:251,3,200
327,113,35422,5,0,0:0:0:0:
235,114,35759,2,0,L|188:222,2,100
368,140,37107,2,0,L|422:38,2,100
225,151,38118,6,0,P|184:227|224:336,1,200
380,232,39467,2,0,P|414:141|372:53,1,200
254,21,40478,1,0,0:0:0:0:
147,54,40815,6,0,L|107:257,1,200
275,291,42163,2,0,L|260:178,1,100
389,201,42837,2,0,L|396:98,1,100
280,23,43512,6,0,P|237:110|271:202,1,200
183,255,44523,1,0,0:0:0:0:
87,213,44860,2,0,B|48:114|48:114|106:31,1,200
216,33,45871,1,0,0:0:0:0:
311,46,46208,6,0,L|341:158,1,100
237,115,46882,2,0,L|203:21,1,100
412,261,47894,2,0,L|463:161,2,100
317,255,48905,6,0,L|264:148,1,100
108,156,49916,1,0,0:0:0:0:
192,81,50253,2,0,P|231:158|188:260,1,200
60,111,51601,6,0,L|126:258,1,150
258,296,52613,1,0,0:0:0:0:
391,228,52950,2,0,L|453:136,3,100
323,89,54298,6,0,P|277:186|326:264,1,200
252,223,55646,2,0,L|162:41,1,200
60,57,56658,1,0,0:0:0:0:
159,142,56995,6,0,L|205:249,1,100
317,279,57669,2,0,L|345:217,2,50
195,201,58343,2,0,L|179:101,1,100
310,122,59017,2,0,L|326:22,1,100
207,32,59691,6,0,P|163:126|208:216,1,200
325,43,60703,1,0,0:0:0:0:
424,75,61040,2,0,L|470:279,1,200
357,332,62051,1,0,0:0:0:0:
238,323,62388,6,0,L|161:181,2,150
120,285,63736,2,0,L|133:181,1,100
29,143,64410,2,0,L|21:40,1,100
155,94,65085,6,0,L|220:295,1,200
339,309,66096,1,0,0:0:0:0:
233,252,66433,2,0,P|184:161|226:69,1,200
334,43,67444,1,0,0:0:0:0:
223,43,67781,6,0,L|168:143,1,100
47,198,68455,2,0,L|14:313,1,100
159,342,69130,1,0,0:0:0:0:
272,299,69467,2,0,L|342:212,2,100
381,130,70478,5,0,0:0:0:0:
448,36,70815,2,0,P|487:111|448:227,1,200
378,296,71826,2,0,L|287:114,1,200
177,58,72837,1,0,0:0:0:0:
56,63,73174,6,0,L|-10:210,2,150
225,59,74523,2,0,P|262:153|217:248,1,200
89,206,75871,6,0,P|54:277|91:358,1,150
266,259,76882,2,0,P|285:188|251:123,1,150
361,135,77894,2,0,L|408:32,1,100
279,56,78568,6,0,L|216:193,2,150
157,51,80085,1,0,0:0:0:0:
52,101,80590,2,0,P|36:147|56:215,1,100
183,190,81264,6,0,L|236:346,2,150
287,137,82781,1,0,0:0:0:0:
408,164,83287,2,0,L|439:265,1,100
283,136,83961,6,0,L|220:278,2,150
166,68,85478,1,0,0:0:0:0:
52,144,85983,2,0,L|68:250,1,100
181,286,86658,2,0,L|242:372,3,100
256,192,88006,12,0,89691,0:0:0:0:
