osu file format v14

[General]
AudioFilename: audio.mp3
AudioLeadIn: 0
PreviewTime: 58439
Countdown: 1
SampleSet: Normal
StackLeniency: 0.4
Mode: 0
LetterboxInBreaks: 0
WidescreenStoryboard: 0

[Editor]
Bookmarks: 87182,87653,88125,88596,89067
DistanceSpacing: 1
BeatDivisor: 4
GridSize: 4
TimelineZoom: 2.4

[Metadata]
Title:Good Morning World! (TV Size)
TitleUnicode:Good Morning World! (TV Size)
Artist:BURNOUT SYNDROMES
ArtistUnicode:BURNOUT SYNDROMES
Creator:MythoZ
Version:EXHILARATING EXTRA
Source:Dr. STONE
Tags:
BeatmapID:2108328
BeatmapSetID:1007346

[Difficulty]
HPDrainRate:6
CircleSize:4
OverallDifficulty:8
ApproachRate:9.5
SliderMultiplier:1.8
SliderTickRate:1

[Events]
//Background and Video events
0,0,"dr stone.jpg",0,0
//Break Periods
//Storyboard Layer 0 (Background)
//Storyboard Layer 1 (Fail)
//Storyboard Layer 2 (Pass)
//Storyboard Layer 3 (Foreground)
//Storyboard Layer 4 (Overlay)
//Storyboard Sound Samples

[TimingPoints]
10,314.13612565445,4,1,0,50,1,0
6135,-100,4,1,0,60,0,1
16188,-125,4,1,0,50,0,0
31109,-100,4,1,0,50,0,0
35193,-133.333333333333,4,1,0,50,0,0
36449,-133.333333333333,4,1,0,45,0,0
44931,-153.846153846153,4,1,0,50,0,0
46502,-100,4,1,0,55,0,0
55926,-83.3333333333333,4,1,0,55,0,0
56554,-166.666666666667,4,1,0,50,0,0
59067,-90.9090909090909,4,1,0,60,0,1
74146,-117.647058823529,4,1,0,60,0,0
76659,-90.9090909090909,4,1,0,60,0,0
86554,-90.9090909090909,4,1,0,60,0,0
87182,-83.3333333333333,4,1,0,60,0,0
87653,-76.9230769230769,4,1,0,60,0,0
88125,-71.4285714285714,4,1,0,60,0,0
88596,-68.9655172413793,4,1,0,60,0,0
89067,-66.6666666666667,4,1,0,60,0,0

[HitObjects]
256,192,1266,12,0,5664,0:0:0:0:
40,285,6135,6,0,B|80:314|80:314|213:288,1,180,6|0,0:0|0:0,0:0:0:0:
283,100,6606,1,8,0:0:0:0:
389,337,6763,1,0,0:0:0:0:
379,99,6920,1,8,0:0:0:0:
274,336,7078,1,0,0:0:0:0:
96,233,7235,5,8,0:0:0:0:
329,208,7392,1,0,0:0:0:0:
149,115,7549,5,8,0:0:0:0:
224,341,7706,1,0,0:0:0:0:
226,80,7863,5,8,0:0:0:0:
152,308,8020,1,0,0:0:0:0:
152,308,8099,1,0,0:0:0:0:
152,308,8177,1,8,0:0:0:0:
165,40,8334,5,0,0:0:0:0:
233,256,8491,1,8,0:0:0:0:
337,39,8648,6,0,P|418:46|466:134,1,180,4|0,0:0|0:0,0:0:0:0:
466,125,9041,1,0,0:0:0:0:
466,125,9119,1,8,0:0:0:0:
386,324,9277,1,0,0:0:0:0:
376,125,9434,5,8,0:0:0:0:
470,321,9591,1,0,0:0:0:0:
233,257,9748,5,8,0:0:0:0:
427,238,9905,1,0,0:0:0:0:
248,173,10062,5,8,0:0:0:0:
335,347,10219,1,0,0:0:0:0:
339,167,10376,5,8,0:0:0:0:
252,341,10533,1,0,0:0:0:0:
165,167,10690,1,2,0:0:0:0:
78,341,10847,1,2,0:0:0:0:
254,213,11004,1,2,0:0:0:0:
427,97,11161,6,0,P|317:56|241:94,1,180,4|0,0:0|0:0,0:0:0:0:
78,143,11633,6,0,L|178:170,1,90,8|0,0:0|0:0,0:0:0:0:
387,227,11947,1,0,0:0:0:0:
387,227,12104,1,0,0:0:0:0:
387,227,12261,6,0,L|287:254,1,90,8|0,0:0|0:0,0:0:0:0:
153,292,12575,1,0,0:0:0:0:
153,292,12732,1,0,0:0:0:0:
78,143,12889,2,0,P|82:94|107:42,1,90,8|0,0:0|0:0,0:0:0:0:
333,85,13203,1,8,0:0:0:0:
192,132,13360,1,8,0:0:0:0:
425,185,13517,1,8,0:0:0:0:
316,298,13674,6,0,P|226:325|127:258,1,180,4|0,0:0|0:0,0:0:0:0:
51,99,14146,5,8,0:0:0:0:
152,291,14303,1,0,0:0:0:0:
152,97,14460,1,8,0:0:0:0:
50,287,14617,1,0,0:0:0:0:
304,166,14774,5,8,0:0:0:0:
105,196,14931,1,0,0:0:0:0:
234,53,15088,5,8,0:0:0:0:
263,314,15245,1,0,0:0:0:0:
54,139,15402,5,8,0:0:0:0:
367,208,15559,1,0,0:0:0:0:
50,287,15716,2,0,L|120:267,1,45,8|0,0:0|0:0,0:0:0:0:
289,231,15873,2,0,L|245:218,1,45,8|0,0:0|0:0,0:0:0:0:
54,139,16030,2,0,L|124:119,1,45,8|0,0:0|0:0,0:0:0:0:
326,67,16188,6,0,P|373:56|463:116,1,144,4|0,0:0|0:0,0:0:0:0:
377,155,16659,2,0,P|368:197|381:245,1,72,8|0,0:0|0:0,0:0:0:0:
361,320,16973,2,0,P|305:344|213:305,1,144,0|8,0:0|0:0,0:0:0:0:
148,239,17444,1,0,0:0:0:0:
71,318,17601,1,0,0:0:0:0:
71,318,17758,6,0,L|-10:312,1,72,0|8,0:0|0:0,0:0:0:0:
148,239,18072,2,0,L|229:233,1,72
77,141,18386,2,0,L|-4:135,1,72,0|8,0:0|0:0,0:0:0:0:
210,72,18701,6,0,P|274:55|353:96,1,144,4|0,0:0|0:0,0:0:0:0:
390,176,19172,2,0,P|424:186|459:183,1,72,8|0,0:0|0:0,0:0:0:0:
368,293,19486,2,0,P|319:276|274:199,1,144,0|8,0:0|0:0,0:0:0:0:
210,72,19957,1,0,0:0:0:0:
88,160,20114,1,0,0:0:0:0:
88,160,20271,2,0,L|85:266,1,72,0|8,0:0|0:0,0:0:0:0:
217,347,20585,1,0,0:0:0:0:
217,347,20664,1,0,0:0:0:0:
217,347,20742,2,0,L|219:275,1,72,0|8,0:0|0:0,0:0:0:0:
443,46,21214,6,0,B|443:196,1,144,4|0,0:0|0:0,0:0:0:0:
252,257,21685,2,0,L|230:161,1,72,8|0,0:0|0:0,0:0:0:0:
357,64,21999,1,0,0:0:0:0:
434,275,22156,1,0,0:0:0:0:
235,186,22313,6,0,L|287:102,1,72,8|0,0:0|0:0,0:0:0:0:
446,124,22627,1,0,0:0:0:0:
350,327,22784,1,0,0:0:0:0:
273,125,22941,6,0,L|369:103,1,72,8|0,0:0|0:0,0:0:0:0:
466,230,23256,1,0,0:0:0:0:
254,306,23413,1,0,0:0:0:0:
202,57,23570,6,0,L|106:35,1,72,8|0,0:0|0:0,0:0:0:0:
9,162,23884,1,0,0:0:0:0:
221,238,24041,1,0,0:0:0:0:
131,40,24198,6,0,L|47:92,1,72,8|0,0:0|0:0,0:0:0:0:
68,250,24512,1,0,0:0:0:0:
272,154,24669,1,0,0:0:0:0:
70,78,24826,6,0,L|48:174,1,72,8|0,0:0|0:0,0:0:0:0:
173,271,25140,1,0,0:0:0:0:
250,58,25297,1,0,0:0:0:0:
253,272,25455,1,8,0:0:0:0:
176,59,25612,1,0,0:0:0:0:
18,194,25769,5,8,0:0:0:0:
213,155,25926,1,0,0:0:0:0:
82,84,26083,5,8,0:0:0:0:
121,278,26240,2,0,P|173:299|269:252,1,144,4|0,0:0|0:0,0:0:0:0:
316,213,26711,2,0,P|359:210|409:231,1,72,8|0,0:0|0:0,0:0:0:0:
448,308,27025,6,0,B|482:274|482:274|482:167,1,144,0|8,0:0|0:0,0:0:0:0:
395,91,27496,1,0,0:0:0:0:
316,213,27653,1,0,0:0:0:0:
316,213,27811,6,0,L|312:310,1,72,0|8,0:0|0:0,0:0:0:0:
216,183,28125,2,0,L|220:86,1,72
150,39,28439,2,0,P|105:30|65:50,1,72,0|8,0:0|0:0,0:0:0:0:
9,105,28753,6,0,P|34:167|5:252,1,144
90,304,29224,2,0,P|130:312|177:301,1,72,8|0,0:0|0:0,0:0:0:0:
228,229,29538,2,0,P|268:215|371:259,1,144,0|8,0:0|0:0,0:0:0:0:
450,311,30009,1,0,0:0:0:0:
450,311,30167,2,0,L|448:205,1,72
422,125,30481,1,8,0:0:0:0:
318,72,30638,1,0,0:0:0:0:
298,71,30716,1,0,0:0:0:0:
280,72,30795,2,0,L|181:72,1,72
34,169,31266,6,0,P|46:234|171:265,1,180,4|0,0:0|0:0,0:0:0:0:
330,209,31737,2,0,L|321:94,1,90,8|0,0:0|0:0,0:0:0:0:
130,184,32051,1,0,0:0:0:0:
289,357,32208,1,0,0:0:0:0:
322,119,32366,6,0,L|213:78,1,90,8|0,0:0|0:0,0:0:0:0:
214,289,32680,1,0,0:0:0:0:
435,228,32837,1,0,0:0:0:0:
237,87,32994,6,0,L|154:167,1,90,8|0,0:0|0:0,0:0:0:0:
345,256,33308,1,0,0:0:0:0:
383,30,33465,1,0,0:0:0:0:
172,150,33622,6,0,L|254:230,1,90,8|0,0:0|0:0,0:0:0:0:
64,319,33936,1,0,0:0:0:0:
26,93,34093,1,0,0:0:0:0:
236,213,34250,6,0,L|197:321,1,90,8|0,0:0|0:0,0:0:0:0:
38,186,34564,1,0,0:0:0:0:
225,56,34722,1,0,0:0:0:0:
205,297,34879,2,0,L|90:308,1,90,8|0,0:0|0:0,0:0:0:0:
145,106,35193,6,0,P|199:142|280:129,1,135.000005149842,8|0,0:0|0:0,0:0:0:0:
364,54,35664,1,8,0:0:0:0:
364,54,35742,1,8,0:0:0:0:
368,57,35821,2,0,L|374:154,1,67.5000025749208,8|0,0:0|0:0,0:0:0:0:
262,203,36135,2,0,L|266:135,1,67.5000025749208
143,200,36449,6,0,B|137:286|137:286|103:328,1,135.000005149842,4|0,0:0|0:0,0:0:0:0:
28,233,36920,2,0,L|33:85,1,135.000005149842,8|8,0:0|0:0,0:0:0:0:
133,55,37392,2,0,P|173:48|223:68,1,67.5000025749208,0|8,0:0|0:0,0:0:0:0:
252,120,37706,2,0,P|284:127|317:121,1,67.5000025749208
408,76,38020,1,0,0:0:0:0:
475,152,38177,1,0,0:0:0:0:
475,152,38334,2,8,L|470:243,1,67.5000025749208
408,290,38648,2,0,L|403:381,1,67.5000025749208
275,247,38962,6,0,B|282:156|282:156|254:94,1,135.000005149842,8|0,0:0|0:0,0:0:0:0:
128,263,39434,2,0,P|136:328|212:383,1,135.000005149842,8|0,0:0|0:0,0:0:0:0:
275,247,39905,2,0,P|325:243|360:251,1,67.5000025749208
412,309,40219,2,0,P|462:313|497:305,1,67.5000025749208
481,133,40533,1,0,0:0:0:0:
378,97,40690,1,0,0:0:0:0:
378,97,40847,2,0,L|293:92,1,67.5000025749208
238,152,41161,2,0,L|153:147,1,67.5000025749208
185,307,41475,6,0,L|339:316,1,135.000005149842,12|0,0:0|0:0,0:0:0:0:
170,148,41947,2,0,L|16:139,1,135.000005149842,8|0,0:0|0:0,0:0:0:0:
223,227,42418,2,0,P|278:224|298:210,1,67.5000025749208,8|0,0:0|0:0,0:0:0:0:
358,153,42732,2,0,P|413:156|433:170,1,67.5000025749208
456,255,43046,1,0,0:0:0:0:
372,318,43203,1,0,0:0:0:0:
372,318,43360,2,8,L|291:311,1,67.5000025749208
219,224,43674,2,0,L|138:231,1,67.5000025749208
152,230,43989,5,12,0:0:0:0:
0,254,44931,6,0,L|96:254,1,87.749995983124,2|0,0:0|0:0,0:0:0:0:
116,276,45245,2,0,B|118:213|118:213|150:177,1,87.749995983124,2|0,0:0|0:0,0:0:0:0:
157,172,45559,1,2,0:0:0:0:
44,99,45716,2,0,L|43:165,1,58.4999973220826,2|0,0:0|0:0,0:0:0:0:
44,322,46030,2,0,P|102:331|160:296,1,116.999994644165,2|0,0:0|0:0,0:0:0:0:
239,238,46502,5,4,0:0:0:0:
321,173,46659,1,0,0:0:0:0:
364,161,46737,1,0,0:0:0:0:
407,172,46816,1,0,0:0:0:0:
214,126,46973,5,4,0:0:0:0:
132,61,47130,1,0,0:0:0:0:
88,49,47208,1,0,0:0:0:0:
45,60,47287,1,0,0:0:0:0:
0,211,47444,5,4,0:0:0:0:
65,293,47601,1,0,0:0:0:0:
108,283,47680,1,0,0:0:0:0:
152,289,47758,1,0,0:0:0:0:
266,186,47915,5,4,0:0:0:0:
348,121,48072,1,0,0:0:0:0:
392,109,48151,1,0,0:0:0:0:
435,120,48229,1,0,0:0:0:0:
228,108,48386,5,4,0:0:0:0:
144,58,48544,1,0,0:0:0:0:
111,50,48622,1,0,0:0:0:0:
77,51,48701,1,0,0:0:0:0:
45,60,48779,1,0,0:0:0:0:
15,77,48858,1,0,0:0:0:0:
123,163,49015,5,4,0:0:0:0:
170,260,49172,2,0,L|158:329,3,45
224,144,49486,5,4,0:0:0:0:
321,97,49643,2,0,L|390:108,3,45
349,213,49957,5,4,0:0:0:0:
446,260,50114,2,0,L|515:248,3,45
321,97,50428,5,4,0:0:0:0:
223,144,50585,2,0,L|154:132,3,45
45,116,50900,1,0,0:0:0:0:
109,280,51057,1,0,0:0:0:0:
223,144,51214,1,0,0:0:0:0:
238,127,51292,1,0,0:0:0:0:
256,115,51371,1,0,0:0:0:0:
277,105,51449,1,0,0:0:0:0:
298,100,51528,6,0,P|388:103|439:147,1,135,4|0,0:0|0:0,0:0:0:0:
380,195,51842,2,0,L|377:302,1,90,8|0,0:0|0:0,0:0:0:0:
298,353,52156,1,0,0:0:0:0:
224,280,52313,2,0,P|161:238|110:246,1,90
78,337,52627,6,0,B|46:285|46:285|54:189,1,135,8|0,0:0|0:0,0:0:0:0:
46,198,52941,1,0,0:0:0:0:
46,198,53099,2,0,L|57:101,1,90,8|0,0:0|0:0,0:0:0:0:
161,60,53413,1,0,0:0:0:0:
181,51,53491,1,0,0:0:0:0:
204,48,53570,1,0,0:0:0:0:
226,46,53648,1,0,0:0:0:0:
245,45,53727,2,0,P|289:44|332:57,1,90,8|0,0:0|0:0,0:0:0:0:
282,350,54041,5,12,0:0:0:0:
170,338,54198,1,0,0:0:0:0:
147,335,54277,1,0,0:0:0:0:
125,332,54355,1,0,0:0:0:0:
231,249,54512,5,12,0:0:0:0:
342,239,54669,1,0,0:0:0:0:
376,234,54748,1,0,0:0:0:0:
409,230,54826,1,0,0:0:0:0:
283,160,54983,5,12,0:0:0:0:
170,150,55140,1,0,0:0:0:0:
125,144,55219,1,0,0:0:0:0:
82,138,55297,1,0,0:0:0:0:
229,70,55455,5,12,0:0:0:0:
342,60,55612,2,0,L|391:54,3,45
357,249,55926,6,0,P|316:254|269:241,1,53.9999983520508
178,181,56083,1,0,0:0:0:0:
178,181,56161,1,0,0:0:0:0:
178,181,56240,2,0,P|218:175|265:188,1,53.9999983520508,4|0,0:0|0:0,0:0:0:0:
423,238,56554,2,0,B|408:173|331:154|285:211|285:211|279:120|279:120|203:237|91:187|91:187|194:143|226:98,1,647.99998022461
68,84,58753,5,0,0:0:0:0:
68,110,58831,1,0,0:0:0:0:
69,137,58910,1,0,0:0:0:0:
70,164,58989,1,0,0:0:0:0:
71,191,59067,6,0,B|121:216|121:216|225:182,1,148.50000453186,6|0,0:0|0:0,0:0:0:0:
288,140,59381,1,2,0:0:0:0:
225,320,59538,1,2,0:0:0:0:
234,62,59695,2,0,P|300:52|382:155,1,198.000006042481,2|10,0:0|0:0,0:0:0:0:
258,241,60167,1,2,0:0:0:0:
455,106,60324,6,0,P|467:160|456:214,1,99.0000030212403,2|0,0:0|0:0,0:0:0:0:
258,241,60638,2,0,P|246:187|257:133,1,99.0000030212403,10|0,0:0|0:0,0:0:0:0:
328,55,60952,2,0,B|354:34|354:34|444:41,1,99.0000030212403,2|0,0:0|0:0,0:0:0:0:
349,191,61266,2,0,B|323:212|323:212|233:205,1,99.0000030212403,10|8,0:0|0:0,0:0:0:0:
216,207,61502,1,8,0:0:0:0:
216,207,61580,6,0,L|210:306,1,99.0000030212403,14|0,0:0|0:0,0:0:0:0:
80,175,61894,2,0,L|86:76,1,99.0000030212403,10|0,0:0|0:0,0:0:0:0:
110,266,62208,2,0,P|45:266|-10:216,1,99.0000030212403,2|0,0:0|0:0,0:0:0:0:
175,63,62523,2,0,P|240:63|295:113,1,99.0000030212403,10|0,0:0|0:0,0:0:0:0:
269,298,62837,5,2,0:0:0:0:
207,159,62994,1,2,0:0:0:0:
115,266,63151,2,0,L|-7:262,1,99.0000030212403,10|0,0:0|0:0,0:0:0:0:
282,158,63465,6,0,P|294:244|262:305,1,148.50000453186,2|0,0:0|0:0,0:0:0:0:
218,354,63779,1,10,0:0:0:0:
55,206,63936,1,2,0:0:0:0:
68,185,64015,1,0,0:0:0:0:
83,165,64093,6,0,B|108:128|108:128|249:124,1,148.50000453186,4|0,0:0|0:0,0:0:0:0:
282,158,64407,1,10,0:0:0:0:
105,48,64564,1,2,0:0:0:0:
376,122,64722,2,0,P|384:178|260:256,1,198.000006042481,2|8,0:0|0:0,0:0:0:0:
83,165,65193,1,2,0:0:0:0:
255,88,65350,6,0,B|307:68|307:68|378:91,1,99.0000030212403,2|0,0:0|0:0,0:0:0:0:
512,139,65664,2,0,B|460:159|460:159|389:136,1,99.0000030212403,10|0,0:0|0:0,0:0:0:0:
337,286,65978,2,0,B|317:234|317:234|340:163,1,99.0000030212403,2|0,0:0|0:0,0:0:0:0:
57,91,66292,6,0,B|94:132|94:132|90:239,1,148.50000453186,10|0,0:0|0:0,0:0:0:0:
88,299,66606,1,12,0:0:0:0:
190,121,66763,1,8,0:0:0:0:
220,99,66842,1,8,0:0:0:0:
255,88,66920,1,8,0:0:0:0:
292,88,66999,1,8,0:0:0:0:
327,100,67078,1,12,0:0:0:0:
359,275,67235,5,8,0:0:0:0:
329,297,67313,1,8,0:0:0:0:
294,308,67392,1,8,0:0:0:0:
96,263,67549,6,0,B|81:201|81:201|108:86,1,148.50000453186,8|0,0:0|0:0,0:0:0:0:
140,41,67863,2,0,L|266:46,1,99.0000030212403,12|0,0:0|0:0,0:0:0:0:
411,59,68177,1,8,0:0:0:0:
0,110,68334,2,0,L|126:115,1,99.0000030212403,12|0,0:0|0:0,0:0:0:0:
244,52,68648,1,0,0:0:0:0:
275,42,68727,1,0,0:0:0:0:
308,39,68805,1,0,0:0:0:0:
340,44,68884,1,0,0:0:0:0:
371,56,68962,1,0,0:0:0:0:
398,74,69041,1,0,0:0:0:0:
423,100,69119,6,0,P|467:164|463:259,1,148.50000453186,6|0,0:0|0:0,0:0:0:0:
510,137,69434,1,10,0:0:0:0:
441,315,69591,1,2,0:0:0:0:
311,225,69748,2,0,L|303:336,1,99.0000030212403,2|0,0:0|0:0,0:0:0:0:
391,187,70062,1,10,0:0:0:0:
220,265,70219,1,2,0:0:0:0:
319,136,70376,6,0,L|296:22,1,99.0000030212403,2|0,0:0|0:0,0:0:0:0:
87,204,70690,1,10,0:0:0:0:
174,23,70847,1,2,0:0:0:0:
265,210,71004,2,0,L|378:215,1,99.0000030212403,2|0,0:0|0:0,0:0:0:0:
176,117,71318,2,0,L|77:112,1,99.0000030212403,10|8,0:0|0:0,0:0:0:0:
52,152,71554,1,8,0:0:0:0:
52,152,71633,6,0,P|55:207|46:251,1,99.0000030212403,6|0,0:0|0:0,0:0:0:0:
259,112,71947,2,0,P|256:167|265:211,1,99.0000030212403,8|0,0:0|0:0,0:0:0:0:
408,65,72261,2,0,B|374:41|374:41|290:41,1,99.0000030212403
264,209,72575,2,0,B|298:233|298:233|382:233,1,99.0000030212403,8|0,0:0|0:0,0:0:0:0:
151,49,72889,5,0,0:0:0:0:
73,151,73046,1,8,0:0:0:0:
73,151,73125,1,8,0:0:0:0:
73,151,73203,2,0,L|70:255,1,99.0000030212403,8|0,0:0|0:0,0:0:0:0:
187,351,73517,1,0,0:0:0:0:
329,277,73674,5,8,0:0:0:0:
342,255,73753,1,8,0:0:0:0:
355,233,73831,1,8,0:0:0:0:
364,209,73910,1,8,0:0:0:0:
370,184,73989,1,8,0:0:0:0:
373,158,74067,1,8,0:0:0:0:
373,134,74146,6,8,P|346:56|254:42,2,153.000002918243,12|8|8,0:0|0:0|0:0,0:0:0:0:
45,81,75088,1,0,0:0:0:0:
200,71,75245,1,8,0:0:0:0:
97,177,75402,1,0,0:0:0:0:
252,167,75559,1,8,0:0:0:0:
205,54,75716,6,0,L|310:50,1,76.5000014591217
343,283,76030,1,8,0:0:0:0:
249,138,76188,1,0,0:0:0:0:
177,283,76345,2,0,L|69:279,1,76.5000014591217
78,78,76659,5,12,0:0:0:0:
205,54,76816,1,8,0:0:0:0:
240,46,76894,1,8,0:0:0:0:
276,55,76973,1,8,0:0:0:0:
304,79,77051,1,8,0:0:0:0:
319,112,77130,2,0,L|333:167,1,49.5000015106202,12|0,0:0|0:0,0:0:0:0:
204,206,77287,5,8,0:0:0:0:
168,198,77366,1,8,0:0:0:0:
132,207,77444,1,8,0:0:0:0:
104,231,77523,1,8,0:0:0:0:
89,264,77601,6,0,L|62:372,1,99.0000030212403,12|0,0:0|0:0,0:0:0:0:
191,117,77915,2,0,L|218:225,1,99.0000030212403,12|0,0:0|0:0,0:0:0:0:
243,290,78151,1,0,0:0:0:0:
243,290,78229,1,0,0:0:0:0:
54,33,78386,6,0,L|78:129,1,99.0000030212403,12|0,0:0|0:0,0:0:0:0:
140,325,78701,2,0,L|164:228,1,99.0000030212403,12|0,0:0|0:0,0:0:0:0:
404,30,79015,6,0,L|457:250,1,198.000006042481,12|0,0:0|0:0,0:0:0:0:
222,257,79486,2,0,P|204:195|222:123,1,99.0000030212403
346,121,79800,2,0,P|364:183|346:255,1,99.0000030212403,8|0,0:0|0:0,0:0:0:0:
348,366,80114,1,0,0:0:0:0:
284,184,80271,1,8,0:0:0:0:
233,368,80428,1,2,0:0:0:0:
399,255,80585,1,2,0:0:0:0:
189,257,80742,6,0,P|133:259|72:228,1,99.0000030212403
37,195,80978,1,0,0:0:0:0:
37,195,81057,1,8,0:0:0:0:
216,147,81214,1,8,0:0:0:0:
88,347,81371,1,8,0:0:0:0:
138,68,81528,6,0,B|181:38|181:38|359:47,1,198.000006042481,12|0,0:0|0:0,0:0:0:0:
234,292,81999,1,2,0:0:0:0:
72,144,82156,1,2,0:0:0:0:
290,148,82313,1,2,0:0:0:0:
201,366,82470,1,2,0:0:0:0:
191,189,82627,1,2,0:0:0:0:
379,111,82784,1,2,0:0:0:0:
349,292,82941,6,0,L|210:275,1,99.0000030212403
191,189,83256,1,0,0:0:0:0:
379,111,83413,1,8,0:0:0:0:
379,111,83491,1,8,0:0:0:0:
379,111,83570,5,8,0:0:0:0:
443,305,83727,1,8,0:0:0:0:
250,279,83884,1,8,0:0:0:0:
250,279,84041,2,0,B|283:228|283:228|271:51,1,198.000006042481,4|0,0:0|0:0,0:0:0:0:
47,78,84512,5,8,0:0:0:0:
130,340,84669,1,0,0:0:0:0:
139,43,84826,5,8,0:0:0:0:
57,305,84983,1,0,0:0:0:0:
348,119,85140,5,8,0:0:0:0:
86,202,85297,1,0,0:0:0:0:
139,43,85455,5,8,0:0:0:0:
222,305,85612,1,0,0:0:0:0:
220,6,85769,5,8,0:0:0:0:
137,268,85926,1,0,0:0:0:0:
437,234,86083,5,8,0:0:0:0:
175,152,86240,1,0,0:0:0:0:
175,152,86318,1,0,0:0:0:0:
175,152,86397,1,0,0:0:0:0:
470,330,86554,6,0,B|516:274|516:274|512:120,1,198.000006042481
297,29,87025,1,0,0:0:0:0:
297,29,87104,1,0,0:0:0:0:
297,29,87182,6,0,L|295:141,1,107.999996704102
105,317,87496,1,0,0:0:0:0:
105,317,87575,1,0,0:0:0:0:
105,317,87653,6,0,L|108:196,1,116.999994644165
193,35,87968,1,0,0:0:0:0:
193,35,88046,1,0,0:0:0:0:
193,35,88125,6,0,P|256:22|338:49,1,125.999996154785
326,324,88439,1,0,0:0:0:0:
326,324,88517,1,0,0:0:0:0:
326,324,88596,6,0,P|263:337|174:302,1,130.500003982544
137,180,88831,1,0,0:0:0:0:
159,144,88910,1,0,0:0:0:0:
193,119,88989,1,0,0:0:0:0:
234,109,89067,2,0,B|300:91|354:117|354:117|368:71|368:71|447:64|505:148|505:148|444:192|444:192,1,405.000015449525,4|0,0:0|0:0,0:0:0:0:
