osu file format v14

[General]
AudioFilename: audio.mp3
AudioLeadIn: 0
PreviewTime: 58584
Countdown: 0
SampleSet: Soft
StackLeniency: 0.7
Mode: 2
LetterboxInBreaks: 0
WidescreenStoryboard: 1

[Editor]
Bookmarks: 6280,16804,26385,36594,46647,59212,78060,86699
DistanceSpacing: 1.2
BeatDivisor: 16
GridSize: 8
TimelineZoom: 2.3

[Metadata]
Title:Good Morning World! (TV Size)
TitleUnicode:Good Morning World! (TV Size)
Artist:BURNOUT SYNDROMES
ArtistUnicode:BURNOUT SYNDROMES
Creator:Greaper
Version:Rain
Source:Dr.STONE
Tags:Chickenbible Bastian Jorkseljund ドクターストーン dr. stone ohayou sekai anime japanese rock opening e=mc2 e=mc^2
BeatmapID:2134414
BeatmapSetID:1020046

[Difficulty]
HPDrainRate:5
CircleSize:4
OverallDifficulty:9
ApproachRate:9
SliderMultiplier:1.6
SliderTickRate:2

[Events]
//Background and Video events
0,0,"bg.jpg",0,0
Video,-513,"theory of special relativity.mp4"
//Break Periods
//Storyboard Layer 0 (Background)
//Storyboard Layer 1 (Fail)
//Storyboard Layer 2 (Pass)
//Storyboard Layer 3 (Foreground)
//Storyboard Layer 4 (Overlay)
//Storyboard Sound Samples

[TimingPoints]
155,314.13612565445,4,2,11,50,1,0
5652,-33.3333333333333,4,2,11,40,0,0
5789,-33.3333333333333,4,2,11,55,0,0
6280,-100,4,2,11,60,0,0
16018,-100,4,2,12,50,0,0
16097,-100,4,2,13,50,0,0
16175,-100,4,2,14,50,0,0
16254,-100,4,2,15,50,0,0
16333,-100,4,2,11,60,0,0
16647,-100,4,2,11,50,0,0
16804,-100,4,2,11,50,0,0
21359,-100,4,2,11,65,0,0
24029,-100,4,2,11,40,0,0
24186,-100,4,2,11,65,0,0
25285,-100,4,2,11,50,0,0
25442,-100,4,2,11,65,0,0
26385,-100,4,2,11,65,0,0
26699,-100,4,2,11,55,0,0
31411,-100,4,2,11,70,0,0
35809,-100,4,2,11,60,0,0
35966,-100,4,2,15,60,0,0
36123,-100,4,2,14,60,0,0
36280,-100,4,2,13,60,0,0
36594,-100,4,2,11,40,0,0
38793,-100,4,2,12,40,0,0
38950,-100,4,2,11,40,0,0
43662,-100,4,2,11,25,0,0
43819,-100,4,2,11,40,0,0
44134,-100,4,2,11,55,0,0
46647,-100,4,2,11,60,0,0
56071,-100,4,2,15,55,0,0
56149,-100,4,2,14,55,0,0
56228,-100,4,2,13,55,0,0
56385,-100,4,2,11,55,0,0
56699,-100,4,2,11,50,0,0
58584,-100,4,2,11,55,0,0
59212,-100,4,2,11,70,0,1
66908,-100,4,2,11,55,0,1
67223,-100,4,2,11,70,0,1
67380,-100,4,2,11,55,0,1
67694,-100,4,2,11,70,0,1
69264,-100,4,2,11,70,0,1
73191,-100,4,2,11,60,0,1
73662,-100,4,2,11,40,0,1
73819,-100,4,2,11,55,0,1
73976,-100,4,2,11,60,0,1
74291,-100,4,2,11,70,0,1
76175,-100,4,2,14,60,0,1
76490,-100,4,2,15,60,0,1
76804,-100,4,2,11,70,0,1
78060,-100,4,2,11,60,0,0
78296,-100,4,2,11,50,0,0
78531,-100,4,2,11,60,0,0
79317,-100,4,2,11,60,0,0
84186,-100,4,2,11,70,0,0
86699,-100,4,2,11,75,0,0
89212,-100,4,2,11,70,0,0

[Colours]
Combo1 : 255,182,108
Combo2 : 140,255,128
Combo3 : 215,213,123
Combo4 : 224,95,98

[HitObjects]
272,229,783,6,0,L|94:182,1,160,0|0,0:0|0:0,0:0:0:0:
405,203,1411,2,0,P|445:188|362:82,1,240,2|0,0:0|0:0,0:0:0:0:
292,80,2039,2,0,P|217:155|303:221,1,240,0|0,0:0|0:0,0:0:0:0:
123,166,2668,6,0,L|113:330,1,160,2|0,0:0|0:0,0:0:0:0:
373,289,3296,2,0,P|420:258|366:195,1,160,2|0,0:0|0:0,0:0:0:0:
256,192,3924,12,0,5495,0:0:0:0:
161,139,5652,6,0,L|383:70,1,210.000008010865,0|8,0:0|0:0,0:0:0:0:
155,191,6280,6,0,P|101:224|153:282,1,160,4|8,0:0|0:3,0:0:0:0:
327,275,6751,2,0,L|425:254,1,80,8|8,0:0|0:3,0:0:0:0:
323,229,7065,2,0,L|213:212,1,80,8|8,0:0|0:3,0:0:0:0:
325,181,7380,1,8,0:0:0:0:
165,187,7537,1,8,0:3:0:0:
380,119,7694,6,0,L|483:109,2,80,10|8|8,0:0|0:3|0:0,0:0:0:0:
299,229,8165,1,8,0:3:0:0:
258,238,8244,1,8,0:3:0:0:
398,231,8322,2,0,P|457:197|401:139,1,160,10|8,0:0|0:0,0:0:0:0:
196,137,8793,6,0,L|30:127,1,160,6|8,0:0|0:3,0:0:0:0:
77,89,9186,1,8,0:3:0:0:
216,80,9264,2,0,L|307:88,1,80,8|8,0:0|0:3,0:0:0:0:
214,145,9579,2,0,L|113:162,1,80,8|8,0:0|0:3,0:0:0:0:
218,194,9893,1,8,0:0:0:0:
376,195,10050,1,8,0:3:0:0:
160,247,10207,6,0,L|62:257,2,80,10|8|8,0:0|0:3|0:0,0:0:0:0:
320,253,10678,1,8,0:3:0:0:
161,174,10835,1,10,0:0:0:0:
313,167,10992,2,0,L|329:78,1,80,8|8,0:0|0:0,0:0:0:0:
110,93,11306,6,0,P|63:109|108:187,1,160,6|8,0:0|0:3,0:0:0:0:
261,209,11778,2,0,L|343:224,1,80,8|0,0:0|0:0,0:0:0:0:
250,259,12092,2,0,L|239:340,1,80,8|8,0:3|0:3,0:0:0:0:
392,332,12406,2,0,L|477:338,1,80,8|0,0:0|0:0,0:0:0:0:
255,181,12720,6,0,L|160:168,1,80,10|8,0:3|0:3,0:0:0:0:
336,165,13034,2,0,P|388:142|323:85,1,160,8|8,0:0|0:3,0:0:0:0:
258,78,13505,1,8,0:3:0:0:
104,74,13662,1,8,0:0:0:0:
322,173,13819,6,0,P|371:202|312:259,1,160,6|8,0:0|0:3,0:0:0:0:
163,256,14291,2,0,L|147:161,1,80,8|0,0:0|0:0,0:0:0:0:
303,145,14605,2,0,L|411:134,1,80,10|8,0:3|0:3,0:0:0:0:
294,105,14919,1,8,0:0:0:0:
446,94,15076,1,8,0:3:0:0:
227,85,15233,6,0,L|139:81,1,80,10|8,0:0|0:3,0:0:0:0:
307,182,15547,2,0,L|317:267,1,80,8|0,0:0|0:0,0:0:0:0:
99,277,15861,1,8,0:0:0:0:
75,263,15940,1,8,0:0:0:0:
99,236,16018,1,8,0:3:0:0:
132,212,16097,1,8,0:3:0:0:
124,159,16175,1,8,0:3:0:0:
81,144,16254,1,8,0:3:0:0:
248,130,16333,1,4,0:0:0:0:
90,256,16804,6,0,L|46:332,1,80,8|0,0:0|0:0,0:0:0:0:
194,311,17118,2,0,P|250:293|197:219,1,160,0|8,0:0|0:0,0:0:0:0:
145,216,17589,1,0,0:0:0:0:
361,187,17746,5,0,0:0:0:0:
441,159,17903,2,0,L|446:61,1,80,0|8,0:0|0:0,0:0:0:0:
293,78,18217,2,0,P|233:131|296:173,1,160,0|0,0:0|0:0,0:0:0:0:
431,196,18689,1,10,0:0:0:0:
212,223,18846,6,0,L|47:254,1,160,8|8,0:3|0:3,0:0:0:0:
208,299,19317,2,0,L|230:383,1,80,8|0,0:0|0:0,0:0:0:0:
68,200,19631,2,0,P|18:174|77:111,1,160,0|8,0:0|0:0,0:0:0:0:
148,111,20102,1,8,0:3:0:0:
366,116,20259,6,0,L|465:128,2,80,0|8|8,0:0|0:3|0:0,0:0:0:0:
207,177,20730,1,8,0:3:0:0:
166,207,20809,1,8,0:3:0:0:
125,238,20887,1,8,0:0:0:0:
343,254,21045,2,0,L|436:262,1,80,8|0,0:0|0:0,0:0:0:0:
205,81,21359,6,0,P|188:135|283:181,1,160,4|8,0:0|0:3,0:0:0:0:
414,166,21830,2,0,L|421:257,1,80,8|0,0:0|0:0,0:0:0:0:
261,205,22144,2,0,L|163:210,1,80,8|8,0:3|0:3,0:0:0:0:
341,237,22458,2,0,L|346:324,1,80,8|0,0:0|0:0,0:0:0:0:
130,294,22772,6,0,L|34:290,1,80,8|8,0:3|0:3,0:0:0:0:
211,278,23086,2,0,L|214:174,1,80,8|0,0:0|0:0,0:0:0:0:
131,140,23401,2,0,L|232:137,1,80,8|8,0:3|0:3,0:0:0:0:
368,140,23715,2,0,L|382:39,1,80,8|8,0:0|0:3,0:0:0:0:
158,48,24029,6,0,P|78:74|83:142,1,160,8|8,0:1|0:0,0:0:0:0:
242,145,24657,2,0,L|253:249,1,80,8|8,0:3|0:3,0:0:0:0:
92,190,24971,2,0,L|83:291,1,80,8|8,0:0|0:3,0:0:0:0:
302,111,25285,6,0,L|415:97,1,80,8|8,0:1|0:3,0:0:0:0:
226,177,25600,1,8,0:0:0:0:
310,178,25757,1,0,0:0:0:0:
92,225,25914,1,8,0:3:0:0:
20,260,26071,1,8,0:0:0:0:
91,285,26228,1,8,0:0:0:0:
311,297,26385,6,0,P|363:274|313:206,1,160,4|8,0:0|0:3,0:0:0:0:
163,200,26856,2,0,L|152:106,1,80,8|0,0:0|0:0,0:0:0:0:
315,117,27170,2,0,L|482:102,1,160,0|8,0:0|0:0,0:0:0:0:
391,63,27641,1,0,0:0:0:0:
173,66,27798,5,0,0:0:0:0:
256,121,27956,2,0,L|352:127,1,80,0|8,0:0|0:0,0:0:0:0:
173,182,28270,2,0,L|158:272,1,80,0|0,0:0|0:0,0:0:0:0:
318,202,28584,2,0,L|418:212,1,80,0|8,0:0|0:0,0:0:0:0:
179,338,28898,6,0,P|129:317|185:249,1,160,8|8,0:3|0:3,0:0:0:0:
328,241,29369,1,8,0:0:0:0:
166,203,29683,2,0,P|163:175|278:119,1,160,0|8,0:0|0:0,0:0:0:0:
336,115,30154,1,8,0:3:0:0:
97,78,30312,5,0,0:0:0:0:
175,121,30469,2,0,L|71:135,1,80,8|8,0:3|0:0,0:0:0:0:
240,212,30783,1,8,0:3:0:0:
281,221,30861,1,8,0:3:0:0:
120,214,30940,2,0,L|10:223,1,80,8|8,0:0|0:0,0:0:0:0:
423,291,31411,6,0,P|471:240|401:195,1,160,4|8,0:0|0:3,0:0:0:0:
265,184,31882,2,0,L|178:177,1,80,8|0,0:0|0:0,0:0:0:0:
344,147,32196,2,0,L|350:59,1,80,8|8,0:3|0:3,0:0:0:0:
188,68,32511,2,0,L|90:59,1,80,8|0,0:0|0:0,0:0:0:0:
325,218,32825,6,0,L|431:212,1,80,8|8,0:3|0:3,0:0:0:0:
244,240,33139,1,8,0:0:0:0:
403,271,33453,2,0,L|415:355,1,80,8|8,0:3|0:3,0:0:0:0:
255,338,33767,2,0,L|156:332,1,80,8|8,0:0|0:3,0:0:0:0:
393,194,34081,6,0,L|379:110,1,80,0|8,0:0|0:3,0:0:0:0:
222,153,34395,1,8,0:0:0:0:
480,133,34709,2,0,L|481:44,1,80,8|8,0:3|0:3,0:0:0:0:
327,68,35024,2,0,L|423:60,1,80,8|8,0:0|0:3,0:0:0:0:
184,73,35338,6,0,P|136:89|199:157,1,160,4|0,0:0|0:0,0:0:0:0:
332,173,35809,1,8,0:0:0:0:
372,173,35887,1,8,0:0:0:0:
211,198,35966,2,0,L|125:214,1,80,8|8,0:3|0:3,0:0:0:0:
215,263,36280,2,0,L|300:272,1,80,8|8,0:3|0:3,0:0:0:0:
76,274,36594,6,0,P|33:243|126:137,1,240,2|8,0:0|0:3,0:0:0:0:
208,149,37223,2,0,L|224:238,1,80,0|8,0:0|0:3,0:0:0:0:
70,243,37537,2,0,L|61:333,1,80,0|8,0:0|0:3,0:0:0:0:
214,304,37851,6,0,L|309:310,2,80,0|0|0,0:0|0:0|0:0,0:0:0:0:
61,244,38322,2,0,P|20:222|76:147,1,160,0|8,0:0|0:3,0:0:0:0:
219,150,38793,2,0,L|328:139,1,80,8|0,0:3|0:0,0:0:0:0:
79,80,39107,6,0,P|74:136|223:229,1,240,10|8,0:3|0:3,0:0:0:0:
290,220,39736,2,0,L|308:138,1,80,0|8,0:0|0:3,0:0:0:0:
163,167,40050,2,0,L|153:69,1,80,0|8,0:0|0:3,0:0:0:0:
310,290,40364,6,0,L|210:283,2,80,0|0|0,0:0|0:0|0:0,0:0:0:0:
465,292,40835,2,0,P|501:266|438:197,1,160,0|8,0:0|0:3,0:0:0:0:
293,196,41306,2,0,L|188:184,1,80,0|0,0:0|0:0,0:0:0:0:
433,180,41620,6,0,P|486:162|396:78,1,240,2|8,0:0|0:3,0:0:0:0:
253,107,42249,2,0,L|248:205,1,80,0|8,0:0|0:3,0:0:0:0:
402,202,42563,2,0,L|494:210,1,80,0|8,0:0|0:3,0:0:0:0:
328,245,42877,6,0,L|234:235,2,80,0|0|0,0:0|0:0|0:0,0:0:0:0:
480,246,43348,2,0,P|477:188|369:142,1,160,0|8,0:0|0:1,0:0:0:0:
239,129,43819,2,0,L|143:112,1,80,8|0,0:1|0:0,0:0:0:0:
402,197,44134,5,4,0:0:0:0:
113,200,45076,2,0,L|96:362,1,160,0|0,0:0|0:0,0:0:0:0:
260,321,45704,1,0,0:0:0:0:
106,197,45861,2,0,L|274:182,2,160,0|0|0,0:0|0:0|0:0,0:0:0:0:
351,239,46647,5,4,0:0:0:0:
207,252,46804,1,8,0:0:0:0:
173,277,46882,1,8,0:0:0:0:
197,310,46961,1,8,0:0:0:0:
423,315,47118,1,4,0:0:0:0:
269,177,47275,1,8,0:0:0:0:
228,182,47353,1,8,0:0:0:0:
187,185,47432,1,8,0:0:0:0:
411,147,47589,2,0,P|451:127|389:51,1,160,4|8,0:0|0:0,0:0:0:0:
185,66,48060,5,4,0:0:0:0:
329,91,48217,1,8,0:0:0:0:
359,123,48296,1,0,0:0:0:0:
330,150,48374,1,8,0:3:0:0:
112,153,48531,1,0,0:0:0:0:
273,210,48689,1,8,0:3:0:0:
301,234,48767,1,8,0:3:0:0:
272,263,48846,1,8,0:0:0:0:
245,287,48924,1,8,0:0:0:0:
273,307,49003,1,8,0:0:0:0:
313,312,49081,1,8,0:0:0:0:
151,308,49160,5,4,0:0:0:0:
71,71,49317,1,8,0:3:0:0:
111,75,49395,1,8,0:3:0:0:
152,80,49474,1,8,0:0:0:0:
297,135,49631,1,0,0:0:0:0:
137,157,49788,2,0,L|77:239,1,80,8|8,0:0|0:3,0:0:0:0:
131,207,50024,1,8,0:3:0:0:
292,218,50102,2,0,L|388:223,1,80,4|8,0:0|0:3,0:0:0:0:
402,250,50338,1,8,0:3:0:0:
373,277,50416,1,8,0:3:0:0:
133,287,50573,6,0,P|86:275|137:202,1,160,2|8,0:0|0:3,0:0:0:0:
163,201,50966,1,8,0:3:0:0:
344,197,51045,2,0,L|459:189,2,80,2|8|8,0:0|0:0|0:3,0:0:0:0:
192,147,51516,1,8,0:3:0:0:
151,133,51594,1,8,0:3:0:0:
353,103,51673,6,0,L|444:94,1,80,4|0,0:0|0:0,0:0:0:0:
280,182,51987,2,0,P|241:222|331:264,1,160,8|8,0:0|0:3,0:0:0:0:
407,289,52458,1,8,0:3:0:0:
310,324,52615,1,0,0:0:0:0:
93,318,52772,6,0,P|23:297|110:228,1,240,8|8,0:0|0:0,0:0:0:0:
187,226,53401,1,0,0:0:0:0:
346,226,53558,1,8,0:3:0:0:
390,191,53636,1,8,0:3:0:0:
382,140,53715,1,8,0:3:0:0:
338,124,53793,1,8,0:3:0:0:
196,125,53872,2,0,L|101:117,1,80,8|0,0:0|0:0,0:0:0:0:
337,283,54186,5,4,0:0:0:0:
250,285,54343,1,8,0:3:0:0:
220,250,54422,1,8,0:3:0:0:
249,221,54500,1,8,0:3:0:0:
402,200,54657,1,8,0:0:0:0:
316,165,54814,1,8,0:3:0:0:
275,132,54893,1,8,0:3:0:0:
233,108,54971,1,8,0:3:0:0:
391,105,55128,2,0,L|486:97,1,80,8|0,0:0|0:0,0:0:0:0:
251,66,55442,5,0,0:0:0:0:
211,62,55521,1,8,0:3:0:0:
355,191,55600,2,0,L|461:197,1,80,8|0,0:0|0:0,0:0:0:0:
282,246,55914,1,8,0:3:0:0:
426,243,56071,1,8,0:3:0:0:
456,271,56149,1,8,0:3:0:0:
426,301,56228,1,8,0:3:0:0:
267,308,56385,2,0,L|168:299,1,80,8|0,0:0|0:0,0:0:0:0:
410,170,56699,5,6,0:0:0:0:
195,178,57170,1,2,0:0:0:0:
256,192,57641,12,0,58584,0:0:0:0:
78,262,58898,5,8,0:0:0:0:
38,231,58976,1,8,0:0:0:0:
46,178,59055,1,8,0:0:0:0:
88,149,59134,1,8,0:0:0:0:
269,147,59212,6,0,L|439:138,1,160,4|8,0:0|0:0,0:0:0:0:
347,93,59683,1,0,0:0:0:0:
189,99,59840,2,0,P|137:104|193:171,1,160,8|8,0:3|0:0,0:0:0:0:
242,187,60312,1,0,0:0:0:0:
460,186,60469,6,0,P|493:221|423:279,1,160,8|8,0:3|0:0,0:0:0:0:
170,257,61097,2,0,L|152:164,1,80,8|0,0:3|0:0,0:0:0:0:
311,154,61411,2,0,L|403:147,1,80,8|8,0:0|0:0,0:0:0:0:
391,107,61647,1,8,0:0:0:0:
251,96,61725,6,0,L|77:85,1,160,8|8,0:3|0:0,0:0:0:0:
240,176,62353,2,0,L|254:270,1,80,8|0,0:3|0:0,0:0:0:0:
97,185,62668,2,0,L|92:275,1,80,8|0,0:0|0:0,0:0:0:0:
246,282,62982,6,0,P|292:267|330:163,1,160,8|8,0:3|0:0,0:0:0:0:
77,182,63610,2,0,L|66:82,1,80,8|0,0:3|0:0,0:0:0:0:
290,93,63924,2,0,L|392:83,1,80,8|8,0:0|0:0,0:0:0:0:
329,46,64160,1,8,0:0:0:0:
170,55,64238,6,0,P|118:77|109:187,1,160,8|8,0:3|0:0,0:0:0:0:
184,196,64709,1,0,0:0:0:0:
338,202,64867,2,0,P|341:254|261:322,1,160,8|8,0:3|0:0,0:0:0:0:
181,311,65338,1,0,0:0:0:0:
408,306,65495,6,0,P|457:233|400:220,1,160,8|8,0:3|0:0,0:0:0:0:
162,235,66123,2,0,L|157:147,1,80,8|0,0:3|0:0,0:0:0:0:
310,136,66437,2,0,L|409:128,1,80,8|0,0:0|0:0,0:0:0:0:
170,96,66751,5,4,0:0:0:0:
97,131,66908,1,8,0:3:0:0:
55,158,66987,1,8,0:3:0:0:
63,213,67065,1,8,0:3:0:0:
103,230,67144,1,8,0:3:0:0:
264,227,67223,1,4,0:0:0:0:
347,232,67380,1,8,0:3:0:0:
375,253,67458,1,8,0:3:0:0:
345,282,67537,1,8,0:3:0:0:
305,305,67615,1,8,0:3:0:0:
164,311,67694,2,0,L|57:316,1,80,8|0,0:0|0:0,0:0:0:0:
325,210,68008,6,0,P|388:197|439:119,1,160,4|0,0:0|0:0,0:0:0:0:
353,107,68479,2,0,L|250:109,1,80,8|0,0:0|0:0,0:0:0:0:
426,207,68793,1,8,0:0:0:0:
466,229,68872,1,8,0:0:0:0:
457,277,68950,1,8,0:0:0:0:
416,282,69029,1,8,0:0:0:0:
276,281,69107,1,8,0:0:0:0:
235,283,69186,1,8,0:0:0:0:
414,155,69264,6,0,P|457:140|397:75,1,160,4|8,0:0|0:0,0:0:0:0:
333,79,69736,1,0,0:0:0:0:
181,80,69893,2,0,P|188:137|301:179,1,160,8|8,0:3|0:0,0:0:0:0:
424,180,70364,1,8,0:0:0:0:
464,184,70442,1,8,0:0:0:0:
323,225,70521,6,0,L|216:213,1,80,8|0,0:3|0:0,0:0:0:0:
324,273,70835,1,8,0:0:0:0:
172,310,70992,1,0,0:0:0:0:
309,278,71149,2,0,L|394:281,1,80,8|0,0:3|0:0,0:0:0:0:
173,188,71463,2,0,L|85:181,1,80,8|8,0:0|0:0,0:0:0:0:
137,134,71699,1,8,0:0:0:0:
300,131,71778,6,0,P|355:117|290:54,1,160,10|8,0:3|0:0,0:0:0:0:
240,46,72249,1,0,0:0:0:0:
158,52,72406,2,0,L|151:154,1,80,8|0,0:3|0:0,0:0:0:0:
305,159,72720,2,0,L|399:167,1,80,8|0,0:0|0:0,0:0:0:0:
164,209,73034,5,10,0:3:0:0:
316,228,73191,1,8,0:0:0:0:
336,255,73270,1,8,0:0:0:0:
316,273,73348,1,8,0:3:0:0:
164,280,73505,1,8,0:0:0:0:
123,274,73584,1,8,0:0:0:0:
263,41,73662,1,4,0:0:0:0:
305,58,73741,1,0,0:0:0:0:
313,112,73819,1,8,0:3:0:0:
272,139,73898,1,8,0:3:0:0:
112,159,73976,1,8,0:0:0:0:
71,141,74055,1,8,0:0:0:0:
79,85,74134,1,8,0:0:0:0:
119,61,74212,1,8,0:0:0:0:
280,192,74291,5,4,0:0:0:0:
361,202,74448,2,0,L|366:313,1,80,0|8,0:0|0:0,0:0:0:0:
213,282,74762,2,0,L|117:279,2,80,0|8|0,0:0|0:3|0:0,0:0:0:0:
301,292,75233,2,0,L|391:295,1,80,8|8,0:0|0:0,0:0:0:0:
140,224,75547,6,0,L|39:212,2,80,8|0|0,0:3|0:0|0:0,0:0:0:0:
292,184,76018,2,0,L|299:95,1,80,0|8,0:0|0:3,0:0:0:0:
221,100,76333,1,8,0:3:0:0:
374,104,76490,2,0,L|472:107,1,80,8|0,0:3|0:0,0:0:0:0:
234,168,76804,5,4,0:0:0:0:
155,182,76961,1,0,0:0:0:0:
135,208,77039,1,0,0:0:0:0:
155,238,77118,1,8,0:3:0:0:
372,253,77275,1,4,0:0:0:0:
454,254,77432,1,8,0:3:0:0:
474,282,77511,1,8,0:3:0:0:
454,313,77589,1,8,0:3:0:0:
237,318,77746,2,0,L|219:215,1,80,8|0,0:0|0:0,0:0:0:0:
444,185,78060,6,0,P|482:162|431:110,1,120,8|8,0:3|0:3,0:0:0:0:
411,108,78374,1,8,0:3:0:0:
191,111,78531,2,0,L|102:112,1,80,12|0,0:0|0:0,0:0:0:0:
329,126,78846,2,0,L|412:137,1,80,12|0,0:0|0:0,0:0:0:0:
167,186,79160,6,0,L|75:205,2,80,8|0|0,0:3|0:0|0:0,0:0:0:0:
249,189,79631,2,0,L|270:91,1,80,8|0,0:3|0:0,0:0:0:0:
111,125,79945,2,0,L|94:42,1,80,8|0,0:3|0:0,0:0:0:0:
176,47,80259,1,8,0:3:0:0:
97,44,80416,1,8,0:0:0:0:
317,52,80573,5,8,0:3:0:0:
398,60,80730,2,0,L|406:156,1,80,8|8,0:0|0:3,0:0:0:0:
258,157,81045,1,8,0:3:0:0:
217,166,81123,1,8,0:3:0:0:
358,178,81202,1,8,0:0:0:0:
437,185,81359,1,8,0:3:0:0:
358,178,81516,1,8,0:3:0:0:
133,220,81673,6,0,P|88:242|154:316,1,160,8|0,0:0|0:0,0:0:0:0:
209,314,82144,2,0,L|292:328,1,80,8|0,0:3|0:0,0:0:0:0:
135,201,82458,2,0,L|122:114,1,80,8|0,0:0|0:0,0:0:0:0:
284,109,82772,1,8,0:3:0:0:
202,107,82929,1,8,0:0:0:0:
418,90,83086,6,0,L|502:83,1,80,8|8,0:3|0:0,0:0:0:0:
409,137,83401,1,0,0:0:0:0:
256,152,83558,1,8,0:3:0:0:
215,156,83636,1,8,0:3:0:0:
358,204,83715,2,0,L|450:207,1,80,8|8,0:0|0:0,0:0:0:0:
286,247,84029,1,8,0:0:0:0:
66,251,84186,6,0,P|27:227|84:152,1,160,4|8,0:0|0:3,0:0:0:0:
116,152,84579,1,8,0:3:0:0:
256,147,84657,2,0,L|358:141,1,80,8|8,0:0|0:3,0:0:0:0:
191,101,84971,2,0,L|178:22,1,80,8|8,0:0|0:3,0:0:0:0:
332,24,85285,1,8,0:0:0:0:
410,33,85442,1,8,0:3:0:0:
451,35,85521,1,8,0:3:0:0:
289,106,85600,6,0,L|198:110,1,80,8|8,0:0|0:3,0:0:0:0:
356,157,85914,2,0,L|363:244,1,80,8|0,0:0|0:0,0:0:0:0:
209,230,86228,1,8,0:0:0:0:
288,233,86385,1,8,0:0:0:0:
327,235,86463,1,8,0:0:0:0:
366,239,86542,1,8,0:0:0:0:
109,302,86699,6,0,P|67:283|111:199,1,160,4|8,0:0|0:0,0:0:0:0:
143,190,87092,1,8,0:0:0:0:
183,186,87170,1,8,0:0:0:0:
402,168,87327,1,4,0:0:0:0:
483,124,87484,1,8,0:3:0:0:
443,123,87563,1,8,0:3:0:0:
403,121,87641,1,8,0:3:0:0:
184,101,87798,1,4,0:0:0:0:
336,98,87956,5,8,0:3:0:0:
366,69,88034,1,8,0:3:0:0:
336,45,88113,1,8,0:3:0:0:
117,51,88270,2,0,L|220:50,2,80,4|0|0,0:0|0:0|0:0,0:0:0:0:
339,147,88741,2,0,L|437:158,1,80,8|8,0:3|0:0,0:0:0:0:
460,175,88976,1,8,0:0:0:0:
318,204,89055,1,8,0:0:0:0:
277,212,89134,1,8,0:0:0:0:
477,228,89212,5,4,0:0:0:0:
