osu file format v14

[General]
AudioFilename: audio.mp3
AudioLeadIn: 0
PreviewTime: 58584
Countdown: 0
SampleSet: Soft
StackLeniency: 0.7
Mode: 2
LetterboxInBreaks: 0
WidescreenStoryboard: 0

[Editor]
Bookmarks: 6280,16804,26385,36594,46647,59212,78060,86699
DistanceSpacing: 1.8
BeatDivisor: 16
GridSize: 8
TimelineZoom: 3.999998

[Metadata]
Title:Good Morning World! (TV Size)
TitleUnicode:Good Morning World! (TV Size)
Artist:BURNOUT SYNDROMES
ArtistUnicode:BURNOUT SYNDROMES
Creator:Greaper
Version:Overdose
Source:Dr.STONE
Tags:Chickenbible Bastian Jorkseljund ドクターストーン dr. stone ohayou sekai anime japanese rock opening e=mc2 e=mc^2
BeatmapID:2134413
BeatmapSetID:1020046

[Difficulty]
HPDrainRate:6
CircleSize:4.2
OverallDifficulty:9.3
ApproachRate:9.3
SliderMultiplier:1.8
SliderTickRate:2

[Events]
//Background and Video events
0,0,"bg.jpg",0,0
Video,-513,"theory of special relativity.mp4"
//Break Periods
//Storyboard Layer 0 (Background)
//Storyboard Layer 1 (Fail)
//Storyboard Layer 2 (Pass)
//Storyboard Layer 3 (Foreground)
//Storyboard Layer 4 (Overlay)
//Storyboard Sound Samples

[TimingPoints]
155,314.13612565445,4,2,11,50,1,0
5652,-40,4,2,11,40,0,0
5789,-40,4,2,11,55,0,0
6280,-100,4,2,11,60,0,0
16018,-100,4,2,12,50,0,0
16097,-100,4,2,13,50,0,0
16175,-100,4,2,14,50,0,0
16254,-100,4,2,15,50,0,0
16333,-100,4,2,11,60,0,0
16647,-100,4,2,11,50,0,0
16804,-100,4,2,11,50,0,0
21359,-100,4,2,11,65,0,0
24029,-100,4,2,11,40,0,0
24186,-100,4,2,11,65,0,0
25285,-100,4,2,11,50,0,0
25442,-100,4,2,11,65,0,0
26385,-100,4,2,11,65,0,0
26699,-100,4,2,11,55,0,0
31411,-100,4,2,11,70,0,0
35809,-100,4,2,11,60,0,0
35966,-100,4,2,15,60,0,0
36123,-100,4,2,14,60,0,0
36280,-100,4,2,13,60,0,0
36594,-100,4,2,11,40,0,0
38793,-100,4,2,12,40,0,0
38950,-100,4,2,11,40,0,0
43662,-100,4,2,11,25,0,0
43819,-100,4,2,11,40,0,0
44134,-100,4,2,11,55,0,0
46647,-100,4,2,11,60,0,0
56071,-100,4,2,15,55,0,0
56149,-100,4,2,14,55,0,0
56228,-100,4,2,13,55,0,0
56385,-100,4,2,11,55,0,0
56699,-100,4,2,11,50,0,0
58584,-100,4,2,11,55,0,0
59212,-100,4,2,11,70,0,1
66908,-100,4,2,11,55,0,1
67223,-100,4,2,11,70,0,1
67380,-100,4,2,11,55,0,1
67694,-100,4,2,11,70,0,1
69264,-100,4,2,11,70,0,1
73191,-100,4,2,11,60,0,1
73662,-100,4,2,11,40,0,1
73819,-100,4,2,11,55,0,1
73976,-100,4,2,11,60,0,1
74291,-100,4,2,11,70,0,1
76175,-100,4,2,14,60,0,1
76490,-100,4,2,15,60,0,1
76804,-100,4,2,11,70,0,1
78060,-100,4,2,11,60,0,0
78296,-100,4,2,11,50,0,0
78531,-100,4,2,11,60,0,0
79317,-100,4,2,11,60,0,0
84186,-100,4,2,11,70,0,0
86699,-100,4,2,11,75,0,0
89212,-100,4,2,11,70,0,0

[Colours]
Combo1 : 255,182,108
Combo2 : 140,255,128
Combo3 : 215,213,123
Combo4 : 224,95,98

[HitObjects]
430,262,783,6,0,P|490:211|430:156,1,180,0|0,0:0|0:0,0:0:0:0:
179,189,1411,2,0,P|129:177|232:98,1,270,2|0,0:0|0:0,0:0:0:0:
293,209,2039,2,0,L|96:234,1,180,0|0,0:0|0:0,0:0:0:0:
278,280,2511,1,0,0:0:0:0:
117,171,2668,6,0,P|60:121|129:64,1,180,2|0,0:0|0:0,0:0:0:0:
374,141,3296,2,0,L|186:116,1,180,2|0,0:0|0:0,0:0:0:0:
256,192,3924,12,0,5495,0:0:0:0:
360,150,5652,6,0,L|149:130,1,196.875,0|8,0:0|0:0,0:0:0:0:
433,248,6280,6,0,P|499:232|438:168,1,180,4|8,0:0|0:3,0:0:0:0:
235,158,6751,2,0,L|228:52,1,90,8|8,0:0|0:3,0:0:0:0:
392,131,7065,2,0,L|403:35,1,90,8|8,0:0|0:3,0:0:0:0:
181,53,7380,2,0,L|298:47,1,90,8|8,0:0|0:3,0:0:0:0:
54,128,7694,6,0,L|149:116,1,90,10|8,0:0|0:3,0:0:0:0:
305,161,8008,1,8,0:0:0:0:
88,198,8165,2,0,L|28:201,1,45,8|8,0:3|0:3,0:0:0:0:
224,225,8322,2,0,L|326:230,1,90,10|8,0:0|0:3,0:0:0:0:
152,267,8636,1,8,0:0:0:0:
423,271,8793,6,0,P|486:239|419:187,1,180,6|8,0:0|0:3,0:0:0:0:
381,188,9186,1,8,0:3:0:0:
201,154,9264,2,0,L|93:145,1,90,8|8,0:0|0:3,0:0:0:0:
272,128,9579,2,0,L|286:36,1,90,8|8,0:0|0:3,0:0:0:0:
133,50,9893,1,8,0:0:0:0:
278,40,10050,1,8,0:3:0:0:
58,131,10207,6,0,L|52:232,1,90,10|8,0:0|0:3,0:0:0:0:
215,217,10521,1,8,0:0:0:0:
61,273,10678,1,8,0:3:0:0:
279,289,10835,1,10,0:0:0:0:
60,303,10992,1,8,0:0:0:0:
215,313,11149,1,8,0:0:0:0:
486,323,11306,6,0,P|490:276|383:199,1,180,6|8,0:0|0:3,0:0:0:0:
242,196,11778,2,0,L|122:185,1,90,8|0,0:0|0:0,0:0:0:0:
306,157,12092,2,0,L|321:61,1,90,8|8,0:3|0:3,0:0:0:0:
166,65,12406,2,0,L|260:56,1,90,8|0,0:0|0:0,0:0:0:0:
36,80,12720,6,0,L|21:198,1,90,10|8,0:3|0:3,0:0:0:0:
178,177,13034,2,0,L|188:270,1,90,8|0,0:0|0:0,0:0:0:0:
344,181,13348,2,0,L|341:274,1,90,8|8,0:3|0:3,0:0:0:0:
187,327,13662,1,8,0:0:0:0:
457,323,13819,6,0,P|496:293|423:216,1,180,6|8,0:0|0:3,0:0:0:0:
276,199,14291,2,0,L|149:187,1,90,8|0,0:0|0:0,0:0:0:0:
404,168,14605,2,0,L|410:71,1,90,10|8,0:3|0:3,0:0:0:0:
248,76,14919,1,8,0:0:0:0:
401,68,15076,1,8,0:3:0:0:
181,111,15233,5,10,0:0:0:0:
334,124,15390,1,8,0:3:0:0:
172,166,15547,2,0,L|155:266,1,90,8|0,0:0|0:0,0:0:0:0:
376,258,15861,1,8,0:0:0:0:
423,265,15940,1,8,0:0:0:0:
198,264,16018,1,8,0:3:0:0:
152,280,16097,1,8,0:3:0:0:
143,311,16175,1,8,0:3:0:0:
189,336,16254,1,8,0:3:0:0:
385,216,16333,2,0,P|453:192|382:135,1,180,4|8,0:0|0:3,0:0:0:0:
184,132,16804,6,0,L|164:26,1,90,8|0,0:0|0:0,0:0:0:0:
321,51,17118,2,0,P|373:78|313:163,1,180,0|8,0:0|0:0,0:0:0:0:
236,168,17589,1,0,0:0:0:0:
387,205,17746,6,0,L|503:209,2,90,0|0|8,0:0|0:0|0:0,0:0:0:0:
233,234,18217,2,0,L|131:243,1,90,0|0,0:0|0:0,0:0:0:0:
296,277,18531,1,0,0:0:0:0:
133,333,18689,1,10,0:0:0:0:
405,192,18846,6,0,P|433:153|348:83,1,180,8|8,0:3|0:3,0:0:0:0:
198,165,19317,2,0,L|292:169,1,90,8|0,0:0|0:0,0:0:0:0:
443,227,19631,2,0,L|244:243,1,180,0|8,0:0|0:0,0:0:0:0:
355,284,20102,1,8,0:3:0:0:
193,247,20259,6,0,L|93:250,2,90,0|8|8,0:0|0:3|0:0,0:0:0:0:
347,162,20730,1,8,0:3:0:0:
338,112,20809,1,8,0:3:0:0:
168,123,20887,1,8,0:0:0:0:
389,109,21045,2,0,L|484:105,1,90,8|0,0:0|0:0,0:0:0:0:
208,271,21359,6,0,P|145:259|213:200,1,180,4|8,0:0|0:3,0:0:0:0:
354,196,21830,2,0,L|357:94,1,90,8|0,0:0|0:0,0:0:0:0:
195,140,22144,2,0,L|93:131,1,90,8|8,0:3|0:3,0:0:0:0:
264,147,22458,2,0,L|272:54,1,90,8|0,0:0|0:0,0:0:0:0:
55,62,22772,6,0,L|148:56,1,90,8|8,0:3|0:3,0:0:0:0:
299,64,23086,2,0,L|311:162,1,90,8|0,0:0|0:0,0:0:0:0:
149,173,23401,1,8,0:3:0:0:
235,189,23558,1,8,0:3:0:0:
74,184,23715,2,0,L|70:277,1,90,8|8,0:0|0:3,0:0:0:0:
288,316,24029,6,0,L|476:279,1,180,8|8,0:1|0:0,0:0:0:0:
280,245,24657,2,0,L|267:132,1,90,8|8,0:3|0:3,0:0:0:0:
425,155,24971,2,0,L|432:61,1,90,8|8,0:0|0:3,0:0:0:0:
215,60,25285,6,0,L|105:55,1,90,8|8,0:1|0:3,0:0:0:0:
279,117,25600,1,8,0:0:0:0:
118,116,25757,1,0,0:0:0:0:
338,180,25914,1,8,0:3:0:0:
184,213,26071,1,8,0:0:0:0:
341,253,26228,1,8,0:0:0:0:
70,275,26385,6,0,P|24:258|87:179,1,180,4|8,0:0|0:3,0:0:0:0:
166,175,26856,2,0,L|275:165,1,90,8|0,0:0|0:0,0:0:0:0:
92,126,27170,2,0,L|273:116,1,180,0|8,0:0|0:0,0:0:0:0:
181,65,27641,1,0,0:0:0:0:
399,70,27798,5,0,0:0:0:0:
307,105,27956,2,0,L|299:204,1,90,0|8,0:0|0:0,0:0:0:0:
455,204,28270,2,0,L|462:302,1,90,0|0,0:0|0:0,0:0:0:0:
308,252,28584,2,0,L|184:259,1,90,0|8,0:0|0:0,0:0:0:0:
436,71,28898,6,0,P|486:102|415:178,1,180,8|8,0:3|0:3,0:0:0:0:
277,175,29369,1,8,0:0:0:0:
444,222,29683,2,0,L|242:234,1,180,0|8,0:0|0:0,0:0:0:0:
357,278,30154,1,8,0:3:0:0:
137,268,30312,5,0,0:0:0:0:
291,198,30469,2,0,L|306:106,1,90,8|8,0:3|0:0,0:0:0:0:
84,98,30783,1,8,0:3:0:0:
93,63,30861,1,8,0:3:0:0:
266,82,30940,1,8,0:0:0:0:
47,161,31097,2,0,L|72:275,1,90,8|0,0:0|0:0,0:0:0:0:
344,280,31411,6,0,L|151:293,1,180,4|8,0:0|0:3,0:0:0:0:
318,219,31882,2,0,L|334:120,1,90,8|0,0:0|0:0,0:0:0:0:
179,129,32196,2,0,L|84:120,1,90,8|8,0:3|0:3,0:0:0:0:
244,119,32511,2,0,L|349:114,1,90,8|0,0:0|0:0,0:0:0:0:
107,42,32825,6,0,L|14:37,1,90,8|8,0:3|0:3,0:0:0:0:
178,38,33139,2,0,L|277:32,1,90,8|0,0:0|0:0,0:0:0:0:
115,107,33453,1,8,0:3:0:0:
205,113,33610,1,8,0:3:0:0:
51,149,33767,2,0,L|45:245,1,90,8|8,0:0|0:3,0:0:0:0:
267,231,34081,6,0,L|388:222,1,90,0|8,0:0|0:3,0:0:0:0:
202,182,34395,1,8,0:0:0:0:
491,170,34709,2,0,L|387:166,1,90,8|8,0:3|0:3,0:0:0:0:
246,124,35024,1,8,0:0:0:0:
391,122,35181,1,8,0:3:0:0:
438,120,35259,1,8,0:3:0:0:
211,188,35338,6,0,P|157:214|222:297,1,180,4|0,0:0|0:0,0:0:0:0:
355,305,35809,1,8,0:0:0:0:
401,289,35887,1,8,0:0:0:0:
173,131,35966,2,0,L|52:125,1,90,8|8,0:3|0:3,0:0:0:0:
308,116,36280,2,0,L|410:109,1,90,8|8,0:3|0:3,0:0:0:0:
171,215,36594,6,0,L|-10:247,1,180,2|0,0:0|0:0,0:0:0:0:
83,281,37065,2,0,P|146:220|91:177,1,180,8|8,0:3|0:3,0:0:0:0:
237,311,37537,2,0,L|355:277,1,90,0|8,0:0|0:3,0:0:0:0:
170,149,37851,6,0,L|73:138,1,90,0|0,0:0|0:0,0:0:0:0:
80,111,38165,1,0,0:0:0:0:
233,83,38322,2,0,L|137:73,1,90,0|8,0:0|0:3,0:0:0:0:
289,148,38636,1,8,0:3:0:0:
127,153,38793,2,0,L|33:162,1,90,8|0,0:3|0:0,0:0:0:0:
264,255,39107,6,0,L|459:276,1,180,10|0,0:3|0:0,0:0:0:0:
288,314,39579,2,0,P|230:259|290:201,1,180,8|8,0:3|0:3,0:0:0:0:
136,299,40050,2,0,L|75:216,1,90,0|8,0:0|0:3,0:0:0:0:
237,339,40364,6,0,L|350:329,2,90,0|0|0,0:0|0:0|0:0,0:0:0:0:
390,270,40835,2,0,P|436:197|364:188,1,180,0|8,0:0|0:3,0:0:0:0:
292,201,41306,2,0,L|404:186,1,90,0|0,0:0|0:0,0:0:0:0:
154,97,41620,6,0,P|108:179|182:209,1,180,2|0,0:0|0:0,0:0:0:0:
76,221,42092,1,8,0:3:0:0:
166,223,42249,2,0,L|260:228,1,90,0|8,0:0|0:3,0:0:0:0:
103,161,42563,2,0,L|201:165,1,90,0|8,0:0|0:3,0:0:0:0:
356,166,42877,6,0,L|452:161,2,90,0|0|0,0:0|0:0|0:0,0:0:0:0:
202,211,43348,2,0,P|141:249|211:285,1,180,0|8,0:0|0:1,0:0:0:0:
252,272,43741,1,8,0:1:0:0:
136,305,43819,2,0,P|101:257|153:202,1,135,8|0,0:1|0:0,0:0:0:0:
416,162,44134,5,4,0:0:0:0:
98,229,45076,2,0,L|85:46,1,180,0|0,0:0|0:0,0:0:0:0:
261,64,45704,1,0,0:0:0:0:
108,71,45861,2,0,L|298:101,2,180,0|0|0,0:0|0:0|0:0,0:0:0:0:
431,173,46647,5,4,0:0:0:0:
266,170,46804,1,8,0:0:0:0:
221,200,46882,1,8,0:0:0:0:
212,253,46961,1,8,0:0:0:0:
257,291,47039,1,0,0:0:0:0:
418,299,47118,1,4,0:0:0:0:
265,52,47275,1,8,0:0:0:0:
219,57,47353,1,8,0:0:0:0:
200,80,47432,1,8,0:0:0:0:
208,106,47511,1,0,0:0:0:0:
387,149,47589,1,4,0:0:0:0:
224,156,47746,1,8,0:0:0:0:
177,160,47825,1,8,0:0:0:0:
312,204,47903,5,8,0:0:0:0:
358,214,47982,1,0,0:0:0:0:
135,219,48060,1,4,0:0:0:0:
226,262,48217,1,8,0:0:0:0:
90,269,48374,1,8,0:3:0:0:
61,231,48453,1,8,0:3:0:0:
262,160,48531,1,0,0:0:0:0:
117,117,48689,1,8,0:3:0:0:
83,85,48767,1,8,0:3:0:0:
289,109,48846,1,8,0:0:0:0:
335,99,48924,1,8,0:0:0:0:
325,52,49003,1,8,0:0:0:0:
280,42,49081,1,8,0:0:0:0:
75,46,49160,6,0,L|173:68,1,90,4|8,0:0|0:3,0:0:0:0:
208,110,49395,1,8,0:3:0:0:
199,168,49474,1,8,0:0:0:0:
152,186,49552,1,8,0:0:0:0:
355,191,49631,1,0,0:0:0:0:
128,260,49788,2,0,P|105:310|128:316,1,90,8|8,0:0|0:3,0:0:0:0:
166,361,50024,1,8,0:3:0:0:
390,353,50102,1,4,0:0:0:0:
239,312,50259,1,8,0:3:0:0:
193,297,50338,1,8,0:3:0:0:
329,276,50416,5,8,0:3:0:0:
374,269,50495,1,8,0:3:0:0:
195,209,50573,2,0,P|136:193|209:126,1,180,2|8,0:0|0:3,0:0:0:0:
226,116,50966,1,8,0:3:0:0:
430,129,51045,1,2,0:0:0:0:
275,172,51202,1,8,0:0:0:0:
437,204,51359,1,8,0:3:0:0:
482,234,51437,1,8,0:3:0:0:
473,291,51516,1,8,0:3:0:0:
428,298,51594,1,8,0:3:0:0:
246,299,51673,6,0,L|149:303,1,90,4|0,0:0|0:0,0:0:0:0:
375,274,51987,2,0,P|425:257|361:178,1,180,8|8,0:0|0:3,0:0:0:0:
297,177,52458,1,8,0:3:0:0:
141,131,52615,1,0,0:0:0:0:
363,122,52772,6,0,P|405:89|328:28,1,180,8|8,0:0|0:3,0:0:0:0:
179,33,53244,1,8,0:0:0:0:
341,190,53401,1,0,0:0:0:0:
188,192,53558,1,8,0:3:0:0:
143,218,53636,1,8,0:3:0:0:
134,274,53715,1,8,0:3:0:0:
179,305,53793,1,8,0:3:0:0:
362,308,53872,1,8,0:0:0:0:
272,305,54029,1,0,0:0:0:0:
497,171,54186,5,4,0:0:0:0:
344,143,54343,1,8,0:3:0:0:
298,105,54422,1,8,0:3:0:0:
307,60,54500,1,8,0:3:0:0:
353,56,54579,1,8,0:3:0:0:
196,53,54657,1,8,0:0:0:0:
325,198,54814,1,8,0:3:0:0:
372,228,54893,1,8,0:3:0:0:
377,285,54971,1,8,0:3:0:0:
331,295,55050,1,8,0:3:0:0:
152,290,55128,2,0,L|39:280,1,90,8|0,0:0|0:0,0:0:0:0:
289,155,55442,5,0,0:0:0:0:
334,151,55521,1,8,0:3:0:0:
175,142,55600,2,0,P|121:122|181:52,1,180,8|8,0:0|0:3,0:0:0:0:
221,53,55992,1,8,0:3:0:0:
62,56,56071,1,8,0:3:0:0:
18,46,56149,1,8,0:3:0:0:
245,180,56228,1,8,0:3:0:0:
291,189,56306,1,8,0:3:0:0:
111,184,56385,2,0,L|19:200,1,90,8|0,0:0|0:0,0:0:0:0:
296,281,56699,6,0,L|17:249,2,270,6|2|2,0:0|0:0|0:0,0:0:0:0:
256,192,57798,12,0,58584,0:0:0:0:
339,112,58898,5,8,0:0:0:0:
384,138,58976,1,8,0:0:0:0:
180,127,59055,1,8,0:0:0:0:
134,158,59134,1,8,0:0:0:0:
402,235,59212,6,0,P|470:209|393:152,1,180,4|8,0:0|0:0,0:0:0:0:
268,144,59683,1,0,0:0:0:0:
493,82,59840,2,0,L|293:74,1,180,8|8,0:3|0:0,0:0:0:0:
406,136,60312,1,0,0:0:0:0:
172,144,60469,6,0,L|354:167,1,180,8|8,0:3|0:0,0:0:0:0:
69,207,61097,2,0,L|64:304,1,90,8|0,0:3|0:0,0:0:0:0:
217,215,61411,2,0,L|322:218,1,90,8|8,0:0|0:0,0:0:0:0:
261,261,61647,1,8,0:0:0:0:
81,157,61725,6,0,P|32:119|108:64,1,180,8|8,0:3|0:0,0:0:0:0:
322,64,62353,2,0,L|334:161,1,90,8|0,0:3|0:0,0:0:0:0:
169,175,62668,2,0,L|161:275,1,90,8|0,0:0|0:0,0:0:0:0:
331,190,62982,6,0,L|349:284,1,90,8|0,0:3|0:0,0:0:0:0:
250,326,63296,2,0,L|156:334,1,90,8|0,0:0|0:0,0:0:0:0:
385,228,63610,2,0,L|392:110,1,90,8|0,0:3|0:0,0:0:0:0:
229,151,63924,2,0,L|119:142,1,90,8|8,0:0|0:0,0:0:0:0:
182,99,64160,1,8,0:0:0:0:
383,81,64238,6,0,P|445:96|375:165,1,180,8|8,0:3|0:0,0:0:0:0:
249,188,64709,1,0,0:0:0:0:
467,223,64867,2,0,L|273:245,1,180,8|8,0:3|0:0,0:0:0:0:
190,272,65338,1,0,0:0:0:0:
412,157,65495,6,0,P|469:102|390:52,1,180,8|8,0:3|0:0,0:0:0:0:
137,87,66123,2,0,L|25:77,1,90,8|0,0:3|0:0,0:0:0:0:
272,143,66437,2,0,L|376:146,1,90,8|0,0:0|0:0,0:0:0:0:
40,229,66751,5,4,0:0:0:0:
257,217,66908,1,8,0:3:0:0:
266,264,66987,1,8,0:3:0:0:
90,254,67065,1,8,0:3:0:0:
81,298,67144,1,8,0:3:0:0:
265,312,67223,2,0,L|387:318,1,90,4|8,0:0|0:3,0:0:0:0:
365,263,67458,1,8,0:3:0:0:
228,202,67537,1,8,0:3:0:0:
219,150,67615,1,8,0:3:0:0:
356,100,67694,2,0,L|453:95,1,90,8|0,0:0|0:0,0:0:0:0:
176,89,68008,6,0,P|119:117|178:206,1,180,4|0,0:0|0:0,0:0:0:0:
312,207,68479,2,0,L|419:229,1,90,8|0,0:0|0:0,0:0:0:0:
172,264,68793,1,8,0:0:0:0:
126,278,68872,1,8,0:0:0:0:
327,276,68950,1,8,0:0:0:0:
372,280,69029,1,8,0:0:0:0:
193,306,69107,1,8,0:0:0:0:
147,316,69186,1,8,0:0:0:0:
370,202,69264,6,0,P|419:181|354:98,1,180,4|8,0:0|0:0,0:0:0:0:
219,97,69736,1,0,0:0:0:0:
436,59,69893,2,0,L|244:44,1,180,8|8,0:3|0:0,0:0:0:0:
411,125,70364,1,8,0:0:0:0:
187,144,70521,6,0,L|59:151,1,90,8|0,0:3|0:0,0:0:0:0:
251,202,70835,1,8,0:0:0:0:
89,206,70992,1,0,0:0:0:0:
252,271,71149,2,0,L|349:281,1,90,8|0,0:3|0:0,0:0:0:0:
117,308,71463,2,0,L|26:299,1,90,8|8,0:0|0:0,0:0:0:0:
73,257,71699,1,8,0:0:0:0:
279,183,71778,6,0,P|336:158|278:82,1,180,10|8,0:3|0:0,0:0:0:0:
195,95,72249,1,0,0:0:0:0:
292,233,72406,2,0,L|305:328,1,90,8|0,0:3|0:0,0:0:0:0:
151,245,72720,2,0,L|51:250,1,90,8|0,0:0|0:0,0:0:0:0:
286,183,73034,6,0,L|399:171,1,90,10|8,0:3|0:0,0:0:0:0:
331,124,73270,1,8,0:0:0:0:
196,120,73348,1,8,0:3:0:0:
150,99,73427,1,8,0:3:0:0:
329,75,73505,1,8,0:0:0:0:
338,32,73584,1,8,0:0:0:0:
161,30,73662,2,0,L|57:41,1,90,4|8,0:0|0:3,0:0:0:0:
117,83,73898,1,8,0:3:0:0:
342,199,73976,1,8,0:0:0:0:
388,215,74055,1,8,0:0:0:0:
184,202,74134,1,8,0:0:0:0:
138,208,74212,1,8,0:0:0:0:
319,318,74291,6,0,L|216:335,2,90,4|0|8,0:0|0:0|0:0,0:0:0:0:
167,313,74762,1,0,0:0:0:0:
387,232,74919,2,0,L|392:135,1,90,8|0,0:3|0:0,0:0:0:0:
347,136,75154,1,0,0:0:0:0:
166,129,75233,2,0,L|73:122,1,90,8|8,0:0|0:0,0:0:0:0:
121,78,75469,1,8,0:0:0:0:
301,71,75547,6,0,L|205:78,2,90,8|0|0,0:3|0:0|0:0,0:0:0:0:
75,135,76018,2,0,L|67:235,1,90,0|8,0:0|0:3,0:0:0:0:
223,234,76333,1,8,0:3:0:0:
80,243,76490,2,0,P|39:265|84:333,1,135,8|0,0:3|0:0,0:0:0:0:
295,319,76804,6,0,L|399:313,1,90,4|0,0:0|0:0,0:0:0:0:
341,268,77039,1,0,0:0:0:0:
159,210,77118,1,8,0:3:0:0:
204,203,77196,1,0,0:0:0:0:
431,200,77275,1,4,0:0:0:0:
278,157,77432,1,8,0:3:0:0:
231,135,77511,1,8,0:3:0:0:
222,83,77589,1,8,0:3:0:0:
267,56,77668,1,8,0:3:0:0:
424,63,77746,2,0,P|478:91|431:144,1,135,8|0,0:0|0:0,0:0:0:0:
244,227,78060,6,0,L|98:242,1,135,8|8,0:3|0:3,0:0:0:0:
155,281,78374,1,8,0:3:0:0:
426,263,78531,2,0,L|438:157,1,90,12|0,0:0|0:0,0:0:0:0:
163,180,78846,2,0,L|158:89,1,90,12|0,0:0|0:0,0:0:0:0:
474,107,79160,5,8,0:3:0:0:
253,117,79317,2,0,L|151:127,2,90,0|0|8,0:0|0:0|0:3,0:0:0:0:
406,177,79788,1,0,0:0:0:0:
244,183,79945,2,0,L|148:189,1,90,8|0,0:3|0:0,0:0:0:0:
297,251,80259,1,8,0:3:0:0:
76,254,80416,1,8,0:0:0:0:
351,137,80573,5,8,0:3:0:0:
198,127,80730,2,0,L|187:30,1,90,8|8,0:0|0:3,0:0:0:0:
342,54,81045,1,8,0:3:0:0:
386,54,81123,1,8,0:3:0:0:
182,192,81202,1,8,0:0:0:0:
407,202,81359,1,8,0:3:0:0:
316,211,81516,1,8,0:3:0:0:
91,221,81673,6,0,P|50:196|123:116,1,180,8|0,0:0|0:0,0:0:0:0:
261,117,82144,2,0,L|279:13,1,90,8|0,0:3|0:0,0:0:0:0:
121,33,82458,2,0,L|25:26,1,90,8|0,0:0|0:0,0:0:0:0:
259,178,82772,2,0,L|382:168,1,90,8|8,0:3|0:0,0:0:0:0:
122,219,83086,6,0,L|111:317,1,90,8|8,0:3|0:0,0:0:0:0:
266,304,83401,1,0,0:0:0:0:
113,144,83558,1,8,0:3:0:0:
67,139,83636,1,8,0:3:0:0:
263,128,83715,1,8,0:0:0:0:
117,97,83872,1,8,0:0:0:0:
342,89,84029,1,8,0:0:0:0:
116,196,84186,6,0,P|75:229|158:300,1,180,4|8,0:0|0:3,0:0:0:0:
185,304,84579,1,8,0:3:0:0:
321,280,84657,1,8,0:0:0:0:
167,235,84814,1,8,0:3:0:0:
393,227,84971,1,8,0:0:0:0:
240,187,85128,1,8,0:3:0:0:
466,178,85285,1,8,0:0:0:0:
238,122,85442,1,8,0:3:0:0:
192,109,85521,1,8,0:3:0:0:
330,122,85600,6,0,L|335:22,1,90,8|8,0:0|0:3,0:0:0:0:
178,179,85914,2,0,L|168:274,1,90,8|0,0:0|0:0,0:0:0:0:
396,277,86228,1,8,0:0:0:0:
234,282,86385,1,8,0:0:0:0:
189,284,86463,1,8,0:0:0:0:
372,339,86542,1,8,0:0:0:0:
101,336,86699,6,0,P|49:306|107:230,1,180,4|8,0:0|0:0,0:0:0:0:
150,227,87092,1,8,0:0:0:0:
307,241,87170,1,8,0:0:0:0:
353,226,87249,1,8,0:0:0:0:
173,211,87327,2,0,L|52:190,1,90,4|8,0:0|0:3,0:0:0:0:
131,150,87563,1,8,0:3:0:0:
310,109,87641,1,8,0:3:0:0:
355,90,87720,1,8,0:3:0:0:
174,71,87798,1,4,0:0:0:0:
405,170,87956,5,8,0:3:0:0:
451,178,88034,1,8,0:3:0:0:
247,169,88113,1,8,0:3:0:0:
202,183,88191,1,8,0:3:0:0:
385,247,88270,1,4,0:0:0:0:
129,263,88427,2,0,L|31:255,1,90,0|0,0:0|0:0,0:0:0:0:
311,176,88741,1,8,0:3:0:0:
86,187,88898,1,8,0:0:0:0:
42,143,88976,1,8,0:0:0:0:
222,126,89055,1,8,0:0:0:0:
267,118,89134,1,8,0:0:0:0:
41,96,89212,5,4,0:0:0:0:
