osu file format v14

[General]
AudioFilename: audio.mp3
AudioLeadIn: 0
PreviewTime: 57851
Countdown: 0
SampleSet: Soft
StackLeniency: 0.7
Mode: 0
LetterboxInBreaks: 0
WidescreenStoryboard: 1

[Editor]
DistanceSpacing: 1.5
BeatDivisor: 4
GridSize: 4
TimelineZoom: 2.1

[Metadata]
Title:Good Morning World! (TV Size)
TitleUnicode:Good Morning World! (TV Size)
Artist:BURNOUT SYNDROMES
ArtistUnicode:BURNOUT SYNDROMES
Creator:Chrll
Version:Revival
Source:ドクターストーン
Tags:ドクターストーン dr. stone anime opening op japanese shoutingg
BeatmapID:2102347
BeatmapSetID:1004506

[Difficulty]
HPDrainRate:6
CircleSize:4
OverallDifficulty:8
ApproachRate:9
SliderMultiplier:2
SliderTickRate:1

[Events]
//Background and Video events
0,0,"dr stone.jpg",0,0
//Break Periods
//Storyboard Layer 0 (Background)
//Storyboard Layer 1 (Fail)
//Storyboard Layer 2 (Pass)
//Storyboard Layer 3 (Foreground)
//Storyboard Layer 4 (Overlay)
//Storyboard Sound Samples

[TimingPoints]
-578,314.13612565445,4,2,2,100,1,0
50,-250,4,2,2,40,0,0
4919,-100,4,2,2,80,0,0
16069,-133.333333333333,4,2,2,60,0,0
17877,-100,4,2,2,70,0,0
18505,-133.333333333333,4,2,2,60,0,0
20547,-100,4,2,2,70,0,0
21254,-133.333333333333,4,2,2,60,0,0
30521,-100,4,2,2,80,0,0
36018,-285.714285714286,4,2,2,35,0,0
42851,-250,4,2,2,45,0,0
43401,-250,4,2,2,70,0,0
45757,-100,4,2,2,80,0,0
57851,-133.333333333333,4,2,2,60,0,0
58479,-111.111111111111,4,2,2,75,0,1
73558,-111.111111111111,4,2,2,65,0,0
77013,-83.3333333333333,4,2,2,65,0,0
78427,-100,4,2,2,80,0,0

[Colours]
Combo1 : 0,128,255
Combo2 : 128,255,128
Combo3 : 128,128,192
Combo4 : 255,255,128

[HitObjects]
257,93,50,5,2,0:0:0:0:
257,93,364,1,2,0:0:0:0:
430,239,678,2,0,P|401:268|359:292,1,80,2|0,0:0|0:0,0:0:0:0:
219,294,1149,1,2,0:0:0:0:
219,294,1306,1,2,0:0:0:0:
257,93,1778,1,2,0:0:0:0:
257,93,1935,1,2,0:0:0:0:
121,23,2249,2,0,L|64:43,1,60,2|0,0:0|0:0,0:0:0:0:
10,137,2563,2,0,B|350:137|150:360|490:360,1,560,2|0,0:0|0:0,0:0:0:0:
477,257,5076,6,0,L|477:52,1,200,8|0,0:0|0:0,0:0:0:0:
337,78,5547,6,0,B|278:78|278:78|230:121,1,100,6|0,1:0|0:0,0:0:0:0:
142,306,5861,5,0,1:0:0:0:
370,78,6018,1,0,1:0:0:0:
369,306,6175,1,8,0:0:0:0:
142,78,6332,1,8,0:0:0:0:
152,315,6490,5,0,1:0:0:0:
359,68,6647,1,0,1:0:0:0:
379,295,6804,1,8,0:0:0:0:
132,88,6961,1,10,0:0:0:0:
163,324,7118,5,0,1:0:0:0:
348,59,7275,1,0,1:0:0:0:
388,284,7432,1,8,0:0:0:0:
123,99,7589,1,10,0:0:0:0:
174,331,7746,5,0,1:0:0:0:
285,157,7903,1,8,0:0:0:0:
285,157,7982,1,0,1:0:0:0:
285,157,8060,2,0,P|326:243|292:336,1,200,6|0,1:0|1:0,0:0:0:0:
72,340,8531,5,8,0:0:0:0:
149,99,8689,1,8,0:0:0:0:
226,340,8846,1,0,1:0:0:0:
23,187,9003,1,8,0:0:0:0:
277,187,9160,1,0,1:0:0:0:
96,208,9317,5,0,1:0:0:0:
456,123,9474,1,10,0:0:0:0:
80,122,9631,5,0,1:0:0:0:
404,219,9788,1,8,0:0:0:0:
96,208,9945,5,0,1:0:0:0:
456,123,10102,1,10,0:0:0:0:
80,122,10259,5,8,0:0:0:0:
411,227,10416,1,8,0:0:0:0:
411,227,10495,1,0,1:0:0:0:
411,227,10573,2,0,P|317:270|241:213,1,200,6|0,1:0|1:0,0:0:0:0:
256,18,11045,5,8,0:0:0:0:
256,365,11202,1,0,1:0:0:0:
377,68,11359,5,0,1:0:0:0:
132,313,11516,1,0,1:0:0:0:
429,192,11673,5,8,0:0:0:0:
82,190,11830,1,0,1:0:0:0:
377,313,11987,5,2,1:0:0:0:
132,68,12144,1,0,1:0:0:0:
256,365,12301,5,8,0:0:0:0:
256,18,12458,1,0,1:0:0:0:
132,313,12615,5,0,1:0:0:0:
377,68,12772,1,0,1:0:0:0:
126,191,12929,5,8,0:0:0:0:
126,191,13008,1,0,1:0:0:0:
126,191,13086,2,0,P|141:90|222:52,1,200,6|0,1:0|1:0,0:0:0:0:
297,249,13558,5,8,0:0:0:0:
502,96,13716,1,0,1:0:0:0:
248,96,13873,1,0,1:0:0:0:
451,249,14030,1,0,1:0:0:0:
374,8,14187,1,8,0:0:0:0:
374,291,14343,5,0,1:0:0:0:
114,291,14500,1,10,0:0:0:0:
374,291,14657,2,0,P|272:310|170:307,1,200,0|0,1:0|0:0,0:0:0:0:
215,34,15128,1,10,0:0:0:0:
262,39,15207,1,8,0:0:0:0:
307,50,15285,1,8,0:0:0:0:
351,68,15364,1,8,0:0:0:0:
392,89,15442,1,8,0:0:0:0:
433,113,15521,1,8,0:0:0:0:
468,146,15600,2,0,P|464:228|390:330,1,200,4|0,1:0|0:0,0:0:0:0:
315,360,16071,6,0,P|275:363|236:354,1,75.0000028610231,10|2,0:0|0:0,0:0:0:0:
150,332,16385,2,0,L|139:208,1,112.500004291535,2|0,0:0|0:0,0:0:0:0:
140,219,16699,1,8,0:0:0:0:
236,176,16856,1,2,0:0:0:0:
236,176,16935,1,2,0:0:0:0:
236,176,17013,1,2,0:0:0:0:
265,265,17170,1,2,0:0:0:0:
268,80,17327,1,2,0:0:0:0:
268,80,17484,2,0,L|154:89,1,112.500004291535,2|0,0:0|0:0,0:0:0:0:
82,111,17798,2,0,P|100:147|143:164,1,75.0000028610231
234,250,18113,6,0,B|234:298|234:298|268:338|268:338|198:338|198:338|234:298,1,200,2|0,1:0|0:0,0:0:0:0:
149,172,18584,6,0,P|167:129|215:117,1,75.0000028610231,10|2,0:0|0:0,0:0:0:0:
297,118,18898,2,0,P|352:169|338:242,1,150.000005722046,2|8,0:0|0:0,0:0:0:0:
275,307,19369,2,0,P|241:330|200:337,1,75.0000028610231,2|2,1:0|0:0,0:0:0:0:
99,324,19683,1,2,1:0:0:0:
99,324,19840,1,8,0:0:0:0:
68,123,19997,5,2,1:0:0:0:
68,123,20076,1,0,1:0:0:0:
68,123,20154,1,8,0:0:0:0:
99,324,20312,1,10,0:0:0:0:
301,131,20626,2,0,B|301:195|301:195|257:249|257:249|350:249|350:249|301:195,1,300,6|8,1:0|0:0,0:0:0:0:
49,64,21411,5,0,1:0:0:0:
45,131,21568,1,0,1:0:0:0:
49,64,21725,2,0,P|82:40|132:52,1,75.0000028610231,8|0,0:0|0:0,0:0:0:0:
121,140,22039,1,0,1:0:0:0:
117,222,22196,1,0,1:0:0:0:
121,140,22353,2,0,P|154:116|204:128,1,75.0000028610231,8|0,0:0|0:0,0:0:0:0:
199,228,22668,5,2,1:0:0:0:
195,340,22825,1,2,1:0:0:0:
199,228,22982,2,0,P|232:204|282:216,1,75.0000028610231,10|2,0:0|1:0,0:0:0:0:
360,256,23296,1,2,0:0:0:0:
421,358,23453,1,0,1:0:0:0:
302,359,23610,2,0,P|263:326|252:281,1,75.0000028610231,10|0,0:0|0:0,0:0:0:0:
245,146,23924,5,2,0:0:0:0:
143,207,24081,1,0,1:0:0:0:
142,88,24238,2,0,P|175:49|220:38,1,75.0000028610231,10|0,0:0|0:0,0:0:0:0:
334,157,24552,5,2,0:0:0:0:
395,259,24709,1,0,1:0:0:0:
276,260,24867,2,0,P|237:227|226:182,1,75.0000028610231,10|0,0:0|0:0,0:0:0:0:
312,87,25181,1,0,1:0:0:0:
403,20,25338,1,10,0:0:0:0:
421,130,25495,1,10,0:0:0:0:
356,267,25652,6,0,B|356:304|356:304|332:346|332:346|381:346|381:346|356:304,1,150.000005722046,4|0,1:0|1:0,0:0:0:0:
426,107,26123,5,2,0:0:0:0:
448,255,26280,1,10,0:0:0:0:
371,191,26437,2,0,P|306:165|228:176,1,150.000005722046,2|8,0:0|0:0,0:0:0:0:
80,242,26908,2,0,P|68:204|73:167,2,75.0000028610231,2|2|2,0:0|0:0|0:0,0:0:0:0:
243,175,27380,6,0,L|262:151,1,18.7500007152558,8|0,0:0|0:0,0:0:0:0:
195,117,27537,2,0,L|176:93,1,18.7500007152558,2|0,0:0|0:0,0:0:0:0:
103,205,27851,6,0,L|113:322,1,112.500004291535,2|0,0:0|0:0,0:0:0:0:
143,340,28165,2,0,B|194:338|194:338|232:294|232:294|279:294,1,150.000005722046,2|0,1:0|1:0,0:0:0:0:
273,144,28636,1,10,0:0:0:0:
206,76,28950,2,0,B|159:149|213:216,1,150.000005722046,2|8,0:0|0:0,0:0:0:0:
114,283,29421,2,0,L|226:292,1,112.500004291535,2|0,1:0|0:0,0:0:0:0:
226,292,29736,1,2,1:0:0:0:
356,252,30050,1,2,1:0:0:0:
260,53,30364,1,10,0:0:0:0:
93,219,30678,6,0,L|107:376,1,150,6|0,1:0|0:0,0:0:0:0:
106,368,30992,1,0,1:0:0:0:
106,368,31071,1,0,1:0:0:0:
106,368,31149,2,0,P|157:315|141:258,1,100,8|0,0:0|0:0,0:0:0:0:
76,169,31463,5,0,1:0:0:0:
97,137,31542,1,0,1:0:0:0:
122,109,31620,1,2,1:0:0:0:
152,87,31699,1,0,1:0:0:0:
185,69,31778,2,0,P|237:65|285:89,1,100,10|0,0:0|0:0,0:0:0:0:
341,194,32092,5,2,1:0:0:0:
327,228,32170,1,0,1:0:0:0:
305,259,32249,1,2,1:0:0:0:
278,284,32327,1,0,1:0:0:0:
244,302,32406,2,0,P|196:301|153:266,1,100,8|0,0:0|0:0,0:0:0:0:
228,193,32720,5,2,1:0:0:0:
187,95,32877,1,2,1:0:0:0:
293,101,33034,1,10,0:0:0:0:
293,101,33191,1,0,1:0:0:0:
397,187,33348,6,0,L|387:303,1,100,2|0,0:0|1:0,0:0:0:0:
388,286,33662,2,0,P|341:316|292:335,1,100,10|0,0:0|0:0,0:0:0:0:
239,289,33976,1,2,1:0:0:0:
210,141,34134,1,0,1:0:0:0:
158,313,34291,1,10,0:0:0:0:
62,254,34448,1,0,1:0:0:0:
62,254,34526,1,0,1:0:0:0:
62,254,34605,2,0,L|75:103,1,150,6|0,1:0|0:0,0:0:0:0:
74,104,34919,1,2,0:0:0:0:
167,125,35233,5,10,0:0:0:0:
167,125,35312,1,0,0:0:0:0:
167,125,35390,1,0,1:0:0:0:
194,217,35547,1,2,1:0:0:0:
233,72,35704,1,0,1:0:0:0:
234,275,35861,1,4,1:0:0:0:
136,112,36804,6,0,P|135:137|153:145,1,34.9999989318848,2|0,0:0|0:0,0:0:0:0:
141,142,37118,2,0,P|139:169|124:178,1,34.9999989318848,2|2,0:0|0:0,0:0:0:0:
134,173,37432,2,0,P|148:197|168:204,1,34.9999989318848,2|2,0:0|0:0,0:0:0:0:
253,252,37746,1,0,1:0:0:0:
253,252,37903,2,0,P|295:216|277:185,1,87.499997329712,2|0,1:0|0:0,0:0:0:0:
287,193,38374,2,0,P|260:159|234:144,1,69.9999978637696,0|0,1:0|0:0,0:0:0:0:
166,140,39160,6,0,P|157:185|127:197,1,69.9999978637696,0|0,1:0|1:0,0:0:0:0:
139,196,39631,2,0,P|134:226|148:233,1,34.9999989318848,2|2,0:0|0:0,0:0:0:0:
134,226,39945,2,0,P|153:247|148:265,1,34.9999989318848,2|2,0:0|0:0,0:0:0:0:
234,354,40259,1,0,1:0:0:0:
234,354,40416,2,0,P|258:353|273:306,1,69.9999978637696,2|0,1:0|0:0,0:0:0:0:
276,315,40887,2,0,P|275:269|285:263,1,52.4999983978272,2|0,1:0|0:0,0:0:0:0:
275,268,41202,2,0,P|288:241|277:230,1,34.9999989318848,2|0,0:0|0:0,0:0:0:0:
135,100,41673,5,0,1:0:0:0:
135,100,41830,1,2,0:0:0:0:
175,177,41987,1,0,1:0:0:0:
175,177,42144,2,0,P|191:197|179:216,1,34.9999989318848,2|2,0:0|0:0,0:0:0:0:
189,204,42458,2,0,P|191:226|209:227,1,34.9999989318848,2|2,0:0|0:0,0:0:0:0:
269,244,42929,2,0,P|318:243|318:204,1,80,2|0,0:0|0:0,0:0:0:0:
325,333,43401,1,12,0:0:0:0:
127,103,45914,5,4,1:0:0:0:
127,202,46071,5,8,0:0:0:0:
147,247,46149,1,8,0:0:0:0:
175,288,46228,1,8,0:0:0:0:
213,319,46306,1,8,0:0:0:0:
258,341,46385,2,0,P|289:355|319:352,1,50,4|0,1:0|0:0,0:0:0:0:
375,330,46542,5,8,0:0:0:0:
413,291,46620,1,8,0:0:0:0:
438,242,46699,1,8,0:0:0:0:
456,189,46778,1,8,0:0:0:0:
467,135,46856,2,0,P|470:103|456:71,1,50,6|0,1:0|0:0,0:0:0:0:
431,21,47013,5,8,0:0:0:0:
372,34,47092,1,8,0:0:0:0:
316,54,47170,1,10,0:0:0:0:
268,90,47249,1,8,0:0:0:0:
225,131,47327,2,0,P|207:159|205:191,1,50,4|0,1:0|0:0,0:0:0:0:
182,248,47484,5,10,0:0:0:0:
231,291,47563,1,8,0:0:0:0:
279,248,47641,1,10,0:0:0:0:
265,184,47720,1,8,0:0:0:0:
200,184,47798,2,0,P|163:196|137:216,1,50,4|0,1:0|0:0,0:0:0:0:
77,208,47956,5,10,0:0:0:0:
60,140,48034,1,8,0:0:0:0:
85,74,48113,1,8,0:0:0:0:
141,33,48191,1,8,0:0:0:0:
209,17,48270,1,0,1:0:0:0:
277,25,48348,1,0,1:0:0:0:
327,74,48427,2,0,L|331:137,1,50,6|0,1:0|0:0,0:0:0:0:
329,270,48662,2,0,L|324:321,4,50,8|8|8|4|0,0:0|0:0|0:0|1:0|0:0,0:0:0:0:
292,336,49055,2,0,P|186:336|123:268,1,200,10|4,0:0|1:0,0:0:0:0:
182,164,49526,5,8,0:0:0:0:
132,89,49683,1,10,0:0:0:0:
203,76,49762,1,8,0:0:0:0:
260,120,49840,2,0,P|288:200|217:281,1,200,4|8,1:0|0:0,0:0:0:0:
280,258,50233,6,0,P|310:258|337:236,1,50,8|6,0:0|1:0,0:0:0:0:
408,188,50469,1,8,0:0:0:0:
408,89,50626,5,8,0:0:0:0:
367,60,50704,1,8,0:0:0:0:
318,46,50783,1,10,0:0:0:0:
268,44,50861,1,8,0:0:0:0:
219,56,50940,2,0,P|128:146|137:311,1,300,4|0,1:0|0:0,0:0:0:0:
256,299,51568,5,0,1:0:0:0:
363,194,51725,2,0,P|366:138|332:110,1,100,0|0,1:0|0:0,0:0:0:0:
171,109,52039,2,0,P|119:151|118:187,1,100,8|0,0:0|0:0,0:0:0:0:
256,236,52353,1,0,1:0:0:0:
260,85,52511,1,8,0:0:0:0:
381,188,52668,6,0,P|387:215|386:247,1,50,2|0,0:0|0:0,0:0:0:0:
365,303,52825,1,2,1:0:0:0:
342,314,52903,1,0,1:0:0:0:
317,318,52982,1,0,1:0:0:0:
171,278,53139,5,14,0:0:0:0:
91,151,53296,2,0,P|133:92|166:85,1,100,2|12,0:0|0:0,0:0:0:0:
232,149,53610,2,0,P|307:148|344:180,1,100,2|0,1:0|1:0,0:0:0:0:
341,283,53924,1,14,0:0:0:0:
241,306,54081,5,2,1:0:0:0:
192,291,54160,1,0,1:0:0:0:
151,262,54238,1,0,1:0:0:0:
119,222,54317,1,0,1:0:0:0:
102,175,54395,1,14,1:0:0:0:
100,89,54552,2,0,P|140:64|201:63,1,100,2|0,1:0|1:0,0:0:0:0:
276,93,54867,2,0,P|266:185|249:195,1,100,12|0,0:0|0:0,0:0:0:0:
168,173,55181,5,0,1:0:0:0:
184,126,55259,1,0,1:0:0:0:
213,85,55338,1,8,1:0:0:0:
254,57,55416,1,8,1:0:0:0:
303,47,55495,1,8,1:0:0:0:
352,49,55573,1,8,1:0:0:0:
398,68,55652,2,0,P|423:118|401:169,1,100,12|0,0:0|0:0,0:0:0:0:
320,214,55966,6,0,P|226:217|128:150,1,200,6|0,1:0|0:0,0:0:0:0:
251,305,56437,2,0,P|168:288|68:351,1,200,2|0,0:0|0:0,0:0:0:0:
56,230,56908,2,0,B|56:71|56:71|129:128|129:128|129:18|129:18|327:18,1,550,2|0,0:0|0:0,0:0:0:0:
317,18,57851,6,0,L|327:140,1,112.500004291535,2|0,0:0|0:0,0:0:0:0:
328,157,58165,1,10,0:0:0:0:
329,194,58243,1,8,0:0:0:0:
319,230,58322,1,8,0:0:0:0:
298,260,58400,1,8,0:0:0:0:
268,283,58479,2,0,P|181:288|119:213,1,179.999994506836,6|8,1:0|0:0,0:0:0:0:
116,126,58950,5,2,0:0:0:0:
205,59,59107,2,0,P|270:83|282:120,1,89.9999972534181,2|0,1:0|0:0,0:0:0:0:
458,274,59421,1,8,0:0:0:0:
433,74,59579,1,2,0:0:0:0:
243,322,59736,2,0,P|173:334|141:306,1,89.9999972534181,2|0,1:0|0:0,0:0:0:0:
85,262,60050,2,0,P|106:207|155:185,1,89.9999972534181,10|0,0:0|0:0,0:0:0:0:
318,245,60364,1,2,1:0:0:0:
200,12,60521,1,2,0:0:0:0:
397,123,60678,2,0,P|433:172|436:209,1,89.9999972534181,10|8,0:0|0:0,0:0:0:0:
300,316,60992,5,6,1:0:0:0:
221,69,61149,1,2,0:0:0:0:
167,316,61306,2,0,P|112:308|93:261,1,89.9999972534181,10|0,0:0|0:0,0:0:0:0:
81,65,61620,1,2,1:0:0:0:
167,316,61778,1,2,0:0:0:0:
213,58,61935,2,0,P|271:52|313:76,1,89.9999972534181,10|0,0:0|0:0,0:0:0:0:
474,223,62249,5,2,1:0:0:0:
177,223,62406,1,2,0:0:0:0:
404,308,62563,2,0,P|345:339|310:335,1,89.9999972534181,10|0,0:0|0:0,0:0:0:0:
158,298,62877,6,0,P|221:298|257:273,1,89.9999972534181,2|0,1:0|0:0,0:0:0:0:
272,88,63191,1,10,0:0:0:0:
351,267,63348,1,8,0:0:0:0:
351,267,63427,1,8,0:0:0:0:
351,267,63505,2,0,P|388:206|386:171,1,89.9999972534181,6|0,1:0|0:0,0:0:0:0:
314,29,63819,5,8,0:0:0:0:
158,154,63976,1,2,0:0:0:0:
158,154,64055,1,0,1:0:0:0:
158,154,64134,2,0,P|120:206|122:238,1,89.9999972534181,2|0,1:0|0:0,0:0:0:0:
339,279,64448,5,8,0:0:0:0:
98,191,64605,1,2,0:0:0:0:
102,289,64762,2,0,P|149:332|192:339,1,89.9999972534181,6|0,1:0|0:0,0:0:0:0:
180,256,65076,2,0,P|233:279|258:318,1,89.9999972534181,10|0,0:0|0:0,0:0:0:0:
329,322,65390,2,0,L|340:186,1,134.999995880127,2|0,1:0|0:0,0:0:0:0:
339,187,65704,1,10,0:0:0:0:
421,103,66018,5,4,1:0:0:0:
342,58,66175,1,8,0:0:0:0:
298,45,66254,1,8,0:0:0:0:
253,41,66332,1,8,0:0:0:0:
207,45,66411,1,0,1:0:0:0:
163,58,66490,1,4,1:0:0:0:
86,117,66647,5,8,0:0:0:0:
86,117,66725,1,8,0:0:0:0:
86,117,66804,1,8,0:0:0:0:
46,196,66961,2,0,P|47:254|84:285,1,89.9999972534181,14|0,0:0|0:0,0:0:0:0:
134,320,67275,2,0,P|186:337|234:324,1,89.9999972534181,6|0,1:0|0:0,0:0:0:0:
425,225,67589,5,2,0:0:0:0:
186,261,67746,1,14,0:0:0:0:
34,36,68060,1,14,0:0:0:0:
47,36,68139,1,8,0:0:0:0:
60,36,68217,1,8,0:0:0:0:
73,36,68296,1,8,0:0:0:0:
86,36,68374,1,8,0:0:0:0:
99,36,68453,1,8,0:0:0:0:
112,36,68531,2,0,P|164:55|184:91,1,89.9999972534181,6|0,1:0|0:0,0:0:0:0:
390,193,68846,5,8,0:0:0:0:
96,305,69003,1,2,0:0:0:0:
397,289,69160,2,0,P|343:336|305:336,1,89.9999972534181,2|0,1:0|0:0,0:0:0:0:
96,305,69474,5,8,0:0:0:0:
390,193,69631,1,2,0:0:0:0:
89,209,69788,2,0,P|143:162|181:162,1,89.9999972534181,6|0,1:0|0:0,0:0:0:0:
311,33,70102,5,10,0:0:0:0:
262,317,70259,1,2,0:0:0:0:
430,72,70416,2,0,P|456:134|450:163,1,89.9999972534181,2|0,1:0|0:0,0:0:0:0:
224,201,70730,5,10,0:0:0:0:
470,254,70887,1,8,0:0:0:0:
470,254,70966,1,8,0:0:0:0:
470,254,71045,2,0,P|417:284|357:283,1,89.9999972534181,6|0,1:0|0:0,0:0:0:0:
120,309,71359,5,8,0:0:0:0:
71,136,71516,1,2,0:0:0:0:
71,136,71594,1,0,1:0:0:0:
71,136,71673,2,0,P|109:95|153:91,1,89.9999972534181,2|0,1:0|0:0,0:0:0:0:
410,79,71987,5,10,0:0:0:0:
366,259,72144,1,8,0:0:0:0:
366,259,72223,1,8,0:0:0:0:
366,259,72301,1,6,1:0:0:0:
190,268,72458,5,8,0:0:0:0:
190,268,72537,1,8,0:0:0:0:
190,268,72615,1,8,0:0:0:0:
75,130,72772,5,10,0:0:0:0:
75,130,72851,1,8,0:0:0:0:
75,130,72929,1,8,0:0:0:0:
234,46,73086,5,8,0:0:0:0:
277,57,73165,1,8,0:0:0:0:
318,73,73243,1,10,0:0:0:0:
352,102,73322,1,8,0:0:0:0:
381,136,73401,1,8,0:0:0:0:
394,178,73479,1,8,0:0:0:0:
401,222,73558,2,0,P|378:273|348:279,1,89.9999972534181,6|0,1:0|0:0,0:0:0:0:
272,295,73872,5,2,0:0:0:0:
272,295,74029,2,0,P|180:265|158:186,1,179.999994506836,2|0,0:0|0:0,0:0:0:0:
247,203,74500,2,0,P|240:131|214:90,1,89.9999972534181,6|8,1:0|0:0,0:0:0:0:
58,77,74814,1,6,1:0:0:0:
349,77,74971,1,10,0:0:0:0:
440,280,75285,5,2,0:0:0:0:
169,294,75600,1,10,0:0:0:0:
169,294,75678,1,0,1:0:0:0:
169,294,75757,2,0,P|95:258|101:166,1,179.999994506836,6|0,0:0|0:0,0:0:0:0:
180,109,76228,2,0,P|325:115|401:224,1,269.999991760254,10|0,0:0|0:0,0:0:0:0:
166,288,77013,6,0,P|102:298|39:276,1,119.999996337891,14|0,0:0|0:0,0:0:0:0:
115,160,77327,1,6,1:0:0:0:
270,62,77563,1,8,0:0:0:0:
270,62,77641,1,8,0:0:0:0:
270,62,77720,1,0,1:0:0:0:
270,62,77798,2,0,P|323:114|312:155,1,119.999996337891,10|14,0:0|0:0,0:0:0:0:
226,193,78113,2,0,P|193:259|218:294,1,119.999996337891,0|0,1:0|0:0,0:0:0:0:
451,182,78427,5,6,1:0:0:0:
131,67,78584,1,2,0:0:0:0:
410,263,78741,2,0,P|358:298|315:298,1,100,2|6,0:0|1:0,0:0:0:0:
51,172,79055,5,2,0:0:0:0:
421,100,79212,1,14,0:0:0:0:
55,92,79369,2,0,P|106:61|158:52,1,100,2|6,1:0|1:0,0:0:0:0:
114,351,79683,5,10,0:0:0:0:
286,54,79840,1,6,1:0:0:0:
25,275,79997,2,0,P|90:246|148:249,1,100,10|6,0:0|1:0,0:0:0:0:
405,332,80312,5,2,0:0:0:0:
405,22,80469,1,14,0:0:0:0:
62,100,80626,2,0,P|110:143|160:151,1,100,10|0,0:0|0:0,0:0:0:0:
237,210,80940,6,0,B|237:247|237:247|213:289|213:289|262:289|262:289|237:247,1,150,6|0,1:0|0:0,0:0:0:0:
254,275,81254,1,2,1:0:0:0:
126,59,81411,1,6,1:0:0:0:
380,104,81568,1,2,0:0:0:0:
380,104,81647,1,0,1:0:0:0:
380,104,81725,1,14,0:0:0:0:
122,182,81882,5,2,1:0:0:0:
122,182,81961,1,0,1:0:0:0:
122,182,82039,1,6,1:0:0:0:
342,316,82196,1,8,0:0:0:0:
305,24,82353,1,6,1:0:0:0:
216,343,82511,1,8,0:0:0:0:
445,168,82668,5,6,1:0:0:0:
158,131,82825,1,2,0:0:0:0:
158,131,82903,1,0,1:0:0:0:
158,131,82982,1,12,0:0:0:0:
438,258,83139,1,10,0:0:0:0:
215,40,83296,1,2,1:0:0:0:
405,155,83453,6,0,B|405:192|405:192|381:234|381:234|430:234|430:234|405:192,1,150.000005722046,4|0,1:0|0:0,0:0:0:0:
458,185,83767,1,2,1:0:0:0:
478,141,83846,1,0,1:0:0:0:
471,91,83924,1,10,0:0:0:0:
161,336,84081,5,2,1:0:0:0:
407,153,84239,1,10,0:0:0:0:
103,153,84396,1,2,1:0:0:0:
346,336,84553,1,10,0:0:0:0:
253,46,84709,5,2,1:0:0:0:
253,46,84788,1,0,1:0:0:0:
253,46,84867,1,10,0:0:0:0:
103,39,85024,1,2,1:0:0:0:
407,39,85181,1,10,0:0:0:0:
407,343,85338,1,2,1:0:0:0:
103,343,85495,1,10,0:0:0:0:
221,37,85652,5,0,1:0:0:0:
181,67,85730,1,8,0:0:0:0:
153,109,85809,1,0,1:0:0:0:
133,154,85887,1,8,0:0:0:0:
122,203,85966,2,0,B|122:260|122:260|98:302|98:302|147:302|147:302|122:260,1,200,6|10,1:0|0:0,0:0:0:0:
305,182,86437,5,8,0:0:0:0:
344,151,86516,1,8,0:0:0:0:
363,105,86594,2,0,P|367:79|345:54,1,50,6|0,1:0|0:0,0:0:0:0:
281,44,86751,1,10,0:0:0:0:
231,51,86830,1,8,0:0:0:0:
192,81,86908,1,8,0:0:0:0:
174,128,86987,1,8,0:0:0:0:
164,176,87065,2,0,P|163:205|191:238,1,50,6|0,1:0|0:0,0:0:0:0:
236,265,87223,5,10,0:0:0:0:
285,267,87301,1,8,0:0:0:0:
333,254,87380,1,8,0:0:0:0:
375,228,87458,1,8,0:0:0:0:
407,189,87537,2,0,P|410:163|364:104,1,100,6|0,1:0|0:0,0:0:0:0:
187,335,87851,1,0,0:0:0:0:
39,202,88008,5,6,1:0:0:0:
86,63,88165,1,8,0:0:0:0:
133,47,88243,1,8,0:0:0:0:
181,36,88322,1,10,0:0:0:0:
231,35,88401,1,8,0:0:0:0:
278,46,88479,2,0,P|301:64|314:134,1,100,6|0,1:0|0:0,0:0:0:0:
