osu file format v14

[General]
AudioFilename: audio.mp3
AudioLeadIn: 0
PreviewTime: 56533
Countdown: 1
SampleSet: Normal
StackLeniency: 0.7
Mode: 0
LetterboxInBreaks: 0
WidescreenStoryboard: 0

[Editor]
DistanceSpacing: 1
BeatDivisor: 4
GridSize: 16
TimelineZoom: 1.8

[Metadata]
Title:Good Morning World!
TitleUnicode:おはよう世界!
Artist:BURNOUT SYNDROMES
ArtistUnicode:バーンアウト シンドロームズ
Creator:-Andromeda-
Version:e=mc^2
Source:Dr. Stone
Tags:
BeatmapID:2100675
BeatmapSetID:1003684

[Difficulty]
HPDrainRate:5
CircleSize:4
OverallDifficulty:9
ApproachRate:9.3
SliderMultiplier:1.4
SliderTickRate:1

[Events]
//Background and Video events
0,0,"senku_prts.jpg",0,0
//Break Periods
//Storyboard Layer 0 (Background)
//Storyboard Layer 1 (Fail)
//Storyboard Layer 2 (Pass)
//Storyboard Layer 3 (Foreground)
//Storyboard Sound Samples

[TimingPoints]
710,314.13612565445,4,2,0,50,1,0
6193,314.13612565445,4,1,0,65,1,1
6193,-83.3333333333333,4,1,0,65,0,1
16245,-83.3333333333333,4,1,0,40,0,0
21271,-83.3333333333333,4,1,0,55,0,0
26297,-83.3333333333333,4,1,0,40,0,0
31323,-83.3333333333333,4,1,0,55,0,0
35250,-100,4,1,0,55,0,0
37449,-100,4,2,0,35,0,0
39805,-111.111111111111,4,2,0,35,0,0
43261,-100,4,2,0,35,0,0
46088,-83.3333333333333,4,2,0,35,0,0
56611,-500,4,2,0,35,0,0
59124,-83.3333333333333,4,1,0,65,0,1
74203,-100,4,1,0,65,0,0
79072,-83.3333333333333,4,1,0,65,0,0
84098,-83.3333333333333,4,1,0,65,0,1
89124,-83.3333333333333,4,1,0,65,0,0

[Colours]
Combo1 : 228,152,105
Combo2 : 242,45,45
Combo3 : 191,191,206
Combo4 : 169,241,187

[HitObjects]
95,110,710,5,0,0:0:0:0:
95,110,1024,1,0,0:0:0:0:
95,110,1338,2,0,B|161:66|237:129|315:64,1,210
410,71,1966,2,0,P|415:136|390:216,1,140
287,254,2437,1,0,0:0:0:0:
287,254,2594,2,0,P|287:173|350:130,1,140
256,192,3223,12,0,5736,0:0:0:0:
85,144,6193,6,0,P|130:120|181:117,1,83.9999974365235
401,155,6507,1,0,0:0:0:0:
162,277,6664,1,0,0:0:0:0:
314,59,6821,1,0,0:0:0:0:
310,318,6978,1,0,0:0:0:0:
206,42,7135,1,0,0:0:0:0:
191,349,7292,1,0,0:0:0:0:
357,61,7449,5,0,0:0:0:0:
76,245,7606,1,0,0:0:0:0:
391,186,7763,1,0,0:0:0:0:
108,70,7920,1,0,0:0:0:0:
342,308,8077,1,0,0:0:0:0:
342,308,8156,1,0,0:0:0:0:
342,308,8234,1,0,0:0:0:0:
207,34,8391,1,0,0:0:0:0:
190,341,8549,1,0,0:0:0:0:
337,48,8706,6,0,P|340:94|334:147,1,83.9999974365235
286,333,9020,1,0,0:0:0:0:
286,333,9098,1,0,0:0:0:0:
286,333,9177,1,0,0:0:0:0:
189,48,9334,1,0,0:0:0:0:
161,330,9491,1,0,0:0:0:0:
306,63,9648,1,0,0:0:0:0:
286,333,9805,1,0,0:0:0:0:
90,144,9962,5,0,0:0:0:0:
419,83,10119,1,0,0:0:0:0:
111,300,10276,1,0,0:0:0:0:
430,235,10433,1,0,0:0:0:0:
226,28,10590,1,0,0:0:0:0:
275,323,10747,1,0,0:0:0:0:
345,42,10905,1,0,0:0:0:0:
400,316,11062,1,0,0:0:0:0:
226,28,11219,6,0,P|221:94|232:130,1,83.9999974365235
290,253,11533,1,0,0:0:0:0:
360,82,11690,2,0,P|401:75|448:78,1,83.9999974365235
475,250,12004,1,0,0:0:0:0:
257,142,12161,1,0,0:0:0:0:
445,17,12318,2,0,P|458:56|452:110,1,83.9999974365235
370,308,12632,1,0,0:0:0:0:
343,85,12789,1,0,0:0:0:0:
270,333,12946,1,0,0:0:0:0:
229,117,13103,1,0,0:0:0:0:
370,308,13261,2,0,L|365:212,2,83.9999974365235
129,76,13732,6,0,P|212:39|291:52,1,167.999994873047
390,159,14203,1,0,0:0:0:0:
261,287,14360,2,0,P|255:234|258:177,2,83.9999974365235
451,345,14831,2,0,P|456:306|451:249,1,83.9999974365235
374,52,15145,5,0,0:0:0:0:
227,338,15302,1,0,0:0:0:0:
261,20,15460,5,0,0:0:0:0:
307,341,15617,1,0,0:0:0:0:
374,52,15774,5,0,0:0:0:0:
376,79,15852,1,0,0:0:0:0:
377,107,15931,1,0,0:0:0:0:
378,134,16009,1,0,0:0:0:0:
380,162,16088,1,0,0:0:0:0:
380,189,16166,1,0,0:0:0:0:
379,217,16245,1,0,0:0:0:0:
379,217,16559,6,0,P|328:207|278:215,1,83.9999974365235
212,234,17344,1,0,0:0:0:0:
379,217,17973,1,0,0:0:0:0:
305,118,18601,1,0,0:0:0:0:
305,118,18758,6,0,L|194:122,1,83.9999974365235
127,212,19072,2,0,L|213:212,1,83.9999974365235
256,82,19857,1,0,0:0:0:0:
181,286,20486,1,0,0:0:0:0:
256,82,20643,1,0,0:0:0:0:
256,82,20721,1,0,0:0:0:0:
256,82,20800,1,0,0:0:0:0:
264,327,20957,1,0,0:0:0:0:
310,37,21271,6,0,P|313:81|310:125,1,83.9999974365235
219,247,21585,1,0,0:0:0:0:
109,104,21742,2,0,P|148:93|216:92,1,83.9999974365235
385,183,22056,1,0,0:0:0:0:
261,343,22213,1,0,0:0:0:0:
317,92,22371,6,0,P|387:76|475:119,1,167.999994873047
485,272,22842,1,0,0:0:0:0:
261,343,22999,2,0,P|258:287|263:248,1,83.9999974365235
317,92,23313,1,0,0:0:0:0:
373,249,23470,1,0,0:0:0:0:
421,40,23627,1,0,0:0:0:0:
235,164,23784,1,0,0:0:0:0:
493,142,23941,6,0,P|440:141|400:149,1,83.9999974365235
234,197,24255,1,0,0:0:0:0:
358,376,24412,2,0,P|362:332|361:277,1,83.9999974365235
324,120,24727,1,0,0:0:0:0:
178,273,24884,2,0,P|240:281|274:274,1,83.9999974365235
186,78,25198,1,0,0:0:0:0:
88,256,25355,1,0,0:0:0:0:
22,86,25512,2,0,P|59:75|108:73,1,83.9999974365235
224,207,25826,1,0,0:0:0:0:
291,32,25983,1,0,0:0:0:0:
273,318,26140,1,0,0:0:0:0:
254,18,26297,6,0,P|253:66|261:104,1,83.9999974365235
336,201,26611,1,0,0:0:0:0:
449,113,27397,1,0,0:0:0:0:
336,201,28025,1,0,0:0:0:0:
212,95,28653,1,0,0:0:0:0:
212,95,28810,6,0,L|217:192,1,83.9999974365235
147,275,29124,2,0,L|142:180,1,83.9999974365235
52,145,29910,1,0,0:0:0:0:
35,306,30538,1,0,0:0:0:0:
70,102,30695,1,0,0:0:0:0:
70,102,30774,1,0,0:0:0:0:
70,102,30852,1,0,0:0:0:0:
114,339,31009,1,0,0:0:0:0:
114,339,31323,6,0,P|112:288|119:231,1,83.9999974365235
238,123,31638,1,0,0:0:0:0:
387,302,31795,2,0,P|336:309|300:305,1,83.9999974365235
171,210,32109,1,0,0:0:0:0:
376,129,32266,1,0,0:0:0:0:
214,320,32423,6,0,P|130:307|79:247,1,167.999994873047
111,79,32894,1,0,0:0:0:0:
318,171,33051,2,0,P|251:178|213:173,1,83.9999974365235
197,5,33365,1,0,0:0:0:0:
401,89,33522,1,0,0:0:0:0:
263,261,33679,1,0,0:0:0:0:
294,42,33836,1,0,0:0:0:0:
473,267,33994,6,0,P|408:288|370:285,1,83.9999974365235
196,161,34308,2,0,P|245:145|297:152,1,83.9999974365235
186,339,34622,2,0,P|146:303|131:264,1,83.9999974365235
183,49,34936,2,0,P|228:92|238:118,1,83.9999974365235
242,131,35172,1,0,0:0:0:0:
244,165,35250,2,0,P|255:209|339:255,1,140
431,190,35721,1,0,0:0:0:0:
431,190,35800,1,0,0:0:0:0:
431,190,35878,1,0,0:0:0:0:
357,373,36035,1,0,0:0:0:0:
325,157,36192,1,0,0:0:0:0:
357,373,36350,1,0,0:0:0:0:
357,373,37449,5,0,0:0:0:0:
249,332,37606,1,0,0:0:0:0:
333,280,37763,1,0,0:0:0:0:
206,252,37920,1,0,0:0:0:0:
280,183,38077,1,0,0:0:0:0:
197,90,38234,2,0,P|190:150|192:182,1,70
333,280,38549,2,0,P|355:193|327:54,1,210
336,74,39805,6,0,B|265:55|216:109|151:63,1,188.999994232178
66,13,40433,1,0,0:0:0:0:
79,139,40590,1,0,0:0:0:0:
152,63,40747,1,0,0:0:0:0:
171,195,40905,1,0,0:0:0:0:
250,109,41062,2,0,B|323:104|319:192|435:162,1,188.999994232178
422,164,42475,6,0,L|419:250,1,62.9999980773926
360,329,42789,1,0,0:0:0:0:
308,200,42946,1,0,0:0:0:0:
236,310,43103,1,0,0:0:0:0:
147,199,43261,2,0,P|153:151|189:95,1,105
201,82,43575,2,0,B|275:120|326:60|412:93,1,210
421,296,44988,6,0,L|419:211,1,70
307,113,45302,2,0,L|313:191,1,70
279,323,45617,1,0,0:0:0:0:
156,181,45774,2,0,L|230:157,1,70
112,299,46088,2,0,P|49:230|38:152,1,167.999994873047
130,49,46559,5,0,0:0:0:0:
130,49,46638,1,0,0:0:0:0:
130,49,46716,2,0,L|145:122,3,41.9999987182618
232,132,47030,5,0,0:0:0:0:
232,132,47109,1,0,0:0:0:0:
232,132,47187,2,0,L|221:203,3,41.9999987182618
313,41,47501,5,0,0:0:0:0:
313,41,47580,1,0,0:0:0:0:
313,41,47658,2,0,L|304:101,3,41.9999987182618
402,351,47973,6,0,P|418:291|421:244,1,83.9999974365235
265,170,48287,1,0,0:0:0:0:
265,170,48365,1,0,0:0:0:0:
265,170,48444,2,0,L|271:239,4,41.9999987182618
135,68,48915,5,0,0:0:0:0:
103,96,48994,1,0,0:0:0:0:
92,136,49072,2,0,L|97:223,1,83.9999974365235
198,338,49386,5,0,0:0:0:0:
198,338,49465,1,0,0:0:0:0:
198,338,49543,2,0,L|211:254,1,83.9999974365235
337,125,49857,5,0,0:0:0:0:
337,125,49936,1,0,0:0:0:0:
337,125,50014,2,0,L|348:211,1,83.9999974365235
98,97,50329,5,0,0:0:0:0:
98,97,50407,1,0,0:0:0:0:
98,97,50486,2,0,L|180:77,1,83.9999974365235
48,262,50800,5,0,0:0:0:0:
48,262,50878,1,0,0:0:0:0:
48,262,50957,1,0,0:0:0:0:
98,97,51114,1,0,0:0:0:0:
181,231,51271,1,0,0:0:0:0:
206,58,51428,1,0,0:0:0:0:
206,58,51507,1,0,0:0:0:0:
206,58,51585,6,0,L|306:47,1,83.9999974365235
467,123,51899,2,0,L|374:136,1,83.9999974365235
261,260,52213,1,0,0:0:0:0:
435,328,52371,1,0,0:0:0:0:
186,155,52685,6,0,L|176:265,1,83.9999974365235
67,343,52999,2,0,L|64:246,1,83.9999974365235
130,89,53313,1,0,0:0:0:0:
268,256,53470,1,0,0:0:0:0:
268,256,53549,1,0,0:0:0:0:
268,256,53627,1,0,0:0:0:0:
247,73,53784,1,0,0:0:0:0:
158,261,53941,6,0,L|148:321,4,41.9999987182618
247,73,54412,2,0,L|238:27,4,41.9999987182618
385,206,54884,2,0,L|373:306,1,83.9999974365235
130,89,55198,2,0,B|216:31|278:139|378:43,1,251.999992309571
485,22,55826,2,0,L|480:83,3,41.9999987182618
418,258,56140,2,0,L|414:212,3,41.9999987182618
284,162,56611,5,0,0:0:0:0:
284,162,57083,1,0,0:0:0:0:
284,162,57554,2,0,L|281:247,1,84
96,135,58810,5,0,0:0:0:0:
126,117,58889,1,0,0:0:0:0:
158,105,58967,1,0,0:0:0:0:
193,104,59046,1,0,0:0:0:0:
232,118,59124,2,0,P|313:142|419:111,1,167.999994873047
318,16,59596,1,0,0:0:0:0:
193,104,59753,2,0,L|179:277,1,167.999994873047
341,347,60224,2,0,P|373:299|376:253,1,83.9999974365235
317,57,60538,2,0,P|309:103|324:155,1,83.9999974365235
497,185,60852,2,0,P|448:172|408:181,1,83.9999974365235
184,285,61166,2,0,P|238:298|279:277,1,83.9999974365235
200,41,61480,5,0,0:0:0:0:
200,41,61559,1,0,0:0:0:0:
200,41,61638,2,0,L|192:131,1,83.9999974365235
449,175,61952,2,0,B|377:179|385:261|275:229,2,167.999994873047
63,252,62894,2,0,B|135:256|127:338|237:306,2,167.999994873047
152,35,63679,1,0,0:0:0:0:
187,239,63836,1,0,0:0:0:0:
295,50,63994,5,0,0:0:0:0:
295,50,64072,1,0,0:0:0:0:
295,50,64151,2,0,L|297:234,1,167.999994873047
374,358,64622,1,0,0:0:0:0:
455,211,64779,2,0,P|364:192|285:226,1,167.999994873047
162,349,65250,1,0,0:0:0:0:
54,150,65407,2,0,P|103:140|152:154,1,83.9999974365235
334,48,65721,2,0,P|337:108|331:134,1,83.9999974365235
162,349,66035,2,0,P|154:292|158:246,1,83.9999974365235
218,41,66350,2,0,L|222:149,1,83.9999974365235
260,353,66664,6,0,L|266:293,1,41.9999987182618
119,87,66821,1,0,0:0:0:0:
119,87,66899,1,0,0:0:0:0:
119,87,66978,2,0,L|125:151,1,41.9999987182618
56,352,67135,1,0,0:0:0:0:
56,352,67213,1,0,0:0:0:0:
56,352,67292,2,0,L|63:280|63:280,1,41.9999987182618
234,57,67449,1,0,0:0:0:0:
234,57,67527,1,0,0:0:0:0:
234,57,67606,2,0,P|225:130|260:176,1,125.999996154785
414,192,67920,2,0,P|420:143|409:90,1,83.9999974365235
320,21,68234,1,0,0:0:0:0:
231,248,68391,6,0,P|288:246|321:227,1,83.9999974365235
410,107,68706,1,0,0:0:0:0:
423,146,68784,1,0,0:0:0:0:
434,186,68863,1,0,0:0:0:0:
434,227,68941,1,0,0:0:0:0:
430,269,69020,1,0,0:0:0:0:
413,307,69098,1,0,0:0:0:0:
380,334,69177,6,0,P|305:354|201:324,1,167.999994873047
134,172,69648,1,0,0:0:0:0:
310,50,69805,2,0,L|285:222,1,167.999994873047
191,340,70276,1,0,0:0:0:0:
46,122,70433,2,0,P|100:96|211:97,1,167.999994873047
344,283,70905,1,0,0:0:0:0:
375,37,71062,2,0,L|363:137,1,83.9999974365235
191,340,71376,2,0,B|154:231|256:203|198:76,1,251.999992309571
40,147,72004,2,0,P|85:160|132:157,1,83.9999974365235
401,70,72318,2,0,P|341:63|301:75,1,83.9999974365235
375,313,72632,2,0,P|387:268|383:215,1,83.9999974365235
250,58,72946,5,0,0:0:0:0:
250,58,73025,1,0,0:0:0:0:
250,58,73103,2,0,L|238:124,1,41.9999987182618
181,333,73261,1,0,0:0:0:0:
181,333,73339,1,0,0:0:0:0:
178,327,73418,2,0,L|172:262,1,41.9999987182618
78,30,73575,1,0,0:0:0:0:
76,59,73653,1,0,0:0:0:0:
73,88,73732,1,0,0:0:0:0:
68,116,73810,1,0,0:0:0:0:
66,145,73889,1,0,0:0:0:0:
63,174,73967,1,0,0:0:0:0:
61,203,74046,1,0,0:0:0:0:
58,232,74124,1,0,0:0:0:0:
55,261,74203,2,0,L|54:341,1,70
200,264,74517,6,0,L|209:182,1,70
304,30,74831,2,0,L|307:113,1,70
342,347,75145,1,0,0:0:0:0:
362,144,75302,1,0,0:0:0:0:
457,354,75460,1,0,0:0:0:0:
472,129,75617,2,0,L|466:221,1,70
215,326,75931,6,0,L|231:227,1,70
140,44,76245,2,0,L|150:128,1,70
323,196,76559,2,0,L|331:107,1,70
153,315,76873,1,0,0:0:0:0:
153,315,76952,1,0,0:0:0:0:
153,315,77030,2,0,L|156:269,1,35
231,63,77187,1,0,0:0:0:0:
231,63,77266,1,0,0:0:0:0:
231,63,77344,2,0,L|231:103,1,35
321,346,77501,1,0,0:0:0:0:
321,346,77580,1,0,0:0:0:0:
321,346,77658,6,0,P|323:302|330:267,1,70
397,97,77973,1,0,0:0:0:0:
462,361,78130,1,0,0:0:0:0:
468,326,78208,1,0,0:0:0:0:
476,291,78287,1,0,0:0:0:0:
483,257,78365,1,0,0:0:0:0:
484,221,78444,2,0,L|487:122,1,70
230,38,78758,2,0,L|245:139,1,70
324,352,79072,6,0,P|346:288|325:173,1,167.999994873047
137,155,79543,1,0,0:0:0:0:
262,16,79700,2,0,P|272:71|259:119,1,83.9999974365235
163,311,80014,1,0,0:0:0:0:
267,98,80172,1,0,0:0:0:0:
355,317,80329,1,0,0:0:0:0:
145,174,80486,1,0,0:0:0:0:
372,187,80643,1,0,0:0:0:0:
250,358,80800,1,0,0:0:0:0:
357,59,80957,1,0,0:0:0:0:
357,59,81035,1,0,0:0:0:0:
357,59,81114,1,0,0:0:0:0:
250,358,81271,1,0,0:0:0:0:
206,47,81428,1,0,0:0:0:0:
136,356,81585,6,0,P|130:263|174:166,1,167.999994873047
315,93,82056,1,0,0:0:0:0:
443,263,82213,2,0,P|383:270|350:264,1,83.9999974365235
193,109,82528,1,0,0:0:0:0:
261,334,82685,1,0,0:0:0:0:
315,93,82842,1,0,0:0:0:0:
261,334,82999,2,0,P|268:270|264:231,1,83.9999974365235
151,83,83313,1,0,0:0:0:0:
133,348,83470,1,0,0:0:0:0:
133,348,83549,1,0,0:0:0:0:
133,348,83627,1,0,0:0:0:0:
262,26,83784,2,0,L|254:127,1,83.9999974365235
133,348,84098,6,0,L|141:242,1,83.9999974365235
281,48,84412,1,0,0:0:0:0:
281,48,84491,1,0,0:0:0:0:
281,48,84569,1,0,0:0:0:0:
306,334,84727,1,0,0:0:0:0:
397,41,84884,1,0,0:0:0:0:
435,337,85041,5,0,0:0:0:0:
184,169,85198,1,0,0:0:0:0:
184,169,85276,1,0,0:0:0:0:
184,169,85355,1,0,0:0:0:0:
471,117,85512,1,0,0:0:0:0:
227,301,85669,5,0,0:0:0:0:
356,27,85826,1,0,0:0:0:0:
354,305,85983,5,0,0:0:0:0:
244,29,86140,1,0,0:0:0:0:
278,363,86297,5,0,0:0:0:0:
356,27,86454,1,0,0:0:0:0:
117,333,86611,6,0,L|200:288,1,83.9999974365235
247,77,86925,1,0,0:0:0:0:
247,77,87004,1,0,0:0:0:0:
247,77,87083,1,0,0:0:0:0:
337,339,87240,2,0,L|360:231,1,83.9999974365235
368,38,87554,1,0,0:0:0:0:
368,38,87632,1,0,0:0:0:0:
368,38,87711,2,0,L|384:139,1,83.9999974365235
213,312,88025,1,0,0:0:0:0:
213,312,88103,1,0,0:0:0:0:
213,312,88182,2,0,L|186:201,1,83.9999974365235
313,17,88496,2,0,L|293:123,1,83.9999974365235
334,323,88810,2,0,L|331:275,3,41.9999987182618
243,170,89124,1,0,0:0:0:0:
