osu file format v14

[General]
AudioFilename: audio.mp3
AudioLeadIn: 0
PreviewTime: 70731
Countdown: 0
SampleSet: Normal
StackLeniency: 0.7
Mode: 1
LetterboxInBreaks: 0
WidescreenStoryboard: 0

[Editor]
Bookmarks: 16764,58503,71546
DistanceSpacing: 1.6
BeatDivisor: 4
GridSize: 32
TimelineZoom: 1.9

[Metadata]
Title:Good Morning [New] World! (TV Size)
TitleUnicode:Good Morning [New] World! (TV Size)
Artist:BURNOUT SYNDROMES
ArtistUnicode:BURNOUT SYNDROMES
Creator:Aurorance
Version:Muzukashii!
Source:Dr.STONE 龍水
Tags:jpop j-pop ドクターストーン dr. stone ohayou sekai anime japanese diederich olsen cynplytholowazy cynp-zy pop opening op rock jrock j-rock ドクターストーン おはよう世界 Kazuumi Kumagai
BeatmapID:3714322
BeatmapSetID:1810888

[Difficulty]
HPDrainRate:6
CircleSize:5
OverallDifficulty:4.3
ApproachRate:5
SliderMultiplier:1.4
SliderTickRate:1

[Events]
//Background and Video events
0,0,"drstone.jpg",0,0
Video,0,"output.mp4"
//Break Periods
//Storyboard Layer 0 (Background)
//Storyboard Layer 1 (Fail)
//Storyboard Layer 2 (Pass)
//Storyboard Layer 3 (Foreground)
//Storyboard Layer 4 (Overlay)
//Storyboard Sound Samples

[TimingPoints]
1112,326.086956521739,4,1,0,70,1,0
37592,-100,4,1,0,40,0,0
48027,-100,4,1,0,55,0,0
58462,-100,4,1,0,65,0,0
71505,-100,4,1,0,80,0,0
71546,326.086956521739,4,1,0,80,1,1
94861,-100,4,1,0,80,0,0
95351,-100,4,1,0,70,0,0
96003,-100,4,1,0,60,0,0
96655,-100,4,1,0,50,0,0
97144,-100,4,1,0,40,0,0
97470,-100,4,1,0,30,0,0

[HitObjects]
183,146,6329,5,4,1:0:0:0:
183,146,6655,1,2,1:0:0:0:
183,146,6818,1,0,1:0:0:0:
183,146,7144,1,0,1:0:0:0:
183,146,7307,1,0,1:0:0:0:
183,146,7633,1,2,1:0:0:0:
183,146,7796,1,0,1:0:0:0:
183,146,8122,1,0,1:0:0:0:
183,146,8285,1,2,1:0:0:0:
183,146,8611,1,0,1:0:0:0:
183,146,8775,1,2,1:0:0:0:
183,146,8856,1,2,1:0:0:0:
183,146,8938,5,2,1:0:0:0:
183,146,9264,1,0,1:0:0:0:
183,146,9427,1,0,1:0:0:0:
183,146,9753,1,0,1:0:0:0:
183,146,9916,1,0,1:0:0:0:
183,146,10242,1,2,1:0:0:0:
183,146,10405,1,0,1:0:0:0:
183,146,10731,1,2,1:0:0:0:
183,146,10894,1,0,1:0:0:0:
183,146,11220,1,0,1:0:0:0:
183,146,11383,1,2,1:0:0:0:
183,146,11465,1,2,1:0:0:0:
183,146,11546,5,2,1:0:0:0:
183,146,12035,1,0,1:0:0:0:
183,146,12361,1,0,1:0:0:0:
183,146,12525,1,0,1:0:0:0:
183,146,12851,1,2,1:0:0:0:
183,146,13014,1,0,1:0:0:0:
183,146,13340,1,0,1:0:0:0:
183,146,13503,1,0,1:0:0:0:
183,146,13829,1,0,1:0:0:0:
183,146,13992,1,2,1:0:0:0:
183,146,14073,1,2,1:0:0:0:
183,146,14155,5,2,1:0:0:0:
183,146,14481,1,0,1:0:0:0:
183,146,14644,1,0,1:0:0:0:
183,146,15133,1,0,1:0:0:0:
183,146,15459,1,2,1:0:0:0:
183,146,15622,1,0,1:0:0:0:
183,146,15948,1,0,1:0:0:0:
183,146,16111,1,0,1:0:0:0:
183,146,16275,1,2,1:0:0:0:
183,146,16438,1,0,1:0:0:0:
183,146,16601,1,0,1:0:0:0:
183,146,16764,5,6,1:0:0:0:
183,146,17090,1,0,1:0:0:0:
183,146,17253,1,2,1:0:0:0:
183,146,17416,1,0,1:0:0:0:
183,146,17742,1,2,1:0:0:0:
183,146,18068,1,0,1:0:0:0:
183,146,18231,1,2,1:0:0:0:
183,146,18557,1,0,1:0:0:0:
183,146,18883,1,0,1:0:0:0:
183,146,19209,1,0,1:0:0:0:
183,146,19372,5,2,1:0:0:0:
183,146,19698,1,0,1:0:0:0:
183,146,19861,1,2,1:0:0:0:
183,146,20025,1,0,1:0:0:0:
183,146,20351,1,2,1:0:0:0:
183,146,20677,1,0,1:0:0:0:
183,146,20840,1,2,1:0:0:0:
183,146,21166,1,0,1:0:0:0:
183,146,21492,1,2,1:0:0:0:
183,146,21818,1,0,1:0:0:0:
183,146,21981,5,2,1:0:0:0:
183,146,22470,1,0,1:0:0:0:
183,146,22796,1,0,1:0:0:0:
183,146,22959,1,0,1:0:0:0:
183,146,23285,1,2,1:0:0:0:
183,146,23448,1,0,1:0:0:0:
183,146,23775,1,2,1:0:0:0:
183,146,23938,1,2,1:0:0:0:
183,146,24101,1,0,1:0:0:0:
183,146,24264,1,2,1:0:0:0:
183,146,24590,5,0,1:0:0:0:
183,146,24916,1,2,1:0:0:0:
183,146,25242,1,0,1:0:0:0:
183,146,25568,1,0,1:0:0:0:
183,146,25894,1,0,1:0:0:0:
183,146,26057,1,0,0:0:0:0:
183,146,26220,1,2,1:0:0:0:
183,146,26546,1,2,1:0:0:0:
183,146,26709,1,2,1:0:0:0:
183,146,26872,1,0,1:0:0:0:
183,146,27035,1,0,1:0:0:0:
183,146,27198,5,6,1:0:0:0:
183,146,27525,1,0,1:0:0:0:
183,146,27688,1,2,1:0:0:0:
183,146,27851,1,0,1:0:0:0:
183,146,28177,1,2,1:0:0:0:
183,146,28503,1,0,1:0:0:0:
183,146,28666,1,2,1:0:0:0:
183,146,28992,1,0,1:0:0:0:
183,146,29318,1,0,1:0:0:0:
183,146,29644,1,2,1:0:0:0:
183,146,29807,5,0,1:0:0:0:
183,146,30133,1,2,1:0:0:0:
183,146,30296,1,2,1:0:0:0:
183,146,30459,1,0,1:0:0:0:
183,146,30785,1,2,1:0:0:0:
183,146,31111,1,2,1:0:0:0:
183,146,31275,1,2,1:0:0:0:
183,146,31601,1,0,1:0:0:0:
183,146,31927,1,0,1:0:0:0:
183,146,32090,1,2,1:0:0:0:
183,146,32253,1,0,1:0:0:0:
183,146,32416,5,2,1:0:0:0:
183,146,32742,1,0,1:0:0:0:
183,146,32905,1,0,1:0:0:0:
183,146,33231,1,2,1:0:0:0:
183,146,33394,1,0,1:0:0:0:
183,146,33557,1,0,0:0:0:0:
183,146,33720,1,0,1:0:0:0:
183,146,33883,1,0,1:0:0:0:
183,146,34372,1,0,1:0:0:0:
183,146,34535,1,0,1:0:0:0:
183,146,34698,1,2,1:0:0:0:
183,146,35025,5,0,1:0:0:0:
183,146,35351,1,0,1:0:0:0:
183,146,35514,1,2,1:0:0:0:
183,146,35677,1,0,1:0:0:0:
183,146,36003,1,2,1:0:0:0:
183,146,36329,1,0,1:0:0:0:
183,146,36655,1,0,0:0:0:0:
183,146,36981,1,2,1:0:0:0:
183,146,37144,1,2,1:0:0:0:
183,146,37307,1,0,1:0:0:0:
183,146,37470,1,0,1:0:0:0:
183,146,37633,5,6,1:0:0:0:
183,146,40242,1,0,1:0:0:0:
183,146,40568,1,0,1:0:0:0:
183,146,40894,1,0,0:0:0:0:
183,146,41546,1,0,0:0:0:0:
183,146,41872,1,0,0:0:0:0:
183,146,42198,1,2,1:0:0:0:
183,146,42851,5,2,1:0:0:0:
183,146,43503,1,0,0:0:0:0:
183,146,44155,1,0,0:0:0:0:
183,146,44807,1,0,0:0:0:0:
183,146,45459,1,2,1:0:0:0:
183,146,45785,1,0,1:0:0:0:
183,146,46111,1,0,0:0:0:0:
183,146,46764,1,2,1:0:0:0:
183,146,47090,1,0,0:0:0:0:
183,146,47334,1,2,1:0:0:0:
183,146,47416,1,2,1:0:0:0:
183,146,47579,1,0,1:0:0:0:
183,146,47742,1,0,1:0:0:0:
183,146,48068,5,6,1:0:0:0:
183,146,48557,1,0,1:0:0:0:
183,146,49046,1,0,1:0:0:0:
183,146,49372,1,0,1:0:0:0:
183,146,49698,1,2,1:0:0:0:
183,146,49861,1,2,1:0:0:0:
183,146,50188,1,2,1:0:0:0:
183,146,50677,5,0,1:0:0:0:
183,146,51166,1,0,1:0:0:0:
183,146,51655,1,0,1:0:0:0:
183,146,51818,1,2,1:0:0:0:
183,146,51981,1,2,1:0:0:0:
183,146,52307,1,0,1:0:0:0:
183,146,52470,1,0,1:0:0:0:
183,146,52796,1,0,0:0:0:0:
183,146,53285,5,0,1:0:0:0:
183,146,53775,1,0,1:0:0:0:
183,146,54264,1,0,1:0:0:0:
183,146,54590,1,2,1:0:0:0:
183,146,54916,1,2,1:0:0:0:
183,146,55079,1,0,1:0:0:0:
183,146,55405,1,2,1:0:0:0:
183,146,55894,5,2,1:0:0:0:
183,146,56383,1,2,1:0:0:0:
183,146,56872,1,2,1:0:0:0:
183,146,57035,1,2,1:0:0:0:
183,146,57198,1,0,1:0:0:0:
183,146,57525,1,0,1:0:0:0:
183,146,57688,1,2,1:0:0:0:
183,146,58014,1,0,0:0:0:0:
183,146,58503,5,4,1:0:0:0:
183,146,58829,1,2,1:0:0:0:
183,146,58992,1,0,1:0:0:0:
183,146,59481,1,0,1:0:0:0:
183,146,59807,1,2,1:0:0:0:
183,146,60133,1,0,0:0:0:0:
183,146,60296,1,2,1:0:0:0:
183,146,60622,1,0,1:0:0:0:
183,146,60948,1,0,1:0:0:0:
183,146,61030,1,0,1:0:0:0:
183,146,61111,5,0,1:0:0:0:
183,146,61438,1,2,1:0:0:0:
183,146,61601,1,0,1:0:0:0:
183,146,61764,1,0,0:0:0:0:
183,146,62090,1,0,1:0:0:0:
183,146,62416,1,2,1:0:0:0:
183,146,62579,1,0,1:0:0:0:
183,146,63068,1,0,1:0:0:0:
183,146,63394,1,2,1:0:0:0:
183,146,63557,1,2,1:0:0:0:
183,146,63639,1,2,1:0:0:0:
183,146,63720,5,2,1:0:0:0:
183,146,64046,1,2,1:0:0:0:
183,146,64209,1,0,1:0:0:0:
183,146,64698,1,0,1:0:0:0:
183,146,65025,1,2,1:0:0:0:
183,146,65188,1,0,1:0:0:0:
183,146,65514,1,2,1:0:0:0:
183,146,65677,1,0,1:0:0:0:
183,146,66003,1,2,1:0:0:0:
183,146,66166,1,0,1:0:0:0:
183,146,66247,1,0,1:0:0:0:
183,146,66329,5,0,1:0:0:0:
183,146,66492,1,0,0:0:0:0:
183,146,66818,1,2,1:0:0:0:
183,146,67307,1,0,1:0:0:0:
183,146,67470,1,0,1:0:0:0:
183,146,67633,1,2,1:0:0:0:
183,146,67796,1,2,1:0:0:0:
183,146,68122,1,2,1:0:0:0:
183,146,68285,1,0,1:0:0:0:
183,146,68448,1,0,1:0:0:0:
183,146,68611,1,2,1:0:0:0:
183,146,68775,1,2,1:0:0:0:
183,146,68938,5,6,1:0:0:0:
183,146,70894,5,6,1:0:0:0:
183,146,71220,1,0,0:0:0:0:
183,146,71546,5,0,1:0:0:0:
183,146,71872,1,2,1:0:0:0:
183,146,72035,1,0,1:0:0:0:
183,146,72198,1,2,1:0:0:0:
183,146,72525,1,0,1:0:0:0:
183,146,72688,1,2,1:0:0:0:
183,146,72851,1,0,1:0:0:0:
183,146,73177,1,2,1:0:0:0:
183,146,73503,1,2,1:0:0:0:
183,146,73666,1,0,1:0:0:0:
183,146,73829,1,2,1:0:0:0:
183,146,74155,5,2,1:0:0:0:
183,146,74481,1,0,1:0:0:0:
183,146,74807,1,2,1:0:0:0:
183,146,75133,1,0,1:0:0:0:
183,146,75459,1,2,1:0:0:0:
183,146,75622,1,2,1:0:0:0:
183,146,75785,1,0,1:0:0:0:
183,146,76111,1,2,1:0:0:0:
183,146,76275,1,0,1:0:0:0:
183,146,76438,1,2,1:0:0:0:
183,146,76601,1,0,1:0:0:0:
183,146,76682,1,0,1:0:0:0:
183,146,76764,5,2,1:0:0:0:
183,146,77090,1,0,1:0:0:0:
183,146,77253,1,2,1:0:0:0:
183,146,77416,1,0,1:0:0:0:
183,146,77742,1,2,1:0:0:0:
183,146,78068,1,0,1:0:0:0:
183,146,78231,1,2,1:0:0:0:
183,146,78394,1,2,1:0:0:0:
183,146,78720,1,2,1:0:0:0:
183,146,79046,1,2,1:0:0:0:
183,146,79209,1,0,1:0:0:0:
183,146,79372,5,0,1:0:0:0:
183,146,79698,1,2,1:0:0:0:
183,146,80025,1,0,1:0:0:0:
183,146,80351,1,2,1:0:0:0:
183,146,80514,1,2,1:0:0:0:
183,146,80677,5,0,1:0:0:0:
183,146,80921,1,2,0:0:0:0:
183,146,81003,1,2,1:0:0:0:
183,146,81166,1,4,1:0:0:0:
183,146,81492,1,4,1:0:0:0:
183,146,81655,1,2,1:0:0:0:
183,146,81818,1,0,1:0:0:0:
183,146,81900,1,0,1:0:0:0:
183,146,81981,5,0,1:0:0:0:
183,146,82307,1,2,1:0:0:0:
183,146,82470,1,0,1:0:0:0:
183,146,82633,1,0,1:0:0:0:
183,146,82959,1,2,1:0:0:0:
183,146,83122,1,2,1:0:0:0:
183,146,83285,1,0,1:0:0:0:
183,146,83611,1,2,1:0:0:0:
183,146,83775,1,2,1:0:0:0:
183,146,83938,1,0,1:0:0:0:
183,146,84264,1,2,1:0:0:0:
183,146,84590,5,0,1:0:0:0:
183,146,84916,1,2,1:0:0:0:
183,146,85079,1,0,1:0:0:0:
183,146,85242,1,0,1:0:0:0:
183,146,85568,1,2,1:0:0:0:
183,146,85731,1,2,1:0:0:0:
183,146,85894,1,0,1:0:0:0:
183,146,86220,1,2,1:0:0:0:
183,146,86383,1,0,1:0:0:0:
183,146,86546,1,0,1:0:0:0:
183,146,86709,1,0,1:0:0:0:
183,146,86872,1,2,1:0:0:0:
183,146,87198,5,4,1:0:0:0:
183,146,87361,1,2,1:0:0:0:
183,146,87525,1,2,1:0:0:0:
183,146,87688,1,4,1:0:0:0:
183,146,88014,1,2,1:0:0:0:
183,146,88177,1,4,1:0:0:0:
183,146,88503,5,6,1:0:0:0:
183,146,88666,1,0,1:0:0:0:
183,146,88829,1,0,1:0:0:0:
183,146,88992,1,6,1:0:0:0:
183,146,89318,1,0,1:0:0:0:
183,146,89481,1,6,1:0:0:0:
183,146,89807,5,4,1:0:0:0:
183,146,89970,1,2,1:0:0:0:
183,146,90133,1,2,1:0:0:0:
183,146,90296,1,4,1:0:0:0:
183,146,90785,1,4,1:0:0:0:
183,146,90948,1,0,0:0:0:0:
183,146,91111,5,6,1:0:0:0:
183,146,91275,1,0,1:0:0:0:
183,146,91438,1,0,1:0:0:0:
183,146,91601,1,2,1:0:0:0:
183,146,91927,1,0,1:0:0:0:
183,146,92090,1,2,1:0:0:0:
183,146,92253,1,0,1:0:0:0:
183,146,92416,5,6,1:0:0:0:
183,146,92742,1,0,1:0:0:0:
183,146,92905,1,6,1:0:0:0:
183,146,93231,1,2,1:0:0:0:
183,146,93394,1,4,1:0:0:0:
183,146,93720,1,0,1:0:0:0:
183,146,93883,1,6,1:0:0:0:
183,146,94209,1,2,1:0:0:0:
183,146,94372,1,4,1:0:0:0:
183,146,94698,1,0,1:0:0:0:
183,146,94861,1,4,0:0:0:0:
256,192,95025,12,0,97470,1:0:0:0:
