osu file format v14

[General]
AudioFilename: audio.mp3
AudioLeadIn: 0
PreviewTime: 70731
Countdown: 0
SampleSet: Normal
StackLeniency: 0.7
Mode: 1
LetterboxInBreaks: 0
WidescreenStoryboard: 1

[Editor]
Bookmarks: 16764,58503,71546
DistanceSpacing: 1.6
BeatDivisor: 8
GridSize: 32
TimelineZoom: 2.1

[Metadata]
Title:Good Morning [New] World! (TV Size)
TitleUnicode:Good Morning [New] World! (TV Size)
Artist:BURNOUT SYNDROMES
ArtistUnicode:BURNOUT SYNDROMES
Creator:Aurorance
Version:Diederich Olsen's Oni!
Source:Dr.STONE 龍水
Tags:jpop j-pop ドクターストーン dr. stone ohayou sekai anime japanese diederich olsen cynplytholowazy cynp-zy pop opening op rock jrock j-rock ドクターストーン おはよう世界 Kazuumi Kumagai
BeatmapID:3715597
BeatmapSetID:1810888

[Difficulty]
HPDrainRate:5.5
CircleSize:5
OverallDifficulty:5
ApproachRate:5
SliderMultiplier:1.4
SliderTickRate:1

[Events]
//Background and Video events
0,0,"drstone.jpg",0,0
Video,0,"output.mp4"
//Break Periods
//Storyboard Layer 0 (Background)
//Storyboard Layer 1 (Fail)
//Storyboard Layer 2 (Pass)
//Storyboard Layer 3 (Foreground)
//Storyboard Layer 4 (Overlay)
//Storyboard Sound Samples

[TimingPoints]
1112,326.086956521739,4,1,0,70,1,0
37592,-100,4,1,0,40,0,0
48027,-100,4,1,0,55,0,0
58462,-100,4,1,0,65,0,0
71505,-100,4,1,0,80,0,0
71546,326.086956521739,4,1,0,80,1,1
94861,-100,4,1,0,80,0,0
95351,-100,4,1,0,70,0,0
96003,-100,4,1,0,60,0,0
96655,-100,4,1,0,50,0,0
97144,-100,4,1,0,40,0,0
97470,-100,4,1,0,30,0,0

[HitObjects]
104,106,6329,5,4,1:0:0:0:
255,193,6492,1,2,1:0:0:0:
255,193,6655,1,2,1:0:0:0:
84,111,6818,1,0,1:0:0:0:
255,193,7144,1,0,1:0:0:0:
84,111,7307,1,0,1:0:0:0:
255,193,7633,1,2,1:0:0:0:
84,111,7796,1,0,1:0:0:0:
255,193,8122,1,0,1:0:0:0:
84,111,8285,1,0,1:0:0:0:
221,81,8448,1,2,0:0:0:0:
84,111,8611,1,0,1:0:0:0:
255,193,8775,1,2,1:0:0:0:
255,193,8856,1,2,1:0:0:0:
84,111,8938,1,4,1:0:0:0:
255,193,9264,1,0,1:0:0:0:
255,193,9427,1,0,1:0:0:0:
214,75,9753,1,0,1:0:0:0:
255,193,9916,1,0,1:0:0:0:
334,117,10242,1,2,1:0:0:0:
255,193,10405,1,0,1:0:0:0:
141,85,10568,1,2,0:0:0:0:
255,193,10731,1,2,1:0:0:0:
334,117,10894,1,0,1:0:0:0:
334,117,11057,1,2,1:0:0:0:
255,193,11220,1,0,1:0:0:0:
334,117,11383,1,2,1:0:0:0:
334,117,11465,1,2,1:0:0:0:
255,193,11546,1,4,1:0:0:0:
191,100,11872,1,2,1:0:0:0:
255,193,12035,1,0,1:0:0:0:
255,193,12361,1,0,1:0:0:0:
255,193,12525,1,0,1:0:0:0:
352,234,12851,1,2,1:0:0:0:
255,193,13014,1,0,1:0:0:0:
154,117,13177,1,2,0:0:0:0:
255,193,13340,1,0,1:0:0:0:
344,239,13503,1,0,1:0:0:0:
255,193,13666,1,2,1:0:0:0:
255,193,13829,1,0,1:0:0:0:
309,143,13992,1,2,1:0:0:0:
333,161,14073,1,2,1:0:0:0:
238,211,14155,1,0,1:0:0:0:
216,116,14481,1,0,1:0:0:0:
188,206,14644,1,0,1:0:0:0:
326,231,14970,1,2,1:0:0:0:
223,256,15133,1,0,1:0:0:0:
281,123,15459,1,2,1:0:0:0:
192,182,15622,1,0,1:0:0:0:
373,157,15785,1,2,0:0:0:0:
305,220,15948,1,2,1:0:0:0:
305,220,16030,1,2,1:0:0:0:
305,220,16111,1,0,1:0:0:0:
186,181,16275,1,2,1:0:0:0:
224,310,16438,1,0,1:0:0:0:
336,303,16601,1,0,1:0:0:0:
270,127,16764,1,6,1:0:0:0:
201,201,17090,1,0,1:0:0:0:
333,179,17253,1,2,1:0:0:0:
214,262,17416,1,0,1:0:0:0:
214,262,17579,1,0,1:0:0:0:
299,258,17742,1,2,1:0:0:0:
118,151,18068,1,0,1:0:0:0:
195,116,18231,1,2,1:0:0:0:
251,144,18394,1,2,1:0:0:0:
320,126,18557,1,0,1:0:0:0:
273,65,18720,1,2,1:0:0:0:
275,195,18883,1,0,1:0:0:0:
377,198,19046,1,2,1:0:0:0:
316,271,19209,1,2,1:0:0:0:
336,282,19291,1,0,1:0:0:0:
217,280,19372,1,2,1:0:0:0:
139,146,19698,1,0,1:0:0:0:
186,202,19861,1,2,1:0:0:0:
263,152,20025,1,0,1:0:0:0:
263,152,20188,1,2,1:0:0:0:
266,246,20351,1,2,1:0:0:0:
179,189,20677,1,0,1:0:0:0:
216,115,20840,1,2,1:0:0:0:
292,118,21003,1,0,1:0:0:0:
272,203,21166,1,0,1:0:0:0:
354,203,21329,1,2,1:0:0:0:
314,260,21492,1,2,1:0:0:0:
314,260,21573,1,2,1:0:0:0:
314,260,21655,1,2,1:0:0:0:
192,276,21818,1,0,1:0:0:0:
192,276,21900,1,0,1:0:0:0:
251,325,21981,1,2,1:0:0:0:
202,118,22307,1,2,1:0:0:0:
251,180,22470,1,0,1:0:0:0:
377,183,22796,1,0,1:0:0:0:
362,257,22959,1,0,1:0:0:0:
241,137,23285,1,2,1:0:0:0:
258,226,23448,1,0,1:0:0:0:
373,212,23775,1,2,1:0:0:0:
320,121,23938,1,2,1:0:0:0:
413,126,24101,1,0,1:0:0:0:
309,283,24264,1,2,1:0:0:0:
400,278,24427,1,0,1:0:0:0:
409,284,24508,1,0,1:0:0:0:
415,287,24590,1,0,1:0:0:0:
260,153,24916,1,2,1:0:0:0:
307,205,25079,1,0,1:0:0:0:
334,197,25242,1,0,1:0:0:0:
330,139,25405,1,2,1:0:0:0:
255,219,25568,1,0,1:0:0:0:
149,205,25894,1,0,1:0:0:0:
192,274,26057,1,0,1:0:0:0:
275,290,26220,1,2,1:0:0:0:
220,128,26383,1,0,1:0:0:0:
220,128,26465,1,0,1:0:0:0:
295,101,26546,1,2,1:0:0:0:
278,193,26709,1,2,1:0:0:0:
370,161,26872,1,0,1:0:0:0:
353,259,27035,1,0,1:0:0:0:
32,56,27198,1,6,1:0:0:0:
255,198,27525,1,0,1:0:0:0:
169,141,27688,1,2,1:0:0:0:
205,229,27851,1,0,1:0:0:0:
205,229,27932,1,0,1:0:0:0:
205,229,28014,1,0,1:0:0:0:
268,269,28177,1,2,1:0:0:0:
306,178,28503,1,0,1:0:0:0:
407,159,28666,1,2,1:0:0:0:
427,231,28829,1,2,1:0:0:0:
321,98,28992,1,0,1:0:0:0:
358,247,29155,1,2,1:0:0:0:
257,229,29318,1,0,1:0:0:0:
237,142,29481,1,0,1:0:0:0:
187,65,29644,1,2,1:0:0:0:
187,65,29726,1,2,1:0:0:0:
169,128,29807,1,0,1:0:0:0:
98,194,30133,1,2,1:0:0:0:
162,217,30296,1,2,1:0:0:0:
182,299,30459,1,0,1:0:0:0:
182,299,30541,1,0,1:0:0:0:
182,299,30622,1,0,1:0:0:0:
319,219,30785,1,2,1:0:0:0:
154,117,31111,1,2,1:0:0:0:
225,86,31275,1,2,1:0:0:0:
222,169,31438,1,0,1:0:0:0:
284,170,31601,1,0,1:0:0:0:
332,105,31764,1,2,1:0:0:0:
371,168,31927,1,0,1:0:0:0:
416,84,32090,1,2,1:0:0:0:
237,105,32253,1,0,1:0:0:0:
237,105,32334,1,0,1:0:0:0:
257,186,32416,1,2,1:0:0:0:
147,200,32742,1,0,1:0:0:0:
147,200,32905,1,0,1:0:0:0:
228,260,33231,1,2,1:0:0:0:
234,286,33394,1,0,1:0:0:0:
347,232,33720,1,0,1:0:0:0:
347,232,33883,1,0,1:0:0:0:
245,118,34209,1,2,1:0:0:0:
310,159,34372,1,0,1:0:0:0:
352,162,34535,1,0,1:0:0:0:
401,113,34698,1,2,1:0:0:0:
431,184,34861,1,0,1:0:0:0:
431,184,34943,1,0,1:0:0:0:
431,184,35025,1,0,1:0:0:0:
258,155,35351,1,0,1:0:0:0:
291,228,35514,1,2,1:0:0:0:
353,228,35677,1,0,1:0:0:0:
418,262,35840,1,0,1:0:0:0:
252,60,36003,1,2,1:0:0:0:
344,98,36166,1,2,1:0:0:0:
266,144,36329,1,0,1:0:0:0:
326,180,36492,1,2,1:0:0:0:
245,219,36818,1,0,1:0:0:0:
313,264,36981,1,2,1:0:0:0:
392,257,37144,1,2,1:0:0:0:
205,302,37307,1,0,1:0:0:0:
205,302,37389,1,0,1:0:0:0:
205,302,37470,1,0,1:0:0:0:
161,169,37552,1,0,0:0:0:0:
330,339,37633,1,6,1:0:0:0:
220,155,40242,1,0,1:0:0:0:
220,155,40405,1,2,1:0:0:0:
220,155,40568,1,0,1:0:0:0:
220,155,40731,1,2,1:0:0:0:
318,163,41057,1,2,1:0:0:0:
318,163,41220,1,0,1:0:0:0:
320,167,41383,1,2,1:0:0:0:
164,186,42198,1,2,1:0:0:0:
339,233,42851,1,2,1:0:0:0:
339,233,43014,1,0,1:0:0:0:
339,233,43177,1,0,1:0:0:0:
339,233,43340,1,2,1:0:0:0:
253,148,43666,1,0,1:0:0:0:
253,148,43829,1,0,1:0:0:0:
253,148,43992,1,2,1:0:0:0:
268,152,45459,1,2,1:0:0:0:
268,152,45622,1,2,1:0:0:0:
268,152,45785,1,0,1:0:0:0:
268,152,45948,1,0,1:0:0:0:
367,129,46275,1,2,1:0:0:0:
367,129,46438,1,0,1:0:0:0:
367,129,46601,1,0,1:0:0:0:
367,129,46764,1,2,1:0:0:0:
346,215,47253,1,2,1:0:0:0:
346,215,47334,1,2,1:0:0:0:
346,215,47416,1,2,1:0:0:0:
357,281,47579,1,0,1:0:0:0:
421,291,47742,1,0,1:0:0:0:
272,281,47905,1,0,1:0:0:0:
245,204,48068,1,6,1:0:0:0:
276,128,48394,1,0,1:0:0:0:
276,128,48557,1,0,1:0:0:0:
391,157,49046,1,0,1:0:0:0:
391,157,49209,1,2,1:0:0:0:
416,273,49372,1,0,1:0:0:0:
249,138,49698,1,2,1:0:0:0:
249,138,49861,1,2,1:0:0:0:
261,251,50188,1,2,1:0:0:0:
309,295,50351,1,0,1:0:0:0:
152,184,50677,1,0,1:0:0:0:
328,112,51003,1,2,1:0:0:0:
299,177,51166,1,0,1:0:0:0:
135,103,51655,1,0,1:0:0:0:
178,56,51818,1,2,1:0:0:0:
232,116,51981,1,2,1:0:0:0:
153,194,52307,1,0,1:0:0:0:
212,200,52470,1,0,1:0:0:0:
298,212,52633,1,2,1:0:0:0:
272,77,52959,1,2,1:0:0:0:
316,119,53122,1,2,1:0:0:0:
123,138,53204,1,2,0:0:0:0:
385,162,53285,1,0,1:0:0:0:
314,228,53611,1,2,1:0:0:0:
374,266,53775,1,0,1:0:0:0:
169,168,54264,1,0,1:0:0:0:
186,245,54427,1,0,1:0:0:0:
262,244,54590,1,2,1:0:0:0:
240,99,54916,1,2,1:0:0:0:
277,137,55079,1,0,1:0:0:0:
340,174,55242,1,0,1:0:0:0:
343,78,55405,1,2,1:0:0:0:
222,229,55731,1,0,1:0:0:0:
307,247,55894,1,2,1:0:0:0:
205,145,56220,1,0,1:0:0:0:
293,164,56383,1,2,1:0:0:0:
158,216,56872,1,2,1:0:0:0:
227,228,57035,1,2,1:0:0:0:
190,129,57117,1,2,0:0:0:0:
280,259,57198,1,0,1:0:0:0:
280,145,57525,1,0,1:0:0:0:
365,131,57688,1,2,1:0:0:0:
393,212,58177,1,2,1:0:0:0:
107,244,58503,1,4,1:0:0:0:
190,202,58829,1,2,1:0:0:0:
223,269,58992,1,0,1:0:0:0:
234,127,59155,1,0,1:0:0:0:
237,131,59236,1,0,1:0:0:0:
277,199,59318,1,2,1:0:0:0:
305,267,59481,1,0,1:0:0:0:
292,109,59807,1,2,1:0:0:0:
351,193,59970,1,0,1:0:0:0:
200,180,60296,1,2,1:0:0:0:
209,94,60459,1,0,1:0:0:0:
277,164,60622,1,0,1:0:0:0:
213,241,60785,1,0,1:0:0:0:
294,240,60948,1,2,1:0:0:0:
294,240,61030,1,2,1:0:0:0:
386,268,61111,1,0,1:0:0:0:
192,101,61438,1,2,1:0:0:0:
213,167,61601,1,0,1:0:0:0:
288,91,61927,1,2,1:0:0:0:
316,159,62090,1,0,1:0:0:0:
316,159,62253,1,0,1:0:0:0:
438,190,62334,1,0,1:0:0:0:
288,91,62416,1,2,1:0:0:0:
316,159,62579,1,0,1:0:0:0:
316,159,62742,1,0,1:0:0:0:
288,91,62905,1,2,1:0:0:0:
316,159,63068,1,0,1:0:0:0:
310,239,63313,1,0,1:0:0:0:
310,239,63394,1,0,1:0:0:0:
384,185,63557,1,2,1:0:0:0:
413,285,63720,1,0,1:0:0:0:
150,129,64046,1,2,1:0:0:0:
170,210,64209,1,0,1:0:0:0:
237,132,64535,1,2,1:0:0:0:
258,220,64698,1,0,1:0:0:0:
307,182,64861,1,0,1:0:0:0:
307,182,64943,1,0,1:0:0:0:
336,126,65025,1,2,1:0:0:0:
366,215,65188,1,0,1:0:0:0:
167,150,65514,1,2,1:0:0:0:
205,218,65677,1,0,1:0:0:0:
250,154,65840,1,2,1:0:0:0:
261,244,66003,1,0,1:0:0:0:
329,238,66166,1,0,1:0:0:0:
396,140,66247,1,0,1:0:0:0:
474,35,66329,1,6,1:0:0:0:
327,142,66655,1,0,1:0:0:0:
386,202,66818,1,0,1:0:0:0:
162,142,67144,1,2,1:0:0:0:
185,221,67307,1,0,1:0:0:0:
301,241,67470,1,0,1:0:0:0:
272,156,67633,1,2,1:0:0:0:
272,156,67715,1,2,1:0:0:0:
272,156,67796,1,2,1:0:0:0:
245,309,67959,1,0,1:0:0:0:
245,309,68041,1,0,1:0:0:0:
245,309,68122,1,0,1:0:0:0:
354,129,68285,1,2,1:0:0:0:
354,129,68367,1,2,1:0:0:0:
354,129,68448,1,0,1:0:0:0:
354,129,68530,1,0,1:0:0:0:
354,129,68611,1,2,1:0:0:0:
329,252,68775,1,0,1:0:0:0:
329,252,68856,1,0,1:0:0:0:
329,252,68938,1,6,1:0:0:0:
257,37,70894,5,6,1:0:0:0:
256,189,71546,1,0,1:0:0:0:
256,189,71709,1,2,1:0:0:0:
367,159,71872,1,2,1:0:0:0:
248,268,72035,1,0,1:0:0:0:
248,268,72117,1,0,1:0:0:0:
248,268,72198,1,2,1:0:0:0:
313,230,72361,1,0,1:0:0:0:
392,230,72525,1,0,1:0:0:0:
258,100,72688,1,2,1:0:0:0:
358,84,72769,1,2,1:0:0:0:
335,141,72851,1,0,1:0:0:0:
335,141,73014,1,0,1:0:0:0:
409,124,73177,1,2,1:0:0:0:
335,141,73340,1,2,1:0:0:0:
348,214,73503,1,2,1:0:0:0:
407,144,73666,1,0,1:0:0:0:
304,221,73829,1,2,1:0:0:0:
304,221,73910,1,2,1:0:0:0:
304,221,73992,1,0,1:0:0:0:
304,221,74073,1,0,1:0:0:0:
304,221,74155,1,2,1:0:0:0:
168,148,74481,1,0,1:0:0:0:
168,148,74563,1,0,1:0:0:0:
168,148,74644,1,0,1:0:0:0:
168,148,74807,1,2,1:0:0:0:
208,208,74970,1,0,1:0:0:0:
208,208,75133,1,0,1:0:0:0:
229,125,75296,1,2,1:0:0:0:
283,72,75459,1,2,1:0:0:0:
314,157,75622,1,2,1:0:0:0:
256,171,75785,1,0,1:0:0:0:
256,171,75948,1,0,1:0:0:0:
168,125,76111,1,2,1:0:0:0:
186,172,76275,1,0,1:0:0:0:
208,82,76438,1,2,1:0:0:0:
288,84,76601,1,0,1:0:0:0:
288,214,76682,1,0,1:0:0:0:
288,84,76764,1,2,1:0:0:0:
366,138,77090,1,0,1:0:0:0:
387,212,77253,1,2,1:0:0:0:
387,212,77334,1,2,1:0:0:0:
387,212,77416,1,0,1:0:0:0:
324,261,77579,1,0,1:0:0:0:
207,216,77742,1,2,1:0:0:0:
154,132,77905,1,2,1:0:0:0:
299,134,78068,1,0,1:0:0:0:
373,118,78231,1,2,1:0:0:0:
419,180,78394,1,2,1:0:0:0:
366,236,78557,1,0,1:0:0:0:
196,187,78720,1,2,1:0:0:0:
288,205,78883,1,0,1:0:0:0:
184,258,79046,1,2,1:0:0:0:
184,258,79128,1,2,1:0:0:0:
233,264,79209,1,0,1:0:0:0:
245,269,79291,1,2,1:0:0:0:
261,280,79372,1,0,1:0:0:0:
309,73,79698,1,2,1:0:0:0:
344,134,79861,1,0,1:0:0:0:
364,143,80025,1,0,1:0:0:0:
383,145,80188,1,0,1:0:0:0:
344,192,80351,1,2,1:0:0:0:
414,219,80514,1,2,1:0:0:0:
346,274,80677,1,4,1:0:0:0:
256,184,80840,1,2,1:0:0:0:
256,184,80921,1,2,1:0:0:0:
256,184,81003,1,2,1:0:0:0:
247,276,81166,1,4,1:0:0:0:
172,92,81492,1,4,1:0:0:0:
277,106,81655,1,2,1:0:0:0:
277,106,81736,1,2,1:0:0:0:
314,114,81818,1,0,1:0:0:0:
314,114,81900,1,0,1:0:0:0:
314,114,81981,1,0,1:0:0:0:
159,110,82307,1,2,1:0:0:0:
191,162,82470,1,0,1:0:0:0:
245,177,82633,1,0,1:0:0:0:
317,194,82796,1,0,1:0:0:0:
317,194,82878,1,0,1:0:0:0:
317,194,82959,1,2,1:0:0:0:
384,173,83122,1,2,1:0:0:0:
455,224,83285,1,0,1:0:0:0:
149,184,83611,1,2,1:0:0:0:
149,184,83775,1,2,1:0:0:0:
217,253,83938,1,0,1:0:0:0:
233,166,84101,1,0,1:0:0:0:
233,166,84182,1,2,1:0:0:0:
233,166,84264,1,2,1:0:0:0:
233,166,84427,1,2,1:0:0:0:
233,166,84590,1,0,1:0:0:0:
142,80,84916,1,2,1:0:0:0:
146,145,85079,1,0,1:0:0:0:
195,114,85242,1,0,1:0:0:0:
279,85,85405,1,2,1:0:0:0:
293,117,85486,1,0,1:0:0:0:
279,85,85568,1,2,1:0:0:0:
357,84,85731,1,2,1:0:0:0:
387,155,85894,1,0,1:0:0:0:
285,163,86220,1,2,1:0:0:0:
329,239,86383,1,0,1:0:0:0:
405,234,86465,1,0,1:0:0:0:
405,234,86546,1,0,1:0:0:0:
477,241,86709,1,0,1:0:0:0:
342,308,86872,1,2,1:0:0:0:
426,315,87035,1,2,1:0:0:0:
262,178,87198,1,4,1:0:0:0:
351,151,87361,1,2,1:0:0:0:
406,162,87525,1,2,1:0:0:0:
255,249,87688,1,4,1:1:0:0:
338,227,87851,1,2,1:0:0:0:
395,245,88014,1,2,1:0:0:0:
360,302,88177,1,4,1:0:0:0:
218,104,88503,1,6,1:0:0:0:
271,153,88666,1,0,1:0:0:0:
345,141,88829,1,0,1:0:0:0:
203,194,88992,1,6,1:1:0:0:
273,239,89155,1,0,1:0:0:0:
363,228,89318,1,0,1:0:0:0:
202,288,89481,1,6,1:0:0:0:
262,178,89807,1,4,1:0:0:0:
351,151,89970,1,2,1:0:0:0:
406,162,90133,1,2,1:0:0:0:
255,249,90296,1,4,1:1:0:0:
338,227,90459,1,2,1:0:0:0:
395,245,90622,1,2,1:0:0:0:
360,302,90785,1,4,1:0:0:0:
85,77,91111,1,6,1:0:0:0:
156,152,91275,1,0,1:0:0:0:
224,139,91438,1,0,1:0:0:0:
314,94,91601,1,2,1:0:0:0:
314,94,91682,1,2,1:0:0:0:
314,94,91764,1,0,1:0:0:0:
295,197,91845,1,0,0:0:0:0:
358,181,91927,1,0,1:0:0:0:
444,118,92090,1,2,1:0:0:0:
473,184,92253,1,0,1:0:0:0:
409,237,92416,1,6,1:0:0:0:
233,280,92579,1,0,1:0:0:0:
233,280,92660,1,0,1:0:0:0:
233,280,92742,1,0,1:0:0:0:
172,134,92905,1,6,1:0:0:0:
272,78,93150,1,2,1:0:0:0:
272,78,93231,1,2,1:0:0:0:
353,150,93394,1,4,1:0:0:0:
267,200,93639,1,0,1:0:0:0:
267,200,93720,1,0,1:0:0:0:
162,109,93883,1,6,1:0:0:0:
145,205,94128,1,2,1:0:0:0:
145,205,94209,1,2,1:0:0:0:
183,270,94372,1,4,1:0:0:0:
349,261,94698,1,0,1:0:0:0:
265,169,94861,1,4,0:0:0:0:
256,192,95025,12,0,97470,1:0:0:0:
