osu file format v14

[General]
AudioFilename: audio.mp3
AudioLeadIn: 0
PreviewTime: 70731
Countdown: 0
SampleSet: Normal
StackLeniency: 0.7
Mode: 1
LetterboxInBreaks: 0
WidescreenStoryboard: 1

[Editor]
Bookmarks: 16764,58503,71546
DistanceSpacing: 1.7
BeatDivisor: 4
GridSize: 32
TimelineZoom: 1.5

[Metadata]
Title:Good Morning [New] World! (TV Size)
TitleUnicode:Good Morning [New] World! (TV Size)
Artist:BURNOUT SYNDROMES
ArtistUnicode:BURNOUT SYNDROMES
Creator:Aurorance
Version:Cynp-zy's Futsuu!
Source:Dr.STONE 龍水
Tags:jpop j-pop ドクターストーン dr. stone ohayou sekai anime japanese diederich olsen cynplytholowazy cynp-zy pop opening op rock jrock j-rock ドクターストーン おはよう世界 Kazuumi Kumagai
BeatmapID:3715672
BeatmapSetID:1810888

[Difficulty]
HPDrainRate:7
CircleSize:10
OverallDifficulty:3.5
ApproachRate:10
SliderMultiplier:1.4
SliderTickRate:1

[Events]
//Background and Video events
0,0,"drstone.jpg",0,0
Video,0,"output.mp4"
//Break Periods
//Storyboard Layer 0 (Background)
//Storyboard Layer 1 (Fail)
//Storyboard Layer 2 (Pass)
//Storyboard Layer 3 (Foreground)
//Storyboard Layer 4 (Overlay)
//Storyboard Sound Samples

[TimingPoints]
1112,326.086956521739,4,1,0,70,1,0
37592,-100,4,1,0,40,0,0
48027,-100,4,1,0,55,0,0
58462,-100,4,1,0,65,0,0
71505,-100,4,1,0,80,0,0
71546,326.086956521739,4,1,0,80,1,1
94861,-100,4,1,0,80,0,0
95351,-100,4,1,0,70,0,0
96003,-100,4,1,0,60,0,0
96655,-100,4,1,0,50,0,0
97144,-100,4,1,0,40,0,0
97470,-100,4,1,0,30,0,0

[HitObjects]
256,192,6329,5,4,1:0:0:0:
256,192,6818,1,0,1:0:0:0:
256,192,7144,1,0,1:0:0:0:
256,192,7307,1,0,1:0:0:0:
256,192,7633,1,2,1:0:0:0:
256,192,7796,1,0,1:0:0:0:
256,192,8285,1,2,1:0:0:0:
256,192,8611,1,0,1:0:0:0:
256,192,8938,1,4,1:0:0:0:
256,192,9427,1,0,1:0:0:0:
256,192,9753,1,0,1:0:0:0:
256,192,9916,1,0,1:0:0:0:
256,192,10242,1,2,1:0:0:0:
256,192,10405,1,0,1:0:0:0:
256,192,10894,1,0,1:0:0:0:
256,192,11546,1,4,1:0:0:0:
256,192,12035,1,0,1:0:0:0:
256,192,12361,1,0,1:0:0:0:
256,192,12525,1,0,1:0:0:0:
256,192,12851,1,2,1:0:0:0:
256,192,13014,1,0,1:0:0:0:
256,192,13503,1,0,1:0:0:0:
256,192,13829,1,0,1:0:0:0:
256,192,14155,1,0,1:0:0:0:
256,192,14481,1,0,1:0:0:0:
256,192,14644,1,0,1:0:0:0:
256,192,15133,1,0,1:0:0:0:
256,192,15459,1,2,1:0:0:0:
256,192,16111,1,0,1:0:0:0:
256,192,16275,1,2,1:0:0:0:
256,192,16438,1,0,1:0:0:0:
256,192,16601,1,0,1:0:0:0:
256,192,16764,1,6,1:0:0:0:
256,192,17253,1,2,1:0:0:0:
256,192,17742,1,2,1:0:0:0:
256,192,18068,1,0,1:0:0:0:
256,192,18231,1,2,1:0:0:0:
256,192,18720,1,2,1:0:0:0:
256,192,19046,1,0,1:0:0:0:
256,192,19372,1,2,1:0:0:0:
256,192,19861,1,2,1:0:0:0:
256,192,20351,1,2,1:0:0:0:
256,192,20677,1,0,1:0:0:0:
256,192,20840,1,2,1:0:0:0:
256,192,21329,1,2,1:0:0:0:
256,192,21981,1,2,1:0:0:0:
256,192,22470,1,0,1:0:0:0:
256,192,22959,1,0,1:0:0:0:
256,192,23448,1,0,1:0:0:0:
256,192,23938,1,2,1:0:0:0:
256,192,24264,1,2,1:0:0:0:
256,192,24590,1,0,1:0:0:0:
256,192,25079,1,0,1:0:0:0:
256,192,25568,1,0,1:0:0:0:
256,192,25894,1,0,1:0:0:0:
256,192,26057,1,0,1:0:0:0:
256,192,26546,1,2,1:0:0:0:
256,192,26709,1,2,1:0:0:0:
256,192,26872,1,0,1:0:0:0:
256,192,27198,1,6,1:0:0:0:
256,192,27851,1,0,1:0:0:0:
256,192,28177,1,2,1:0:0:0:
256,192,28340,1,0,0:0:0:0:
256,192,28666,1,2,1:0:0:0:
256,192,29155,1,2,1:0:0:0:
256,192,29481,1,0,1:0:0:0:
256,192,29644,1,2,1:0:0:0:
256,192,29807,1,0,1:0:0:0:
256,192,30459,1,0,1:0:0:0:
256,192,30785,1,2,1:0:0:0:
256,192,30948,1,0,0:0:0:0:
256,192,31275,1,2,1:0:0:0:
256,192,31764,1,2,1:0:0:0:
256,192,32090,1,2,1:0:0:0:
256,192,32416,1,2,1:0:0:0:
256,192,32905,1,0,1:0:0:0:
256,192,33394,1,0,1:0:0:0:
256,192,33557,1,0,0:0:0:0:
256,192,33883,1,0,1:0:0:0:
256,192,34372,1,0,1:0:0:0:
256,192,34698,1,2,1:0:0:0:
256,192,35025,1,0,1:0:0:0:
256,192,35351,1,0,1:0:0:0:
256,192,35514,1,2,1:0:0:0:
256,192,35677,1,0,1:0:0:0:
256,192,36003,1,2,1:0:0:0:
256,192,36329,1,0,1:0:0:0:
256,192,36981,1,2,1:0:0:0:
256,192,37144,1,2,1:0:0:0:
256,192,37307,1,0,1:0:0:0:
256,192,37633,1,6,1:0:0:0:
256,192,40242,1,0,1:0:0:0:
256,192,42198,1,2,1:0:0:0:
256,192,42851,1,2,1:0:0:0:
327,121,45459,1,0,0:0:0:0:
256,192,47416,1,2,1:0:0:0:
256,192,47579,1,0,1:0:0:0:
256,192,47742,1,0,1:0:0:0:
256,192,48068,1,6,1:0:0:0:
256,192,48557,1,0,1:0:0:0:
256,192,49209,1,2,1:0:0:0:
256,192,50677,1,0,1:0:0:0:
256,192,51166,1,0,1:0:0:0:
256,192,51818,1,2,1:0:0:0:
256,192,53285,1,0,1:0:0:0:
256,192,53775,1,0,1:0:0:0:
256,192,54427,1,0,1:0:0:0:
256,192,55894,1,2,1:0:0:0:
256,192,56383,1,2,1:0:0:0:
256,192,57035,1,2,1:0:0:0:
256,192,57198,1,0,1:0:0:0:
256,192,58177,1,2,1:0:0:0:
256,192,58503,1,4,1:0:0:0:
256,192,58992,1,0,1:0:0:0:
256,192,59481,1,0,1:0:0:0:
256,192,59807,1,2,1:0:0:0:
256,192,59970,1,0,1:0:0:0:
256,192,60459,1,0,1:0:0:0:
256,192,60785,1,0,1:0:0:0:
256,192,61111,1,0,1:0:0:0:
256,192,61601,1,0,1:0:0:0:
256,192,62090,1,0,1:0:0:0:
256,192,62416,1,2,1:0:0:0:
256,192,62579,1,0,1:0:0:0:
256,192,63068,1,0,1:0:0:0:
256,192,63720,1,0,1:0:0:0:
256,192,64209,1,0,1:0:0:0:
256,192,64698,1,0,1:0:0:0:
256,192,65025,1,2,1:0:0:0:
256,192,65188,1,0,1:0:0:0:
256,192,65677,1,0,1:0:0:0:
256,192,66003,1,0,1:0:0:0:
256,192,66329,1,6,1:0:0:0:
256,192,66981,1,0,0:0:0:0:
256,192,67307,1,0,1:0:0:0:
256,192,67633,1,2,1:0:0:0:
256,192,67959,1,0,1:0:0:0:
256,192,68285,1,2,1:0:0:0:
256,192,68448,1,0,1:0:0:0:
256,192,68611,1,2,1:0:0:0:
256,192,68775,1,0,1:0:0:0:
256,192,68938,1,6,1:0:0:0:
256,192,71546,1,0,1:0:0:0:
256,192,72198,1,2,1:0:0:0:
256,192,72525,1,0,1:0:0:0:
256,192,72688,1,2,1:0:0:0:
256,192,72851,1,0,1:0:0:0:
256,192,73177,1,2,1:0:0:0:
256,192,73503,1,2,1:0:0:0:
256,192,73829,1,2,1:0:0:0:
256,192,74155,1,2,1:0:0:0:
256,192,74481,1,0,1:0:0:0:
256,192,74644,1,0,1:0:0:0:
256,192,74807,1,2,1:0:0:0:
256,192,75133,1,0,1:0:0:0:
256,192,75459,1,2,1:0:0:0:
256,192,75622,1,2,1:0:0:0:
256,192,75785,1,0,1:0:0:0:
256,192,76111,1,2,1:0:0:0:
256,192,76438,1,2,1:0:0:0:
256,192,76601,1,0,1:0:0:0:
256,192,76764,1,2,1:0:0:0:
256,192,77416,1,0,1:0:0:0:
256,192,77742,1,2,1:0:0:0:
256,192,77905,1,2,1:0:0:0:
256,192,78068,1,0,1:0:0:0:
256,192,78231,1,2,1:0:0:0:
256,192,78394,1,2,1:0:0:0:
256,192,78720,1,2,1:0:0:0:
256,192,79046,1,2,1:0:0:0:
256,192,79372,1,0,1:0:0:0:
256,192,79698,1,2,1:0:0:0:
256,192,79861,1,0,1:0:0:0:
256,192,80025,1,0,1:0:0:0:
256,192,80351,1,2,1:0:0:0:
256,192,80677,1,4,1:0:0:0:
256,192,81003,1,2,1:0:0:0:
256,192,81166,1,4,1:0:0:0:
256,192,81492,1,4,1:0:0:0:
256,192,81981,1,0,1:0:0:0:
256,192,82633,1,0,1:0:0:0:
256,192,82959,1,2,1:0:0:0:
256,192,83285,1,0,1:0:0:0:
256,192,83611,1,2,1:0:0:0:
256,192,83775,1,2,1:0:0:0:
256,192,83938,1,0,1:0:0:0:
256,192,84264,1,2,1:0:0:0:
256,192,84590,1,0,1:0:0:0:
256,192,84916,1,2,1:0:0:0:
256,192,85079,1,0,1:0:0:0:
256,192,85568,1,2,1:0:0:0:
256,192,85894,1,0,1:0:0:0:
256,192,86220,1,2,1:0:0:0:
256,192,86872,1,2,1:0:0:0:
256,192,87198,1,4,1:0:0:0:
256,192,87688,1,0,1:0:0:0:
256,192,88177,1,4,1:0:0:0:
256,192,88503,1,6,1:0:0:0:
256,192,88992,1,2,1:0:0:0:
256,192,89481,1,6,1:0:0:0:
256,192,89807,1,4,1:0:0:0:
256,192,90296,1,0,1:0:0:0:
256,192,90785,1,4,1:0:0:0:
256,192,91111,1,6,1:0:0:0:
256,192,91764,1,0,1:0:0:0:
256,192,91927,1,0,1:0:0:0:
256,192,92090,1,2,1:0:0:0:
256,192,92253,1,0,1:0:0:0:
256,192,92416,1,6,1:0:0:0:
256,192,92905,1,6,1:0:0:0:
256,192,93394,1,4,1:0:0:0:
256,192,93883,1,6,1:0:0:0:
256,192,94372,1,4,1:0:0:0:
256,192,94861,1,4,0:0:0:0:
256,192,95025,12,0,97470,0:0:0:0:
