osu file format v14

[General]
AudioFilename: audio.mp3
AudioLeadIn: 0
PreviewTime: 45837
Countdown: 0
SampleSet: Soft
StackLeniency: 0.2
Mode: 0
LetterboxInBreaks: 0
WidescreenStoryboard: 0

[Editor]
DistanceSpacing: 1.5
BeatDivisor: 4
GridSize: 32
TimelineZoom: 1.3

[Metadata]
Title:Ginsekai (TV Size)
TitleUnicode:銀世界 (TV Size)
Artist:BURNOUT SYNDROMES
ArtistUnicode:BURNOUT SYNDROMES
Creator:KantoKun
Version:Silver World
Source:ましろのおと
Tags:Mashiro No Oto Those Snow White Notes Anime OP OP2 2nd OPENING Japanese Jrock j-rock rock Male Vocal [_Lost_] conner c_o_n_n_e_r Sarawatlism
BeatmapID:3036324
BeatmapSetID:1480136

[Difficulty]
HPDrainRate:7
CircleSize:4
OverallDifficulty:8
ApproachRate:9
SliderMultiplier:1.7
SliderTickRate:1

[Events]
//Background and Video events
0,0,"BG.jpeg",0,0
Video,150,"VD.mp4"
//Break Periods
//Storyboard Layer 0 (Background)
//Storyboard Layer 1 (Fail)
//Storyboard Layer 2 (Pass)
//Storyboard Layer 3 (Foreground)
//Storyboard Layer 4 (Overlay)
//Storyboard Sound Samples

[TimingPoints]
1897,326.086956521739,4,2,1,80,1,0
2223,-133.333333333333,4,2,1,60,0,0
4505,-100,4,2,1,80,0,0
4831,-133.333333333333,4,2,1,60,0,0
5810,-100,4,2,1,80,0,0
6136,-133.333333333333,4,2,1,60,0,0
6462,-100,4,2,1,80,0,0
6625,-100,4,2,1,60,0,0
7114,-100,4,2,1,80,0,0
7440,-133.333333333333,4,2,1,60,0,0
9723,-133.333333333333,4,2,1,50,0,0
10049,-133.333333333333,4,2,1,60,0,0
10375,-133.333333333333,4,2,1,70,0,0
10701,-133.333333333333,4,2,1,80,0,0
11027,-133.333333333333,4,2,1,60,0,0
11924,-133.333333333333,4,2,1,5,0,0
12005,-83.3333333333333,4,2,1,80,0,0
12331,-100,4,2,1,80,0,1
22766,-100,4,2,1,80,0,0
23092,-133.333333333333,4,2,1,60,0,0
25375,-100,4,2,1,80,0,0
25701,-133.333333333333,4,2,1,60,0,0
26679,-100,4,2,1,80,0,0
27005,-133.333333333333,4,2,1,60,0,0
27331,-100,4,2,1,80,0,0
27657,-133.333333333333,4,2,1,60,0,0
27983,-100,4,2,1,80,0,0
28310,-133.333333333333,4,2,1,60,0,0
30592,-100,4,2,1,80,0,0
30918,-133.333333333333,4,2,1,60,0,0
31244,-100,4,2,1,80,0,0
31570,-133.333333333333,4,2,1,60,0,0
31896,-100,4,2,1,80,0,0
44940,-142.857142857143,4,2,1,80,0,0
45185,-142.857142857143,4,2,1,5,0,0
45266,-142.857142857143,4,2,1,80,0,0
45511,-142.857142857143,4,2,1,5,0,0
45592,-142.857142857143,4,2,1,80,0,0
45918,-200,4,2,1,50,0,0
46163,-200,4,2,1,5,0,0
46244,-90.9090909090909,4,2,1,80,0,1
67114,-133.333333333333,4,2,1,50,0,0
73636,-100,4,2,1,80,0,0
78853,-100,4,2,1,80,0,0
79179,-133.333333333333,4,2,1,60,0,0
81462,-100,4,2,1,80,0,0
81788,-133.333333333333,4,2,1,60,0,0
82766,-100,4,2,1,80,0,0
83092,-133.333333333333,4,2,1,60,0,0
84070,-100,4,2,1,80,0,0
84396,-133.333333333333,4,2,1,60,0,0
86842,-133.333333333333,4,2,1,50,0,0
87005,-133.333333333333,4,2,1,60,0,0
87331,-133.333333333333,4,2,1,70,0,0
87657,-133.333333333333,4,2,1,80,0,0
87983,-166.666666666667,4,2,1,70,0,0

[Colours]
Combo1 : 244,72,72
Combo2 : 47,131,234
Combo3 : 252,177,67
Combo4 : 201,218,224

[HitObjects]
231,72,1897,5,0,1:0:0:0:
258,274,2060,1,0,1:0:0:0:
368,178,2223,6,0,P|335:173|286:164,1,63.7500024318696,0|2,3:0|0:0,0:0:0:0:
102,151,2549,2,0,P|135:146|184:137,1,63.7500024318696,0|2,3:0|0:0,0:0:0:0:
285,255,2875,1,0,3:0:0:0:
251,99,3038,1,2,0:0:0:0:
147,221,3201,6,0,P|180:216|229:207,1,63.7500024318696,0|2,3:0|0:0,0:0:0:0:
339,326,3527,2,0,P|367:284|352:191,1,127.500004863739,2|8,3:2|0:0,0:0:0:0:
299,134,4016,1,0,1:0:0:0:
299,134,4098,1,8,0:0:0:0:
299,134,4179,2,0,P|304:102|309:71,1,63.7500024318696,8|0,0:0|0:0,0:0:0:0:
285,255,4505,5,0,1:0:0:0:
220,79,4668,1,0,1:0:0:0:
106,220,4831,6,0,P|139:217|188:206,1,63.7500024318696,0|2,3:0|0:0,0:0:0:0:
348,263,5157,2,0,P|316:257|284:254,1,63.7500024318696,0|2,3:0|0:0,0:0:0:0:
186,185,5483,1,0,3:0:0:0:
257,273,5646,1,2,0:0:0:0:
321,66,5810,5,0,1:0:0:0:
169,211,5973,1,0,1:0:0:0:
388,134,6136,6,0,P|421:139|451:142,1,63.7500024318696,0|2,3:0|0:0,0:0:0:0:
257,273,6462,6,0,P|225:276|165:287,1,85,0|0,1:0|1:0,0:0:0:0:
97,306,6706,1,8,0:0:0:0:
97,306,6788,1,8,0:0:0:0:
438,233,7114,5,0,1:0:0:0:
252,181,7277,1,0,1:0:0:0:
347,359,7440,6,0,P|352:327|355:295,1,63.7500024318696,0|2,3:0|0:0,0:0:0:0:
341,211,7766,2,0,P|335:179|332:147,1,63.7500024318696,0|2,3:0|0:0,0:0:0:0:
351,62,8092,1,0,3:0:0:0:
252,181,8255,1,2,0:0:0:0:
412,149,8418,5,0,3:0:0:0:
267,95,8581,1,2,0:0:0:0:
426,171,8744,2,0,P|474:162|500:158,1,63.7500024318696,0|2,3:0|0:0,0:0:0:0:
343,268,9070,6,0,P|374:273|405:279,1,63.7500024318696,8|0,0:0|1:0,0:0:0:0:
481,306,9315,1,8,0:0:0:0:
481,306,9396,1,8,0:0:0:0:
308,367,9560,1,0,0:0:0:0:
344,180,9723,6,0,P|338:148|332:117,1,63.7500024318696,8|8,3:2|0:0,0:0:0:0:
270,53,9967,1,8,0:0:0:0:
239,64,10049,2,0,L|231:101,3,31.8750012159348,8|0|8|8,3:2|0:0|0:0|0:0,0:0:0:0:
160,155,10375,1,8,3:2:0:0:
128,168,10456,1,8,0:0:0:0:
91,169,10538,1,8,0:0:0:0:
58,159,10619,1,8,0:0:0:0:
34,136,10701,2,0,L|27:104,3,31.8750012159348,8|8|8|8,3:2|0:0|0:0|0:0,0:0:0:0:
85,31,11027,5,2,0:0:0:0:
85,31,11353,1,2,0:0:0:0:
34,136,11516,1,0,0:0:0:0:
151,117,11679,2,0,L|254:126,1,95.6250036478044,2|0,0:0|0:0,0:0:0:0:
293,131,12005,6,0,P|187:139|139:104,1,152.999995330811,8|0,0:1|0:0,0:0:0:0:
106,45,12331,6,0,L|51:55,1,42.5,4|2,3:2|0:0,0:0:0:0:
34,134,12494,1,2,0:0:0:0:
34,134,12576,1,2,0:0:0:0:
34,134,12657,2,0,P|77:130|125:118,1,85,8|2,0:0|0:0,0:0:0:0:
244,68,12983,6,0,L|299:78,1,42.5,2|2,3:2|0:0,0:0:0:0:
316,157,13146,1,2,3:2:0:0:
316,157,13228,1,2,0:0:0:0:
316,157,13309,2,0,P|273:153|225:141,1,85,8|2,0:0|0:0,0:0:0:0:
107,223,13636,5,2,3:2:0:0:
95,257,13717,1,2,0:0:0:0:
93,293,13799,1,2,3:2:0:0:
103,328,13880,1,2,0:0:0:0:
121,357,13962,2,0,P|169:352|216:342,1,85,10|2,0:0|0:0,0:0:0:0:
394,220,14288,5,0,3:0:0:0:
293,365,14451,1,2,3:2:0:0:
251,197,14614,1,10,0:0:0:0:
382,327,14777,1,0,0:0:0:0:
424,136,14940,6,0,L|369:129,1,42.5,2|2,3:2|0:0,0:0:0:0:
394,220,15103,1,2,0:0:0:0:
394,220,15184,1,2,0:0:0:0:
394,220,15266,2,0,P|442:215|489:205,1,85,10|2,0:0|0:0,0:0:0:0:
297,100,15592,6,0,L|290:155,1,42.5,2|2,3:2|0:0,0:0:0:0:
381,130,15755,1,2,3:2:0:0:
381,130,15837,1,2,0:0:0:0:
381,130,15918,2,0,P|376:82|366:35,1,85,10|2,0:0|0:0,0:0:0:0:
207,121,16244,6,0,P|209:165|222:216,1,85,2|0,3:2|3:0,0:0:0:0:
357,304,16570,2,0,P|318:283|267:269,1,85,10|0,0:0|0:0,0:0:0:0:
116,322,16896,2,0,P|153:314|203:282,1,85,2|0,3:2|3:0,0:0:0:0:
123,210,17223,1,10,0:0:0:0:
252,356,17386,1,0,0:0:0:0:
306,173,17549,6,0,L|314:121,1,42.5,4|2,3:2|0:0,0:0:0:0:
238,47,17712,1,2,0:0:0:0:
238,47,17793,1,2,0:0:0:0:
238,47,17875,2,0,P|233:93|227:139,1,85,10|2,0:0|0:0,0:0:0:0:
160,257,18201,6,0,L|152:205,1,42.5,2|2,3:2|0:0,0:0:0:0:
228,131,18364,1,2,3:2:0:0:
228,131,18445,1,2,0:0:0:0:
228,131,18527,2,0,P|233:177|239:223,1,85,10|2,0:0|0:0,0:0:0:0:
305,341,18853,6,0,L|313:289,1,42.5,2|2,3:2|0:0,0:0:0:0:
237,215,19017,1,2,3:2:0:0:
237,215,19098,1,2,0:0:0:0:
237,215,19179,2,0,P|232:261|226:307,1,85,10|2,0:0|0:0,0:0:0:0:
396,339,19505,5,0,3:0:0:0:
328,164,19668,1,2,3:2:0:0:
305,341,19831,1,8,0:0:0:0:
444,228,19994,1,2,0:0:0:0:
358,77,20157,6,0,P|315:82|273:86,1,85,0|2,3:0|0:0,0:0:0:0:
182,186,20483,1,8,0:0:0:0:
256,70,20646,1,2,0:0:0:0:
276,239,20810,5,0,3:0:0:0:
240,52,20973,1,2,3:2:0:0:
104,177,21136,2,0,P|61:172|19:167,1,85,10|0,0:0|0:0,0:0:0:0:
136,301,21462,5,2,3:2:0:0:
136,301,21543,1,2,0:0:0:0:
136,301,21625,1,2,3:2:0:0:
189,125,21788,1,10,0:0:0:0:
44,256,21951,1,2,0:0:0:0:
215,354,22114,2,0,P|258:349|300:344,1,85,4|0,0:3|1:0,0:0:0:0:
381,336,22358,1,8,0:0:0:0:
381,336,22440,1,8,0:0:0:0:
228,259,22603,1,4,0:3:0:0:
364,162,22766,5,0,1:0:0:0:
297,311,22929,1,0,1:0:0:0:
258,123,23092,6,0,P|249:91|242:59,1,63.7500024318696,0|2,3:0|0:0,0:0:0:0:
158,221,23418,2,0,P|151:252|142:282,1,63.7500024318696,0|2,3:0|0:0,0:0:0:0:
324,217,23744,2,0,P|355:210|385:201,1,63.7500024318696,0|2,3:0|0:0,0:0:0:0:
253,296,24070,5,0,3:0:0:0:
306,125,24233,1,2,0:0:0:0:
158,221,24396,2,0,B|79:229|107:201|29:206,1,127.500004863739,2|0,3:2|3:0,0:0:0:0:
37,306,24886,1,2,0:0:0:0:
117,369,25049,2,0,P|124:338|133:308,1,63.7500024318696,0|2,3:0|0:0,0:0:0:0:
221,297,25375,5,0,1:0:0:0:
131,134,25538,1,0,1:0:0:0:
278,224,25701,6,0,P|321:217|351:215,1,63.7500024318696,0|2,3:0|0:0,0:0:0:0:
427,327,26027,2,0,P|395:323|363:318,1,63.7500024318696,0|2,3:0|0:0,0:0:0:0:
210,325,26353,1,0,3:0:0:0:
271,200,26516,1,2,0:0:0:0:
364,319,26679,5,0,1:0:0:0:
264,176,26842,1,0,1:0:0:0:
431,238,27005,2,0,P|480:230|506:226,1,63.7500024318696,0|2,3:0|0:0,0:0:0:0:
276,262,27331,5,0,1:0:0:0:
417,152,27494,1,0,1:0:0:0:
264,176,27657,2,0,P|215:168|189:164,1,63.7500024318696,0|2,3:0|0:0,0:0:0:0:
323,76,27983,5,0,1:0:0:0:
276,262,28146,1,0,1:0:0:0:
176,91,28310,6,0,P|127:83|101:79,1,63.7500024318696,0|2,3:0|0:0,0:0:0:0:
279,191,28636,2,0,P|328:183|354:179,1,63.7500024318696,0|2,3:0|0:0,0:0:0:0:
158,283,28962,2,0,P|109:275|83:271,1,63.7500024318696,0|2,3:0|0:0,0:0:0:0:
39,354,29288,5,0,3:0:0:0:
154,259,29451,1,2,0:0:0:0:
268,345,29614,2,0,P|340:354|388:313,1,127.500004863739,2|0,3:2|3:0,0:0:0:0:
452,207,30103,1,2,0:0:0:0:
303,245,30266,1,0,3:0:0:0:
352,93,30429,1,2,0:0:0:0:
395,292,30592,5,0,1:0:0:0:
284,161,30755,1,0,1:0:0:0:
445,126,30918,2,0,P|483:130|515:133,1,63.7500024318696,0|2,3:0|0:0,0:0:0:0:
303,245,31244,5,0,1:0:0:0:
425,115,31407,1,0,1:0:0:0:
265,71,31570,2,0,P|227:75|195:78,1,63.7500024318696,0|2,3:0|0:0,0:0:0:0:
37,214,31896,6,0,P|94:216|135:194,1,85,0|0,1:0|1:0,0:0:0:0:
195,252,32141,1,8,0:0:0:0:
195,252,32223,2,0,P|201:210|208:158,1,85,8|8,0:0|0:0,0:0:0:0:
295,151,32467,1,8,0:0:0:0:
289,124,32549,1,8,0:0:0:0:
168,59,32712,1,0,3:0:0:0:
195,252,32875,6,0,P|200:294|206:336,1,85,12|0,0:0|0:0,0:0:0:0:
411,232,33201,5,0,3:0:0:0:
289,124,33364,1,2,0:0:0:0:
329,287,33527,1,0,3:0:0:0:
384,126,33690,1,2,0:0:0:0:
252,241,33853,1,0,3:0:0:0:
213,75,34016,1,2,0:0:0:0:
327,197,34179,1,0,3:0:0:0:
317,34,34342,1,2,0:0:0:0:
232,163,34505,5,0,3:0:0:0:
326,304,34668,2,0,P|369:298|413:291,1,85,2|0,0:0|3:0,0:0:0:0:
327,197,34994,1,2,0:0:0:0:
240,318,35157,1,0,3:0:0:0:
413,216,35320,2,0,P|454:222|497:228,1,85,2|0,0:0|3:0,0:0:0:0:
306,107,35646,1,2,0:0:0:0:
349,300,35810,5,0,3:0:0:0:
394,135,35973,1,2,0:0:0:0:
240,168,36136,1,0,3:0:0:0:
286,30,36299,1,2,0:0:0:0:
333,204,36462,1,0,3:0:0:0:
221,82,36625,1,2,0:0:0:0:
171,243,36788,1,0,3:0:0:0:
306,107,36951,1,2,0:0:0:0:
137,58,37114,5,0,3:0:0:0:
249,216,37277,2,0,P|291:210|333:203,1,85,2|0,0:0|3:0,0:0:0:0:
213,128,37603,1,0,0:0:0:0:
120,317,37766,2,0,P|77:311|35:304,1,85,8|0,0:0|3:0,0:0:0:0:
0,224,38011,1,8,0:0:0:0:
0,224,38093,1,8,0:0:0:0:
11,190,38174,1,8,0:0:0:0:
33,162,38256,1,8,0:0:0:0:
63,144,38337,1,8,0:0:0:0:
101,136,38418,5,4,3:2:0:0:
214,274,38581,1,0,0:0:0:0:
198,96,38744,1,8,0:0:0:0:
99,234,38907,1,2,0:0:0:0:
276,163,39070,1,0,3:0:0:0:
101,136,39233,2,0,P|58:130|16:123,1,85,0|8,3:0|0:0,0:0:0:0:
214,274,39560,5,2,0:0:0:0:
198,96,39723,1,0,3:0:0:0:
99,234,39886,1,2,0:0:0:0:
276,163,40049,1,8,0:0:0:0:
372,316,40212,2,0,P|415:310|457:303,1,85,2|0,0:0|3:0,0:0:0:0:
484,133,40538,2,0,P|441:139|399:146,1,85,0|8,3:0|0:0,0:0:0:0:
269,277,40864,1,2,0:0:0:0:
318,94,41027,5,0,3:0:0:0:
456,225,41190,1,0,3:0:0:0:
456,225,41271,1,8,0:0:0:0:
456,225,41353,2,0,L|398:217,1,42.5,8|0,0:0|0:0,0:0:0:0:
330,203,41516,1,8,0:3:0:0:
171,304,41679,5,0,3:0:0:0:
171,304,41760,1,8,0:0:0:0:
171,304,41842,2,0,L|229:296,1,42.5,8|0,0:0|0:0,0:0:0:0:
297,282,42005,1,4,0:3:0:0:
147,156,42168,5,0,3:0:0:0:
147,156,42250,1,8,0:0:0:0:
147,156,42331,1,8,0:0:0:0:
102,356,42494,1,4,0:3:0:0:
233,209,42657,1,4,0:3:0:0:
49,160,42820,5,0,3:0:0:0:
49,160,42902,1,8,0:0:0:0:
49,160,42983,1,8,0:0:0:0:
187,319,43146,1,8,0:3:0:0:
144,125,43310,1,4,0:3:0:0:
16,270,43473,1,4,0:3:0:0:
262,197,43636,1,4,3:2:0:0:
262,197,44940,6,0,P|272:243|281:291,1,89.2499972763062,8|0,0:3|0:0,0:0:0:0:
356,348,45266,2,0,P|365:307|377:257,1,89.2499972763062,4|0,0:3|0:0,0:0:0:0:
463,212,45592,1,0,3:0:0:0:
225,80,45918,6,0,L|157:90,1,63.75
82,100,46244,6,0,P|173:122|222:102,1,140.25000428009,4|0,3:2|0:0,0:0:0:0:
305,63,46570,2,0,P|296:115|287:162,1,93.5000028533936,8|0,3:2|0:0,0:0:0:0:
223,366,46896,1,0,3:0:0:0:
207,188,47060,1,2,0:0:0:0:
55,294,47223,2,0,P|101:286|147:277,1,93.5000028533936,8|0,3:2|0:0,0:0:0:0:
382,285,47549,6,0,P|323:295|246:246,1,140.25000428009,0|0,3:0|0:0,0:0:0:0:
168,289,47875,2,0,P|160:242|151:196,1,93.5000028533936,10|0,3:2|0:0,0:0:0:0:
353,106,48201,2,0,P|344:151|336:198,1,93.5000028533936,0|0,3:0|0:0,0:0:0:0:
216,45,48527,1,8,3:2:0:0:
255,258,48690,6,0,P|340:215|452:247,1,187.000005706787,2|0,0:0|0:0,0:0:0:0:
355,332,49179,1,8,3:2:0:0:
158,277,49342,2,0,B|168:245|172:212|172:212|190:192|207:172|207:172|210:136|223:103,1,187.000005706787,2|0,0:0|0:0,0:0:0:0:
129,117,49831,1,8,3:2:0:0:
254,257,49994,1,0,0:0:0:0:
80,337,50157,6,0,P|63:284|99:196,1,140.25000428009,2|0,3:2|0:0,0:0:0:0:
129,117,50483,2,0,P|138:72|146:25,1,93.5000028533936,8|0,3:2|0:0,0:0:0:0:
254,257,50810,2,0,P|263:305|271:349,1,93.5000028533936,0|2,3:0|0:0,0:0:0:0:
226,82,51136,1,8,3:2:0:0:
158,277,51299,1,0,0:0:0:0:
308,166,51462,6,0,B|385:149|362:203|454:180,1,140.25000428009,4|0,3:2|0:0,0:0:0:0:
508,120,51788,2,0,P|469:105|403:105,1,93.5000028533936,8|0,3:2|0:0,0:0:0:0:
281,174,52114,1,0,3:0:0:0:
407,307,52277,1,2,0:0:0:0:
340,110,52440,2,0,P|332:63|323:18,1,93.5000028533936,8|0,3:2|0:0,0:0:0:0:
173,151,52766,6,0,P|163:211|148:294,1,140.25000428009,0|0,3:0|0:0,0:0:0:0:
60,341,53092,2,0,B|68:297|78:248,1,93.5000028533936,10|0,3:2|0:0,0:0:0:0:
239,42,53418,2,0,B|248:89|256:133,1,93.5000028533936,0|2,3:0|0:0,0:0:0:0:
296,318,53744,1,8,3:2:0:0:
394,173,53907,6,0,P|430:114|409:3,1,187.000005706787,2|0,0:0|0:0,0:0:0:0:
329,82,54396,1,8,3:2:0:0:
390,267,54560,1,0,0:0:0:0:
390,267,54641,1,8,0:0:0:0:
390,267,54723,1,8,0:0:0:0:
512,138,54886,1,8,0:0:0:0:
308,293,55049,2,0,P|241:304|178:255,1,140.25000428009
124,206,55375,5,8,0:0:0:0:
308,293,55538,1,8,0:0:0:0:
280,67,55701,2,0,P|270:136|258:216,1,140.25000428009
308,293,56027,6,0,P|356:297|399:274,1,93.5000028533936,8|8,3:2|0:0,0:0:0:0:
280,67,56353,1,8,0:0:0:0:
249,88,56435,1,8,0:0:0:0:
233,122,56516,1,8,0:0:0:0:
234,156,56598,1,8,0:0:0:0:
259,205,56679,6,0,P|195:195|112:182,1,140.25000428009,4|0,3:2|0:0,0:0:0:0:
70,253,57005,2,0,P|117:260|164:267,1,93.5000028533936,8|0,3:2|0:0,0:0:0:0:
294,289,57331,1,0,3:0:0:0:
120,183,57494,1,2,0:0:0:0:
124,354,57657,2,0,P|170:346|216:339,1,93.5000028533936,8|0,3:2|0:0,0:0:0:0:
373,230,57983,6,0,P|388:287|353:364,1,140.25000428009,0|0,3:0|0:0,0:0:0:0:
294,289,58310,2,0,P|286:242|279:196,1,93.5000028533936,10|0,3:2|0:0,0:0:0:0:
455,90,58636,2,0,P|463:137|470:183,1,93.5000028533936,0|0,3:0|0:0,0:0:0:0:
347,113,58962,1,8,3:2:0:0:
203,260,59125,6,0,P|146:275|49:197,1,187.000005706787,2|0,0:0|0:0,0:0:0:0:
170,133,59614,1,8,3:2:0:0:
293,306,59777,2,0,P|350:321|447:243,1,187.000005706787,2|0,0:0|0:0,0:0:0:0:
342,195,60266,1,8,3:2:0:0:
462,63,60429,6,0,B|394:52|394:52|348:67|348:67|280:54,1,187.000005706787,2|0,0:0|0:0,0:0:0:0:
124,143,60918,2,0,P|170:135|216:128,1,93.5000028533936,8|0,3:2|0:0,0:0:0:0:
293,39,61244,1,0,3:0:0:0:
270,240,61407,1,2,0:0:0:0:
434,164,61570,2,0,P|387:156|341:149,1,93.5000028533936,8|0,3:2|0:0,0:0:0:0:
194,300,61896,6,0,P|285:333|327:315,1,140.25000428009,4|0,3:2|0:0,0:0:0:0:
394,271,62223,2,0,P|440:263|486:256,1,93.5000028533936,8|0,3:2|0:0,0:0:0:0:
270,240,62549,1,0,3:0:0:0:
434,164,62712,1,2,0:0:0:0:
312,62,62875,2,0,P|319:108|326:154,1,93.5000028533936,8|0,3:2|0:0,0:0:0:0:
143,246,63201,6,0,P|131:170|118:96,1,140.25000428009,0|0,3:0|0:0,0:0:0:0:
216,51,63527,2,0,P|209:97|202:143,1,93.5000028533936,8|0,3:2|0:0,0:0:0:0:
24,216,63853,2,0,P|31:170|38:124,1,93.5000028533936,0|0,3:0|0:0,0:0:0:0:
56,15,64179,1,8,3:2:0:0:
130,185,64342,1,2,0:0:0:0:
305,99,64505,6,0,P|365:81|439:123,1,140.25000428009,4|0,3:2|0:0,0:0:0:0:
496,216,64831,1,8,3:2:0:0:
468,221,64913,1,8,0:0:0:0:
440,226,64994,1,8,0:0:0:0:
412,231,65076,1,0,0:0:0:0:
376,258,65157,6,0,B|326:249|326:249|287:265|287:265|231:256,1,140.25000428009,0|0,3:0|0:0,0:0:0:0:
125,304,65483,1,8,3:2:0:0:
104,277,65565,1,8,0:0:0:0:
93,246,65646,1,8,0:0:0:0:
91,214,65728,1,0,0:0:0:0:
105,172,65810,6,0,P|125:120|129:30,1,140.25000428009,0|0,3:0|0:0,0:0:0:0:
209,72,66136,2,0,P|256:66|305:59,1,93.5000028533936,8|8,3:2|0:0,0:0:0:0:
373,90,66380,1,8,0:0:0:0:
373,90,66462,1,8,3:2:0:0:
353,351,66625,1,8,0:3:0:0:
271,146,66788,1,4,0:3:0:0:
470,179,66951,1,4,0:3:0:0:
258,306,67114,5,4,3:2:0:0:
258,306,68418,5,2,0:0:0:0:
258,306,69723,5,2,0:0:0:0:
191,243,70375,1,2,0:0:0:0:
100,275,71027,1,2,0:0:0:0:
100,275,72331,5,2,0:0:0:0:
100,275,73636,5,0,3:0:0:0:
261,301,73799,1,0,0:0:0:0:
204,141,73962,2,0,P|197:182|189:224,1,85,2|0,3:2|0:0,0:0:0:0:
364,324,74288,2,0,P|366:277|349:240,1,85,2|0,3:2|0:0,0:0:0:0:
296,73,74614,1,0,3:0:0:0:
188,224,74777,6,0,P|106:230|38:164,1,170,2|0,0:0|0:0,0:0:0:0:
156,74,75266,1,0,3:0:0:0:
310,202,75429,2,0,B|296:260|296:260|308:304|308:304|292:369,1,170,2|0,0:0|0:0,0:0:0:0:
211,309,75918,1,0,3:0:0:0:
393,253,76081,1,2,0:0:0:0:
262,113,76244,6,0,P|256:67|251:25,1,85,4|0,3:2|0:0,0:0:0:0:
173,197,76570,1,8,0:0:0:0:
314,329,76733,1,2,0:0:0:0:
356,126,76896,2,0,P|362:80|367:38,1,85,0|0,3:0|0:0,0:0:0:0:
286,242,77223,1,8,0:0:0:0:
449,112,77386,1,0,0:0:0:0:
251,28,77549,5,8,0:0:0:0:
383,212,77712,1,0,3:0:0:0:
411,206,77793,1,8,0:0:0:0:
440,201,77875,1,8,0:0:0:0:
320,324,78038,1,8,0:0:0:0:
351,330,78119,1,8,0:0:0:0:
382,334,78201,1,8,0:0:0:0:
281,155,78364,1,0,3:0:0:0:
171,270,78527,2,0,P|125:276|83:281,1,85,12|0,0:0|0:0,0:0:0:0:
199,139,78853,5,0,1:0:0:0:
248,341,79016,1,0,1:0:0:0:
365,192,79179,6,0,P|407:197|444:201,1,63.7500024318696,0|2,3:0|0:0,0:0:0:0:
500,143,79505,1,0,3:0:0:0:
386,284,79668,1,2,0:0:0:0:
330,111,79831,5,0,3:0:0:0:
415,280,79994,1,2,0:0:0:0:
229,239,80157,5,0,3:0:0:0:
443,276,80320,1,2,0:0:0:0:
239,329,80483,2,0,P|192:319|157:311,1,63.7500024318696,2|2,3:2|0:0,0:0:0:0:
297,182,80810,5,8,0:0:0:0:
443,276,80973,1,2,1:2:0:0:
443,276,81054,1,8,0:0:0:0:
443,276,81136,2,0,P|490:266|525:258,1,63.7500024318696,10|2,0:0|0:0,0:0:0:0:
373,140,81462,5,0,1:0:0:0:
331,340,81625,1,0,1:0:0:0:
271,193,81788,6,0,P|224:183|189:175,1,63.7500024318696,0|2,3:0|0:0,0:0:0:0:
89,250,82114,2,0,P|136:240|171:232,1,63.7500024318696,0|2,3:0|0:0,0:0:0:0:
257,113,82440,2,0,P|210:103|175:95,1,63.7500024318696,0|2,3:0|0:0,0:0:0:0:
108,150,82766,5,0,1:0:0:0:
244,26,82929,1,0,1:0:0:0:
152,237,83092,2,0,P|158:268|165:299,1,63.7500024318696,0|2,3:0|0:0,0:0:0:0:
244,26,83418,5,0,1:0:0:0:
108,150,83581,1,0,1:0:0:0:
301,105,83744,2,0,P|332:98|363:91,1,63.7500024318696,2|2,3:0|0:0,0:0:0:0:
170,86,84070,5,0,1:0:0:0:
249,258,84233,1,0,1:0:0:0:
407,161,84396,6,0,P|438:154|469:147,1,63.7500024318696,0|2,3:0|0:0,0:0:0:0:
333,245,84723,2,0,P|364:251|395:258,1,63.7500024318696,0|2,3:0|0:0,0:0:0:0:
278,177,85049,1,0,3:0:0:0:
339,330,85212,1,2,0:0:0:0:
192,213,85375,5,0,3:0:0:0:
137,360,85538,1,2,0:0:0:0:
108,188,85701,2,0,P|101:156|94:125,1,63.7500024318696,2|2,3:2|0:0,0:0:0:0:
137,360,86027,5,8,0:0:0:0:
272,262,86190,1,2,0:0:0:0:
272,262,86271,1,8,0:0:0:0:
272,262,86353,2,0,P|278:230|285:199,1,63.7500024318696,10|2,0:0|0:0,0:0:0:0:
199,94,86679,5,8,0:0:0:0:
357,30,86842,1,8,0:0:0:0:
357,30,86924,1,8,0:0:0:0:
357,30,87005,1,8,0:0:0:0:
383,34,87087,1,8,0:0:0:0:
407,39,87168,1,8,0:0:0:0:
430,43,87250,1,8,0:0:0:0:
466,70,87331,5,8,0:0:0:0:
479,104,87413,1,8,0:0:0:0:
474,141,87494,1,8,0:0:0:0:
452,169,87576,1,8,0:0:0:0:
411,196,87657,5,8,0:0:0:0:
378,231,87739,1,8,0:0:0:0:
373,278,87820,1,8,0:0:0:0:
397,320,87902,1,8,0:0:0:0:
452,262,87983,6,0,B|420:255|406:233|406:233|379:242|353:229|353:229|334:251|306:255|306:255|301:284|280:304|280:304|293:337|279:364,1,280.49999143982,2|0,0:0|0:0,0:0:0:0:
