osu file format v14

[General]
AudioFilename: audio.mp3
AudioLeadIn: 0
PreviewTime: 45837
Countdown: 0
SampleSet: Soft
StackLeniency: 0.4
Mode: 0
LetterboxInBreaks: 0
WidescreenStoryboard: 0

[Editor]
Bookmarks: 44940
DistanceSpacing: 1.6
BeatDivisor: 4
GridSize: 32
TimelineZoom: 1.3

[Metadata]
Title:Ginsekai (TV Size)
TitleUnicode:銀世界 (TV Size)
Artist:BURNOUT SYNDROMES
ArtistUnicode:BURNOUT SYNDROMES
Creator:KantoKun
Version:Kanto & Lost's Insane
Source:ましろのおと
Tags:Mashiro No Oto Those Snow White Notes Anime OP OP2 2nd OPENING Japanese Jrock j-rock rock Male Vocal [_Lost_] conner c_o_n_n_e_r Sarawatlism
BeatmapID:3040028
BeatmapSetID:1480136

[Difficulty]
HPDrainRate:6
CircleSize:4
OverallDifficulty:7
ApproachRate:9
SliderMultiplier:1.6
SliderTickRate:1

[Events]
//Background and Video events
0,0,"BG.jpeg",0,0
Video,150,"VD.mp4"
//Break Periods
//Storyboard Layer 0 (Background)
//Storyboard Layer 1 (Fail)
//Storyboard Layer 2 (Pass)
//Storyboard Layer 3 (Foreground)
//Storyboard Layer 4 (Overlay)
//Storyboard Sound Samples

[TimingPoints]
1897,326.086956521739,4,2,1,80,1,0
2223,-133.333333333333,4,2,1,60,0,0
4505,-100,4,2,1,80,0,0
4831,-133.333333333333,4,2,1,60,0,0
5810,-100,4,2,1,80,0,0
6136,-133.333333333333,4,2,1,60,0,0
6462,-100,4,2,1,80,0,0
6625,-100,4,2,1,60,0,0
7114,-100,4,2,1,80,0,0
7440,-133.333333333333,4,2,1,60,0,0
9723,-133.333333333333,4,2,1,50,0,0
10049,-133.333333333333,4,2,1,60,0,0
10375,-133.333333333333,4,2,1,70,0,0
10701,-133.333333333333,4,2,1,80,0,0
11027,-133.333333333333,4,2,1,60,0,0
11924,-133.333333333333,4,2,1,5,0,0
12005,-83.3333333333333,4,2,1,80,0,0
12331,-100,4,2,1,80,0,1
22766,-100,4,2,1,80,0,0
23092,-133.333333333333,4,2,1,60,0,0
25375,-100,4,2,1,80,0,0
25701,-133.333333333333,4,2,1,60,0,0
26679,-100,4,2,1,80,0,0
27005,-133.333333333333,4,2,1,60,0,0
27331,-100,4,2,1,80,0,0
27657,-133.333333333333,4,2,1,60,0,0
27983,-100,4,2,1,80,0,0
28310,-133.333333333333,4,2,1,60,0,0
30592,-100,4,2,1,80,0,0
30918,-133.333333333333,4,2,1,60,0,0
31244,-100,4,2,1,80,0,0
31570,-133.333333333333,4,2,1,60,0,0
31896,-100,4,2,1,80,0,0
44940,-142.857142857143,4,2,1,80,0,0
45185,-142.857142857143,4,2,1,5,0,0
45266,-142.857142857143,4,2,1,80,0,0
45511,-142.857142857143,4,2,1,5,0,0
45592,-142.857142857143,4,2,1,80,0,0
45918,-200,4,2,1,50,0,0
46244,-90.9090909090909,4,2,1,80,0,1
67114,-133.333333333333,4,2,1,50,0,0
69723,-222.222222222221,4,2,1,50,0,0
73636,-100,4,2,1,80,0,0
78527,-83.3333333333333,4,2,1,80,0,0
78853,-100,4,2,1,80,0,0
79179,-133.333333333333,4,2,1,60,0,0
81462,-133.333333333333,4,2,1,80,0,0
81788,-133.333333333333,4,2,1,60,0,0
82766,-133.333333333333,4,2,1,80,0,0
83092,-133.333333333333,4,2,1,60,0,0
83418,-100,4,2,1,60,0,0
84070,-133.333333333333,4,2,1,80,0,0
84396,-133.333333333333,4,2,1,60,0,0
86842,-133.333333333333,4,2,1,50,0,0
87005,-133.333333333333,4,2,1,60,0,0
87331,-133.333333333333,4,2,1,70,0,0
87657,-80,4,2,1,80,0,0
87983,-133.333333333333,4,2,1,70,0,0
88065,-133.333333333333,4,2,1,30,0,0

[Colours]
Combo1 : 244,72,72
Combo2 : 47,131,234
Combo3 : 252,177,67
Combo4 : 201,217,224

[HitObjects]
267,169,1897,5,0,1:0:0:0:
305,312,2060,1,0,1:0:0:0:
406,213,2223,6,0,P|376:218|346:223,1,60.0000022888184,0|2,3:0|0:0,0:0:0:0:
237,243,2549,1,0,3:0:0:0:
323,229,2712,1,2,0:0:0:0:
349,138,2875,1,0,3:0:0:0:
278,80,3038,1,2,0:0:0:0:
170,161,3201,6,0,P|144:166|110:171,1,60.0000022888184,0|2,3:0|0:0,0:0:0:0:
24,292,3527,2,0,P|76:302|142:266,1,120.000004577637,2|8,3:2|0:0,0:0:0:0:
230,316,4016,1,0,1:0:0:0:
230,316,4098,1,8,0:0:0:0:
230,316,4179,2,0,P|234:286|239:256,1,60.0000022888184,8|0,0:0|0:0,0:0:0:0:
360,149,4505,5,0,1:0:0:0:
322,298,4668,1,0,1:0:0:0:
209,181,4831,6,0,P|239:177|269:172,1,60.0000022888184,0|2,3:0|0:0,0:0:0:0:
371,234,5157,2,0,P|400:237|430:242,1,60.0000022888184,0|2,3:0|0:0,0:0:0:0:
396,74,5483,1,0,3:0:0:0:
282,183,5646,1,2,0:0:0:0:
442,157,5810,5,0,1:0:0:0:
298,90,5973,1,0,1:0:0:0:
371,234,6136,2,0,P|375:263|379:293,1,60.0000022888184,0|2,3:0|0:0,0:0:0:0:
200,205,6462,6,0,P|195:234|188:288,1,80,0|0,1:0|1:0,0:0:0:0:
197,306,6706,1,8,0:0:0:0:
205,327,6788,1,8,0:0:0:0:
24,170,7114,5,0,1:0:0:0:
155,134,7277,1,0,1:0:0:0:
67,42,7440,6,0,P|71:71|75:101,1,60.0000022888184,0|2,3:0|0:0,0:0:0:0:
104,201,7766,2,0,P|99:230|95:260,1,60.0000022888184,0|2,3:0|0:0,0:0:0:0:
56,346,8092,1,0,3:0:0:0:
145,342,8255,1,2,0:0:0:0:
180,262,8418,5,0,3:0:0:0:
104,201,8581,1,2,0:0:0:0:
244,144,8744,2,0,P|250:174|254:204,1,60.0000022888184,2|0,3:2|0:0,0:0:0:0:
174,39,9070,2,0,P|168:68|164:98,1,60.0000022888184,8|0,0:0|1:0,0:0:0:0:
158,141,9315,1,8,0:0:0:0:
158,141,9396,1,8,0:0:0:0:
260,52,9560,1,0,0:0:0:0:
336,163,9723,6,0,P|365:168|395:172,1,60.0000022888184,8|8,3:2|0:0,0:0:0:0:
429,244,9967,1,8,0:0:0:0:
429,244,10049,2,0,L|478:235,3,30.0000011444092,8|0|8|8,3:2|0:0|0:0|0:0,0:0:0:0:
465,317,10375,1,8,3:2:0:0:
434,326,10456,1,8,0:0:0:0:
402,322,10538,1,8,0:0:0:0:
378,308,10619,1,8,0:0:0:0:
359,284,10701,2,0,L|318:278,3,30.0000011444092,8|8|8|8,3:2|0:0|0:0|0:0,0:0:0:0:
263,325,11027,5,2,0:0:0:0:
263,325,11353,1,2,0:0:0:0:
229,225,11516,1,0,0:0:0:0:
163,307,11679,2,0,L|68:313,1,90.0000034332277,2|0,0:0|0:0,0:0:0:0:
57,313,12005,6,0,P|25:258|48:167,1,143.999995605469,8|0,0:1|0:0,0:0:0:0:
103,128,12331,5,4,3:2:0:0:
229,225,12494,1,2,0:0:0:0:
229,225,12576,1,2,0:0:0:0:
229,225,12657,2,0,P|267:220|320:212,1,80,10|2,0:0|0:0,0:0:0:0:
199,144,12983,5,2,3:2:0:0:
93,270,13146,1,2,3:2:0:0:
93,270,13228,1,2,0:0:0:0:
93,270,13309,2,0,P|55:265|2:257,1,80,10|2,0:0|0:0,0:0:0:0:
147,207,13636,5,2,3:2:0:0:
261,304,13799,1,2,3:2:0:0:
261,304,13881,1,2,0:0:0:0:
261,304,13962,2,0,P|300:298|340:292,1,80,10|2,0:0|0:0,0:0:0:0:
406,223,14288,5,0,3:0:0:0:
375,370,14451,1,2,3:2:0:0:
311,215,14614,1,8,0:0:0:0:
443,306,14777,1,2,0:0:0:0:
454,146,14940,5,0,3:2:0:0:
311,215,15103,1,2,0:0:0:0:
311,215,15185,1,2,0:0:0:0:
311,215,15266,2,0,P|316:254|322:294,1,80,10|2,0:0|0:0,0:0:0:0:
372,88,15592,5,0,3:0:0:0:
227,175,15755,1,2,3:2:0:0:
227,175,15837,1,2,0:0:0:0:
227,175,15918,2,0,P|221:214|215:254,1,80,10|2,0:0|0:0,0:0:0:0:
96,355,16244,6,0,P|47:351|11:330,1,80,2|0,3:2|0:0,0:0:0:0:
19,179,16570,2,0,P|68:183|104:204,1,80,10|0,0:0|0:0,0:0:0:0:
214,254,16896,2,0,P|258:249|303:244,1,80,0|0,3:2|3:0,0:0:0:0:
372,88,17223,2,0,P|328:93|283:98,1,80,10|0,0:0|0:0,0:0:0:0:
370,209,17549,5,4,3:2:0:0:
474,127,17712,1,2,0:0:0:0:
474,127,17793,1,2,0:0:0:0:
474,127,17875,2,0,P|479:83|484:38,1,80,10|2,0:0|0:0,0:0:0:0:
362,182,18201,5,0,3:0:0:0:
257,107,18364,1,2,3:2:0:0:
257,107,18445,1,2,0:0:0:0:
257,107,18527,2,0,P|251:63|246:18,1,80,10|2,0:0|0:0,0:0:0:0:
355,154,18853,5,2,3:2:0:0:
196,199,19016,1,2,3:2:0:0:
196,199,19097,1,2,0:0:0:0:
196,199,19179,2,0,P|152:193|107:188,1,80,10|2,0:0|0:0,0:0:0:0:
0,241,19505,1,0,3:0:0:0:
151,272,19668,1,2,3:2:0:0:
93,105,19831,1,8,0:0:0:0:
71,291,19994,1,2,0:0:0:0:
218,214,20157,6,0,P|262:208|307:203,1,80,0|2,3:0|0:0,0:0:0:0:
435,295,20483,2,0,P|395:290|355:284,1,80,8|2,0:0|0:0,0:0:0:0:
330,121,20809,1,0,3:0:0:0:
330,297,20972,1,2,3:2:0:0:
416,155,21136,2,0,P|420:115|426:75,1,80,10|0,0:0|0:0,0:0:0:0:
280,37,21462,5,2,3:2:0:0:
280,37,21543,1,0,0:0:0:0:
280,37,21625,1,2,0:0:0:0:
320,206,21788,1,8,0:0:0:0:
198,87,21951,1,2,0:0:0:0:
367,128,22114,1,4,0:3:0:0:
194,181,22277,1,8,0:0:0:0:
194,181,22358,1,8,0:0:0:0:
194,181,22440,2,0,P|154:175|114:171,1,80,8|4,0:0|0:3,0:0:0:0:
0,231,22766,5,0,1:0:0:0:
141,264,22929,1,0,1:0:0:0:
280,173,23092,6,0,P|276:203|271:243,1,60.0000022888184,0|2,3:0|0:0,0:0:0:0:
345,343,23418,2,0,P|349:313|354:273,1,60.0000022888184,0|2,3:0|0:0,0:0:0:0:
419,164,23744,2,0,P|423:194|428:234,1,60.0000022888184,0|2,3:0|0:0,0:0:0:0:
505,298,24070,5,0,3:0:0:0:
423,339,24233,1,2,0:0:0:0:
352,283,24396,2,0,P|284:264|225:295,1,120.000004577637,2|0,3:2|3:0,0:0:0:0:
167,337,24886,1,2,0:0:0:0:
114,266,25049,1,0,3:0:0:0:
185,214,25212,1,2,0:0:0:0:
160,360,25375,5,0,1:0:0:0:
191,194,25538,1,0,1:0:0:0:
270,330,25701,6,0,P|315:335|340:338,1,60.0000022888184,0|2,3:0|0:0,0:0:0:0:
453,261,26027,2,0,P|423:264|393:267,1,60.0000022888184,0|2,3:0|0:0,0:0:0:0:
410,174,26353,1,0,3:0:0:0:
359,95,26516,1,2,0:0:0:0:
265,77,26679,5,0,1:0:0:0:
288,247,26842,1,0,1:0:0:0:
420,147,27005,2,0,P|449:143|479:140,1,60.0000022888184,0|2,3:0|0:0,0:0:0:0:
407,290,27331,5,0,1:0:0:0:
305,163,27494,1,0,1:0:0:0:
243,321,27657,2,0,P|213:318|184:315,1,60.0000022888184,0|2,3:0|0:0,0:0:0:0:
72,212,27983,5,0,1:0:0:0:
174,85,28146,1,0,1:0:0:0:
227,240,28310,2,0,P|256:236|286:233,1,60.0000022888184,0|2,3:0|0:0,0:0:0:0:
357,318,28636,2,0,P|386:320|416:325,1,60.0000022888184,0|2,3:0|0:0,0:0:0:0:
498,261,28962,1,0,3:0:0:0:
397,242,29125,1,2,0:0:0:0:
466,131,29288,6,0,P|461:160|458:190,1,60.0000022888184,0|2,3:0|0:0,0:0:0:0:
303,251,29614,2,0,P|298:185|292:128,1,120.000004577637,2|0,3:2|3:0,0:0:0:0:
198,81,30103,1,2,0:0:0:0:
164,174,30266,1,0,3:0:0:0:
103,103,30429,1,2,0:0:0:0:
246,146,30592,5,0,1:0:0:0:
88,195,30755,1,0,1:0:0:0:
251,236,30918,2,0,P|293:242|316:246,1,60.0000022888184,0|2,3:0|0:0,0:0:0:0:
88,195,31244,5,0,1:0:0:0:
246,146,31407,1,0,1:0:0:0:
103,103,31570,2,0,P|73:107|43:111,1,60.0000022888184,0|2,3:0|0:0,0:0:0:0:
175,202,31896,5,0,1:0:0:0:
177,40,32060,1,0,1:0:0:0:
177,40,32141,1,8,0:0:0:0:
177,40,32223,1,8,0:0:0:0:
88,195,32386,1,8,0:0:0:0:
88,195,32467,1,8,0:0:0:0:
88,195,32549,1,8,0:0:0:0:
235,108,32712,1,0,3:0:0:0:
93,29,32875,2,0,P|53:35|13:41,1,80,12|0,0:0|0:0,0:0:0:0:
8,206,33201,6,0,P|48:200|88:194,1,80,0|2,3:0|0:0,0:0:0:0:
209,262,33527,1,0,3:0:0:0:
62,282,33690,1,2,0:0:0:0:
178,184,33853,5,0,3:0:0:0:
71,305,34016,1,2,0:0:0:0:
102,150,34179,5,0,3:0:0:0:
80,328,34342,1,2,0:0:0:0:
236,252,34505,5,0,3:0:0:0:
236,252,34668,2,0,P|282:256|320:259,1,80,2|0,0:0|3:0,0:0:0:0:
378,340,34994,1,2,0:0:0:0:
460,187,35157,1,0,3:0:0:0:
460,187,35320,2,0,P|414:191|376:194,1,80,2|0,0:0|3:0,0:0:0:0:
286,127,35646,1,2,0:0:0:0:
410,48,35810,5,0,3:0:0:0:
359,195,35973,1,2,0:0:0:0:
285,24,36136,5,0,3:0:0:0:
362,172,36299,1,2,0:0:0:0:
200,105,36462,5,0,3:0:0:0:
365,149,36625,1,2,0:0:0:0:
233,222,36788,5,0,3:0:0:0:
368,126,36951,1,2,0:0:0:0:
216,85,37114,5,0,3:0:0:0:
316,215,37277,2,0,P|324:260|322:302,1,80,2|0,0:0|3:0,0:0:0:0:
200,360,37603,1,0,0:0:0:0:
100,277,37766,2,0,P|99:237|107:197,1,80,8|0,0:0|3:0,0:0:0:0:
164,134,38011,1,8,0:0:0:0:
164,134,38092,2,0,L|157:89,3,40,8|8|8|8,0:0|0:0|0:0|0:0,0:0:0:0:
220,36,38418,5,4,3:2:0:0:
237,180,38581,1,0,0:0:0:0:
347,95,38744,2,0,P|307:94|267:102,1,80,8|0,0:0|0:0,0:0:0:0:
160,215,39070,1,0,3:0:0:0:
310,260,39233,2,0,P|313:220|316:173,1,80,2|8,3:2|0:0,0:0:0:0:
181,119,39560,1,2,0:0:0:0:
224,288,39723,5,0,3:0:0:0:
318,152,39886,1,0,0:0:0:0:
160,215,40049,1,8,0:0:0:0:
324,244,40212,2,0,P|364:241|411:238,1,80,2|0,0:0|3:0,0:0:0:0:
488,112,40538,2,0,P|448:109|408:106,1,80,0|8,3:0|0:0,0:0:0:0:
290,63,40864,1,2,0:0:0:0:
324,244,41027,5,0,3:0:0:0:
212,118,41190,1,0,3:0:0:0:
212,118,41271,1,8,0:0:0:0:
212,118,41353,1,8,0:0:0:0:
343,216,41516,5,8,0:3:0:0:
187,194,41679,1,0,3:0:0:0:
187,194,41760,1,8,0:0:0:0:
187,194,41842,1,8,0:0:0:0:
349,184,42005,5,4,0:3:0:0:
205,271,42168,1,0,3:0:0:0:
205,271,42249,1,8,0:0:0:0:
205,271,42331,1,8,0:0:0:0:
294,123,42494,5,4,0:3:0:0:
291,293,42657,1,4,0:3:0:0:
377,167,42821,1,0,3:0:0:0:
377,167,42902,1,8,0:0:0:0:
377,167,42984,1,8,0:0:0:0:
187,194,43146,5,8,0:3:0:0:
366,84,43310,1,4,0:3:0:0:
303,264,43473,1,4,0:3:0:0:
201,106,43636,1,4,3:2:0:0:
201,106,44940,6,0,P|244:106|276:143,1,83.9999974365235,8|0,3:0|0:0,0:0:0:0:
138,156,45266,6,0,P|116:118|132:72,1,83.9999974365235,4|0,3:0|0:0,0:0:0:0:
211,182,45592,6,0,P|189:219|118:227,1,111.999996582031,0|0,3:0|0:0,0:0:0:0:
125,230,46244,6,0,P|203:229|275:230,1,132.00000402832,4|0,3:2|0:0,0:0:0:0:
289,243,46570,2,0,P|312:200|297:157,1,88.000002685547,8|0,3:2|0:0,0:0:0:0:
292,343,46896,2,0,P|253:317|199:316,1,88.000002685547,0|2,3:0|0:0,0:0:0:0:
379,280,47223,2,0,P|425:275|454:246,1,88.000002685547,8|0,3:2|0:0,0:0:0:0:
464,209,47467,1,0,0:0:0:0:
464,209,47549,6,0,B|427:217|398:191|403:189|377:164|341:178,1,132.00000402832,0|0,3:0|0:0,0:0:0:0:
312,174,47875,2,0,P|324:120|328:80,1,88.000002685547,10|0,3:2|0:0,0:0:0:0:
208,12,48201,2,0,P|220:66|224:106,1,88.000002685547,0|2,3:2|0:0,0:0:0:0:
131,206,48527,1,8,3:2:0:0:
22,108,48690,1,0,0:0:0:0:
0,268,48853,6,0,P|48:198|131:206,1,176.000005371094,0|8,3:0|3:2,0:0:0:0:
238,298,49342,1,0,0:0:0:0:
118,371,49505,2,0,P|95:330|121:274,1,88.000002685547,0|2,3:0|0:0,0:0:0:0:
206,170,49831,1,8,3:2:0:0:
107,69,49994,1,0,0:0:0:0:
206,170,50157,6,0,B|246:177|275:155|269:155|299:128|341:146,1,132.00000402832,0|0,3:0|0:0,0:0:0:0:
361,143,50483,2,0,P|414:134|444:98,1,88.000002685547,10|0,3:2|0:0,0:0:0:0:
498,254,50810,2,0,P|450:227|402:229,1,88.000002685547,0|0,3:0|0:0,0:0:0:0:
254,256,51136,2,0,P|305:244|353:235,1,88.000002685547,8|0,3:2|0:0,0:0:0:0:
361,11,51462,6,0,B|361:163,1,132.00000402832,4|0,3:2|0:0,0:0:0:0:
359,160,51788,2,0,P|317:131|271:143,1,88.000002685547,8|0,3:2|0:0,0:0:0:0:
169,240,52114,1,0,3:0:0:0:
90,123,52277,1,2,0:0:0:0:
169,240,52440,2,0,P|224:226|237:192,1,88.000002685547,8|0,3:2|0:0,0:0:0:0:
85,0,52766,6,0,L|85:160,1,132.00000402832,0|0,3:0|0:0,0:0:0:0:
83,152,53092,2,0,P|130:118|167:126,1,88.000002685547,10|0,3:2|0:0,0:0:0:0:
65,257,53418,1,0,3:0:0:0:
3,130,53581,1,0,0:0:0:0:
65,257,53744,2,0,P|111:243|160:234,1,88.000002685547,8|2,3:2|0:0,0:0:0:0:
289,0,54070,6,0,L|289:150,1,132.00000402832,0|0,3:0|0:0,0:0:0:0:
289,144,54396,1,8,3:2:0:0:
379,59,54560,1,8,0:0:0:0:
379,59,54641,1,8,0:0:0:0:
379,59,54723,1,8,3:2:0:0:
194,135,54886,1,8,0:0:0:0:
356,259,55049,2,0,P|300:220|228:246,1,132.00000402832,0|0,3:0|0:0,0:0:0:0:
232,242,55375,5,8,3:2:0:0:
289,144,55538,1,8,0:0:0:0:
287,313,55701,1,0,3:0:0:0:
143,234,55864,1,0,0:0:0:0:
143,234,55945,1,8,0:0:0:0:
143,234,56027,6,0,P|91:242|40:255,1,88.000002685547,8|8,3:2|0:0,0:0:0:0:
53,80,56353,1,8,0:0:0:0:
75,58,56435,1,8,0:0:0:0:
104,48,56516,1,8,0:0:0:0:
134,51,56598,1,8,0:0:0:0:
162,61,56679,6,0,B|204:74|231:52|223:45|242:23|289:36,1,132.00000402832,4|0,3:2|0:0,0:0:0:0:
313,50,57005,2,0,P|366:48|386:14,1,88.000002685547,8|0,3:2|0:0,0:0:0:0:
454,161,57331,2,0,P|425:129|382:133,1,88.000002685547,0|2,3:0|0:0,0:0:0:0:
309,254,57657,2,0,P|337:222|380:226,1,88.000002685547,8|2,3:2|0:0,0:0:0:0:
435,340,57983,6,0,P|355:339|284:340,1,132.00000402832,0|0,3:0|0:0,0:0:0:0:
280,347,58310,2,0,P|239:315|239:271,1,88.000002685547,10|0,3:2|0:0,0:0:0:0:
282,158,58636,1,0,3:0:0:0:
171,230,58799,1,2,0:0:0:0:
282,158,58962,2,0,P|299:106|277:73,1,88.000002685547,8|0,3:2|0:0,0:0:0:0:
107,0,59288,6,0,L|107:182,1,176.000005371094,0|8,3:0|3:2,0:0:0:0:
159,306,59777,1,0,0:0:0:0:
18,305,59940,2,0,P|61:267|103:270,1,88.000002685547,0|2,3:0|0:0,0:0:0:0:
221,360,60266,1,8,3:2:0:0:
311,252,60429,1,0,0:0:0:0:
375,357,60592,6,0,B|325:351|325:351|289:365|289:365|226:358,1,132.00000402832,0|0,3:0|0:0,0:0:0:0:
221,360,60918,2,0,B|195:320|195:320|205:269,1,88.000002685547,10|0,3:2|0:0,0:0:0:0:
292,172,61244,2,0,B|318:212|318:212|310:251,1,88.000002685547,0|2,3:0|0:0,0:0:0:0:
127,239,61570,2,0,P|131:195|136:152,1,88.000002685547,8|2,3:2|0:0,0:0:0:0:
353,48,61896,6,0,B|311:35|286:63|292:64|273:86|226:73,1,132.00000402832,4|0,3:2|0:0,0:0:0:0:
206,82,62223,2,0,P|221:37|203:-6,1,88.000002685547,8|0,3:2|0:0,0:0:0:0:
136,152,62549,1,0,3:0:0:0:
249,219,62712,1,2,0:0:0:0:
93,270,62875,2,0,P|138:236|184:245,1,88.000002685547,8|0,3:2|0:0,0:0:0:0:
217,359,63201,6,0,P|155:357|77:359,1,132.00000402832,0|0,3:0|0:0,0:0:0:0:
58,368,63527,2,0,P|18:332|27:283,1,88.000002685547,10|0,3:2|0:0,0:0:0:0:
117,168,63853,2,0,P|106:218|101:257,1,88.000002685547,0|0,3:0|0:0,0:0:0:0:
1,93,64179,2,0,P|12:143|17:182,1,88.000002685547,8|0,3:2|0:0,0:0:0:0:
99,31,64505,6,0,B|141:18|166:46|160:47|179:69|226:56,1,132.00000402832,4|0,3:2|0:0,0:0:0:0:
294,20,64831,1,8,3:2:0:0:
318,9,64913,1,8,0:0:0:0:
344,7,64994,1,8,0:0:0:0:
369,13,65076,1,8,0:0:0:0:
392,24,65157,6,0,P|385:103|381:166,1,132.00000402832,0|0,3:0|0:0,0:0:0:0:
323,207,65483,1,8,3:2:0:0:
330,232,65565,1,8,0:0:0:0:
338,256,65646,1,8,0:0:0:0:
346,281,65728,1,8,0:0:0:0:
354,306,65810,6,0,B|301:301|301:301|275:316|275:316|214:312,1,132.00000402832,0|0,3:0|0:0,0:0:0:0:
199,311,66136,1,8,3:2:0:0:
129,199,66299,1,8,0:0:0:0:
129,199,66380,1,8,0:0:0:0:
129,199,66462,1,8,3:2:0:0:
199,311,66625,1,8,0:3:0:0:
177,114,66788,1,4,0:3:0:0:
52,241,66951,1,4,0:3:0:0:
243,223,67114,5,4,3:2:0:0:
52,114,68418,5,2,0:0:0:0:
304,10,69723,6,0,P|297:77|294:159,2,143.999995605469,2|2|2,0:0|0:0|0:0,0:0:0:0:
256,192,71108,12,2,72331,0:0:0:0:
304,10,73636,5,0,3:0:0:0:
388,94,73799,1,0,0:0:0:0:
245,124,73962,2,0,P|270:96|325:99,1,80,2|0,3:2|0:0,0:0:0:0:
374,211,74288,2,0,P|349:183|294:186,1,80,2|0,3:2|0:0,0:0:0:0:
286,324,74614,1,0,3:0:0:0:
212,219,74777,1,2,0:0:0:0:
286,324,74940,6,0,P|349:319|424:318,1,120,0|0,3:0|0:0,0:0:0:0:
428,338,75266,2,0,P|432:296|441:251,1,80,0|2,3:0|0:0,0:0:0:0:
352,140,75592,2,0,P|360:179|364:218,1,80,0|2,3:0|0:0,0:0:0:0:
499,164,75918,2,0,P|511:122|494:83,1,80,0|2,3:0|0:0,0:0:0:0:
387,26,76244,6,0,B|351:16|331:41|337:42|319:67|277:63,1,120,4|0,3:2|0:0,0:0:0:0:
257,67,76570,2,0,P|218:57|178:52,1,80,8|2,0:0|0:0,0:0:0:0:
3,200,76896,2,0,P|30:155|110:163,1,120,0|0,3:0|0:0,0:0:0:0:
114,165,77223,2,0,L|114:247,1,80,8|0,0:0|0:0,0:0:0:0:
92,68,77549,5,8,0:0:0:0:
194,226,77712,1,0,0:0:0:0:
223,219,77793,1,8,0:0:0:0:
252,212,77875,1,8,0:0:0:0:
345,99,78038,1,8,0:0:0:0:
316,106,78119,1,8,0:0:0:0:
287,113,78201,1,8,0:0:0:0:
442,229,78364,1,0,3:0:0:0:
459,60,78527,6,0,B|432:104|455:137|459:135|476:170|455:210,1,143.999995605469,12|0,0:0|0:0,0:0:0:0:
442,229,78853,5,0,1:0:0:0:
509,337,79016,1,0,1:0:0:0:
354,312,79179,6,0,P|384:307|418:302,1,60.0000022888184,0|2,3:0|0:0,0:0:0:0:
285,250,79505,1,0,3:0:0:0:
189,343,79668,1,2,0:0:0:0:
108,171,79831,1,0,3:0:0:0:
200,252,79994,1,2,0:0:0:0:
206,98,80157,6,0,P|201:124|194:164,1,60.0000022888184,0|2,3:0|0:0,0:0:0:0:
62,268,80483,2,0,P|126:259|193:251,1,120.000004577637,2|8,3:2|0:0,0:0:0:0:
263,343,80972,1,0,1:0:0:0:
263,343,81054,1,8,0:0:0:0:
263,343,81135,2,0,P|233:339|203:334,1,60.0000022888184,8|0,0:0|0:0,0:0:0:0:
285,250,81461,5,0,1:0:0:0:
381,311,81624,1,0,1:0:0:0:
395,164,81788,6,0,P|386:194|379:241,1,60.0000022888184,0|2,3:0|0:0,0:0:0:0:
277,103,82113,2,0,P|283:132|290:182,1,60.0000022888184,0|2,3:0|0:0,0:0:0:0:
331,34,82439,1,0,3:0:0:0:
198,141,82602,1,2,0:0:0:0:
126,16,82766,5,0,1:0:0:0:
277,103,82929,1,0,1:0:0:0:
109,171,83092,6,0,P|113:142|119:102,1,60.0000022888184,0|2,3:0|0:0,0:0:0:0:
201,223,83418,6,0,P|193:262|187:306,1,80,0|0,1:0|1:0,0:0:0:0:
184,323,83662,1,8,0:0:0:0:
184,323,83744,1,8,0:0:0:0:
184,323,84070,5,0,1:0:0:0:
289,250,84233,1,0,1:0:0:0:
319,358,84396,6,0,P|287:348|253:344,1,60.0000022888184,0|2,3:0|0:0,0:0:0:0:
127,251,84723,2,0,P|156:246|185:237,1,60.0000022888184,0|2,3:0|0:0,0:0:0:0:
257,165,85048,1,0,3:0:0:0:
180,106,85211,1,2,0:0:0:0:
257,165,85374,5,0,3:0:0:0:
103,140,85537,1,2,0:0:0:0:
269,20,85700,2,0,P|263:49|259:82,1,60.0000022888184,2|0,3:2|0:0,0:0:0:0:
345,239,86026,2,0,P|351:210|355:180,1,60.0000022888184,8|0,0:0|1:0,0:0:0:0:
361,137,86271,1,8,0:0:0:0:
361,137,86352,1,8,0:0:0:0:
269,20,86516,1,0,0:0:0:0:
361,137,86679,6,0,P|390:131|424:126,1,60.0000022888184,8|8,3:2|0:0,0:0:0:0:
479,186,86923,1,8,0:0:0:0:
479,186,87005,2,0,L|470:235,3,30.0000011444092,8|0|8|8,3:2|0:0|0:0|0:0,0:0:0:0:
470,302,87331,5,8,3:2:0:0:
439,311,87412,1,8,0:0:0:0:
407,307,87494,1,8,0:0:0:0:
383,293,87575,1,8,0:0:0:0:
364,269,87657,2,0,P|328:262|306:261,1,50,8|8,3:2|0:0,0:0:0:0:
229,163,87820,2,0,P|264:169|287:171,1,50,8|8,3:2|0:0,0:0:0:0:
118,255,87983,5,2,0:0:0:0:
