osu file format v14

[General]
AudioFilename: audio.mp3
AudioLeadIn: 0
PreviewTime: 45877
Countdown: 0
SampleSet: Soft
StackLeniency: 0.7
Mode: 0
LetterboxInBreaks: 0
WidescreenStoryboard: 1

[Editor]
DistanceSpacing: 1
BeatDivisor: 4
GridSize: 32
TimelineZoom: 1.5

[Metadata]
Title:Ginsekai (TV Size)
TitleUnicode:銀世界 (TV Size)
Artist:BURNOUT SYNDROMES
ArtistUnicode:BURNOUT SYNDROMES
Creator:Dino99
Version:Normal
Source:ましろのおと
Tags:12BARRY21 Houtaro Mashiro No Oto Those Snow White Notes Anime OP OPENING 2nd op2 Theme Japanese jrock j-rock rock Male Vocal Vocalist BLIZZARD Samisen
BeatmapID:3605574
BeatmapSetID:1760991

[Difficulty]
HPDrainRate:4
CircleSize:3.2
OverallDifficulty:4.2
ApproachRate:5.8
SliderMultiplier:1
SliderTickRate:1

[Events]
//Background and Video events
Video,98,"Video.mp4"
0,0,"BG.jpeg",0,0
//Break Periods
2,67314,72497
//Storyboard Layer 0 (Background)
//Storyboard Layer 1 (Fail)
//Storyboard Layer 2 (Pass)
//Storyboard Layer 3 (Foreground)
//Storyboard Layer 4 (Overlay)
//Storyboard Sound Samples

[TimingPoints]
1897,326.086956521739,4,2,1,75,1,0
1897,-100,4,2,1,75,0,0
2223,-100,4,2,2,65,0,0
3771,-100,4,2,1,5,0,0
3853,-100,4,2,2,65,0,0
4342,-100,4,2,1,5,0,0
4505,-100,4,2,1,75,0,0
4831,-100,4,2,2,65,0,0
5810,-100,4,2,1,75,0,0
6136,-100,4,2,2,65,0,0
6462,-100,4,2,1,75,0,0
7032,-100,4,2,1,5,0,0
7114,-100,4,2,1,75,0,0
7440,-100,4,2,2,65,0,0
8989,-100,4,2,1,5,0,0
9070,-100,4,2,2,65,0,0
9641,-100,4,2,1,5,0,0
9723,-100,4,2,1,75,0,0
10049,-100,4,2,1,50,0,0
10212,-100,4,2,1,55,0,0
10375,-100,4,2,1,60,0,0
10538,-100,4,2,1,65,0,0
10701,-100,4,2,1,70,0,0
10864,-100,4,2,1,80,0,0
11027,-100,4,2,1,50,0,0
11924,-100,4,2,1,5,0,0
12005,-83.3333333333333,4,2,1,60,0,0
12250,-83.3333333333333,4,2,1,5,0,0
12331,-90.9090909090909,4,2,1,85,0,1
22277,-90.9090909090909,4,2,1,75,0,1
22766,-100,4,2,1,60,0,0
25293,-100,4,2,1,5,0,0
25375,-100,4,2,1,60,0,0
28880,-100,4,2,1,5,0,0
28962,-100,4,2,1,60,0,0
30511,-100,4,2,1,5,0,0
30592,-100,4,2,1,60,0,0
31896,-100,4,2,1,55,0,0
33201,-100,4,2,2,70,0,0
37766,-100,4,2,1,60,0,0
38092,-100,4,2,1,65,0,0
38418,-100,4,2,1,75,0,0
41516,-100,4,2,1,85,0,0
41679,-100,4,2,1,70,0,0
42005,-100,4,2,1,85,0,0
42168,-100,4,2,1,70,0,0
42494,-100,4,2,1,85,0,0
42657,-100,4,2,1,70,0,0
43146,-100,4,2,1,80,0,0
43636,-100,4,2,1,70,0,0
44858,-100,4,2,1,5,0,0
44940,-100,4,2,1,90,0,0
45185,-100,4,2,1,5,0,0
45266,-100,4,2,1,90,0,0
45511,-100,4,2,1,5,0,0
45592,-100,4,2,1,90,0,0
45918,-100,4,2,1,60,0,0
46163,-100,4,2,1,5,0,0
46244,-86.9565217391304,4,2,1,90,0,1
51380,-86.9565217391304,4,2,1,5,0,1
51462,-86.9565217391304,4,2,1,90,0,1
53989,-86.9565217391304,4,2,1,5,0,1
54070,-86.9565217391304,4,2,1,90,0,1
54723,-86.9565217391304,4,2,1,70,0,1
55049,-86.9565217391304,4,2,1,90,0,1
55293,-86.9565217391304,4,2,1,5,0,1
55375,-86.9565217391304,4,2,1,90,0,1
55945,-86.9565217391304,4,2,1,5,0,1
56027,-86.9565217391304,4,2,1,90,0,1
56598,-86.9565217391304,4,2,1,90,0,0
56679,-86.9565217391304,4,2,1,90,0,1
64424,-86.9565217391304,4,2,1,5,0,1
64505,-86.9565217391304,4,2,1,90,0,1
65157,-86.9565217391304,4,2,1,90,0,1
66136,-86.9565217391304,4,2,1,90,0,1
67114,-100,4,2,1,50,0,0
71027,-100,4,2,1,30,0,0
72331,-100,4,2,1,40,0,0
73636,-100,4,2,2,70,0,0
74940,-100,4,2,2,75,0,0
76244,-100,4,2,1,80,0,0
76489,-100,4,2,1,5,0,0
76570,-100,4,2,1,80,0,0
77549,-100,4,2,1,60,0,0
77712,-100,4,2,1,80,0,0
78527,-100,4,2,1,50,0,0
78771,-100,4,2,1,5,0,0
78853,-100,4,2,1,70,0,0
79179,-100,4,2,1,60,0,0
80320,-100,4,2,1,60,0,0
80810,-100,4,2,1,60,0,0
81299,-100,4,2,1,5,0,0
81462,-100,4,2,1,70,0,0
81788,-100,4,2,1,60,0,0
82766,-100,4,2,1,70,0,0
83092,-100,4,2,1,60,0,0
83418,-100,4,2,1,70,0,0
84070,-100,4,2,1,70,0,0
84396,-100,4,2,1,60,0,0
85538,-100,4,2,1,60,0,0
86027,-100,4,2,1,60,0,0
86842,-100,4,2,1,55,0,0
87005,-100,4,2,1,60,0,0
87168,-100,4,2,1,65,0,0
87331,-100,4,2,1,70,0,0
87494,-100,4,2,1,75,0,0
87657,-100,4,2,1,80,0,0
87820,-100,4,2,1,85,0,0
87983,-100,4,2,1,50,0,0
88962,-100,4,2,1,30,0,0

[Colours]
Combo1 : 255,70,163
Combo2 : 164,255,255
Combo3 : 240,233,83
Combo4 : 52,243,67

[HitObjects]
279,56,1897,6,0,L|328:47,1,50,0|2,1:0|1:2,0:0:0:0:
377,38,2223,1,0,3:0:0:0:
458,98,2549,2,0,L|479:197,1,100,0|0,3:0|3:0,0:0:0:0:
450,293,3201,2,0,P|400:319|360:308,1,100,0|0,3:0|3:0,0:0:0:0:
269,349,3853,2,0,L|256:297,1,50,8|0,0:0|0:0,0:0:0:0:
245,251,4179,1,8,3:2:0:0:
293,163,4505,6,0,L|278:107,1,50,0|2,1:0|1:2,0:0:0:0:
247,76,4831,2,0,P|204:73|156:104,1,100,0|0,3:0|3:0,0:0:0:0:
103,186,5483,1,0,3:0:0:0:
88,285,5810,2,0,L|104:338,1,50,0|2,1:0|1:2,0:0:0:0:
141,363,6136,2,0,B|191:369|191:369|232:327,1,100,0|0,3:0|1:0,0:0:0:0:
261,299,6625,1,0,1:0:0:0:
261,299,6788,1,8,0:0:0:0:
261,199,7114,6,0,L|251:146,1,50,0|2,1:0|1:2,0:0:0:0:
276,106,7440,1,0,3:0:0:0:
362,155,7766,2,0,P|407:158|452:129,1,100,0|0,3:0|3:0,0:0:0:0:
475,33,8418,2,0,P|429:29|384:58,1,100,0|0,3:0|3:0,0:0:0:0:
362,155,9070,2,0,L|368:208,1,50,8|0,0:0|0:0,0:0:0:0:
374,254,9396,1,8,0:0:0:0:
299,321,9723,6,0,P|259:328|212:293,1,100,0|8,1:0|3:2,0:0:0:0:
198,247,10212,1,8,0:0:0:0:
198,247,10375,2,0,L|211:197,1,50,8|8,3:2|0:0,0:0:0:0:
252,171,10701,2,0,L|265:121,1,50,8|8,3:2|0:0,0:0:0:0:
244,76,11027,1,2,0:0:0:0:
244,76,12005,1,8,0:1:0:0:
136,53,12331,6,0,L|144:110,1,55.0000016784668,6|2,3:2|0:0,0:0:0:0:
117,151,12657,1,10,0:0:0:0:
170,248,12983,2,0,L|227:237,1,55.0000016784668,2|2,3:2|3:2,0:0:0:0:
262,197,13310,1,10,0:0:0:0:
352,134,13636,2,0,L|409:145,1,55.0000016784668,2|2,3:2|3:2,0:0:0:0:
444,185,13963,1,10,0:0:0:0:
399,285,14288,2,0,L|411:342,2,55.0000016784668,0|2|8,3:0|3:2|0:0,0:0:0:0:
357,257,14777,1,2,0:0:0:0:
357,257,14940,6,0,P|324:261|304:277,1,55.0000016784668,2|2,3:2|0:0,0:0:0:0:
270,314,15266,2,0,L|157:298,1,110.000003356934,10|2,0:0|3:2,0:0:0:0:
128,261,15755,1,2,3:2:0:0:
128,261,15918,1,10,0:0:0:0:
193,172,16244,2,0,P|207:130|174:77,1,110.000003356934,2|10,3:2|0:0,0:0:0:0:
70,41,16896,2,0,L|45:159,1,110.000003356934,2|10,3:2|0:0,0:0:0:0:
61,206,17386,1,2,0:0:0:0:
61,206,17549,6,0,L|119:201,1,55.0000016784668,6|2,3:2|0:0,0:0:0:0:
158,166,17875,1,10,0:0:0:0:
245,232,18201,2,0,L|234:288,1,55.0000016784668,2|2,3:2|3:2,0:0:0:0:
258,335,18527,1,10,0:0:0:0:
359,292,18853,2,0,L|414:300,1,55.0000016784668,2|2,3:2|3:2,0:0:0:0:
460,271,19179,1,10,0:0:0:0:
498,167,19505,2,0,P|464:154|397:184,1,110.000003356934,0|8,3:0|0:0,0:0:0:0:
350,200,19994,1,2,0:0:0:0:
350,200,20157,6,0,L|294:188,1,55.0000016784668,0|2,3:0|0:0,0:0:0:0:
266,142,20483,2,0,L|278:86,1,55.0000016784668,8|2,0:0|0:0,0:0:0:0:
251,39,20810,1,0,3:0:0:0:
143,17,21136,2,0,P|99:58|109:118,1,110.000003356934,10|2,0:0|3:2,0:0:0:0:
146,144,21625,1,2,3:2:0:0:
146,144,21788,2,0,P|174:191|157:246,1,110.000003356934,8|4,0:0|3:3,0:0:0:0:
125,284,22277,1,8,0:0:0:0:
125,284,22440,1,8,0:3:0:0:
38,245,22766,5,8,1:3:0:0:
38,245,22929,2,0,L|30:194,1,50,8|0,1:3|3:0,0:0:0:0:
108,133,23418,2,0,P|149:126|194:162,1,100,0|0,3:0|3:0,0:0:0:0:
270,97,24070,2,0,L|258:45,2,50,2|2|2,3:2|0:0|3:2,0:0:0:0:
344,164,24723,1,0,3:0:0:0:
438,132,25049,1,0,3:0:0:0:
480,228,25375,5,8,3:2:0:0:
480,228,25538,2,0,L|463:280,1,50,8|0,0:0|3:0,0:0:0:0:
372,315,26027,1,0,3:0:0:0:
300,244,26353,1,0,3:0:0:0:
331,151,26679,1,8,3:2:0:0:
331,151,26842,2,0,L|315:102,1,50,8|0,0:0|3:0,0:0:0:0:
233,57,27331,1,8,3:2:0:0:
233,57,27494,2,0,L|184:73,1,50,8|0,0:0|3:0,0:0:0:0:
132,158,27983,5,8,3:2:0:0:
132,158,28146,2,0,L|148:207,1,50,8|0,0:0|3:0,0:0:0:0:
96,292,28636,2,0,P|136:310|191:297,1,100,0|0,3:0|3:0,0:0:0:0:
274,246,29288,2,0,L|288:306,2,50,2|2|2,3:2|0:0|3:2,0:0:0:0:
341,172,29940,1,0,3:0:0:0:
264,108,30266,1,0,3:0:0:0:
196,182,30592,6,0,L|145:173,2,50,8|8|0,3:2|0:0|3:0,0:0:0:0:
264,108,31244,2,0,L|315:99,2,50,8|8|0,3:2|0:0|3:0,0:0:0:0:
290,204,31896,6,0,P|278:256|269:304,1,100,0|8,1:0|0:0,0:0:0:0:
258,353,32386,1,0,3:0:0:0:
258,353,32549,2,0,L|207:345,2,50,8|0|0,0:0|3:0|1:0,0:0:0:0:
354,331,33201,6,0,P|404:339|439:305,1,100,0|0,3:0|3:0,0:0:0:0:
459,262,33690,1,2,0:0:0:0:
459,262,33853,2,0,L|432:160,1,100,0|0,3:0|3:0,0:0:0:0:
347,114,34505,1,0,3:0:0:0:
347,114,34668,2,0,P|293:118|266:154,1,100,2|2,0:0|0:0,0:0:0:0:
235,191,35157,1,0,3:0:0:0:
235,191,35320,2,0,P|181:187|154:151,1,100,2|2,0:0|0:0,0:0:0:0:
157,102,35810,5,0,3:0:0:0:
236,41,36136,1,0,3:0:0:0:
327,82,36462,2,0,L|319:143,1,50,0|2,3:0|0:0,0:0:0:0:
344,175,36788,2,0,L|336:236,1,50,0|2,3:0|0:0,0:0:0:0:
301,258,37114,1,0,3:0:0:0:
301,258,37277,2,0,L|201:248,1,100,2|0,0:0|0:0,0:0:0:0:
162,216,37766,2,0,L|173:167,1,50,0|0,1:0|3:0,0:0:0:0:
150,122,38092,1,8,0:0:0:0:
62,171,38418,6,0,P|37:220|48:264,1,100,6|10,3:2|0:0,0:0:0:0:
37,310,38907,1,0,0:0:0:0:
37,310,39070,2,0,L|136:320,1,100,2|8,3:2|0:0,0:0:0:0:
177,358,39560,1,2,0:0:0:0:
177,358,39723,2,0,L|276:348,1,100,2|10,3:2|0:0,0:0:0:0:
311,312,40212,1,2,0:0:0:0:
256,228,40538,2,0,L|247:174,1,50,2|8,3:2|0:0,0:0:0:0:
220,136,40864,1,2,0:0:0:0:
220,136,41027,6,0,P|256:98|302:98,1,100,0|8,3:0|0:0,0:0:0:0:
330,57,41516,2,0,P|376:81|387:126,1,100,8|8,0:3|0:0,0:0:0:0:
439,137,42005,2,0,P|429:188|390:213,1,100,4|8,0:3|0:0,0:0:0:0:
342,201,42494,1,4,0:3:0:0:
268,268,42820,1,8,0:0:0:0:
268,268,42983,2,0,L|272:323,1,50,8|8,0:0|0:3,0:0:0:0:
236,354,43310,2,0,L|185:346,2,50,4|4|4,0:3|0:3|0:0,0:0:0:0:
236,354,44940,5,4,3:3:0:0:
290,269,45266,1,8,3:3:0:0:
215,202,45592,2,0,L|200:103,1,100,0|0,3:0|0:0,0:0:0:0:
98,49,46244,6,0,P|60:92|58:147,1,115.000002193451,4|10,3:1|0:0,0:0:0:0:
37,260,46896,2,0,L|97:249,1,57.5000010967255,2|0,3:2|0:0,0:0:0:0:
143,279,47223,1,10,0:0:0:0:
241,339,47549,2,0,L|234:281,1,57.5000010967255,2|0,3:2|0:0,0:0:0:0:
266,234,47875,2,0,L|277:120,1,115.000002193451,10|0,0:0|3:0,0:0:0:0:
331,20,48527,5,10,0:0:0:0:
331,20,48690,2,0,P|386:18|431:53,1,115.000002193451,2|0,0:0|0:0,0:0:0:0:
458,110,49179,1,10,0:0:0:0:
458,110,49342,2,0,P|459:165|424:210,1,115.000002193451,2|2,0:0|0:0,0:0:0:0:
369,227,49831,2,0,L|310:210,1,57.5000010967255,10|2,0:0|0:0,0:0:0:0:
259,193,50157,1,0,3:0:0:0:
173,116,50483,1,8,0:0:0:0:
79,183,50810,2,0,L|58:237,1,57.5000010967255,0|0,3:0|3:0,0:0:0:0:
73,291,51136,1,8,0:0:0:0:
173,347,51462,6,0,P|213:304|203:250,1,115.000002193451,4|10,3:1|0:0,0:0:0:0:
161,145,52114,2,0,L|186:87,1,57.5000010967255,2|0,3:2|0:0,0:0:0:0:
227,55,52440,1,10,0:0:0:0:
323,116,52766,2,0,P|350:111|380:107,1,57.5000010967255,2|0,3:2|0:0,0:0:0:0:
429,77,53092,2,0,P|416:137|406:195,1,115.000002193451,10|0,0:0|3:0,0:0:0:0:
447,297,53744,1,8,0:0:0:0:
340,340,54070,6,0,P|285:337|249:290,1,115.000002193451,4|8,0:0|0:0,0:0:0:0:
235,237,54560,1,0,0:0:0:0:
235,237,54723,2,0,P|242:207|248:178,1,57.5000010967255,0|0,1:0|1:0,0:0:0:0:
254,123,55049,1,0,3:0:0:0:
156,62,55375,2,0,P|152:30|144:-3,2,57.5000010967255,8|8|0,0:0|0:0|3:0,0:0:0:0:
62,129,56027,2,0,P|55:157|51:195,1,57.5000010967255,8|8,1:2|1:2,0:0:0:0:
79,235,56353,2,0,P|86:263|90:301,1,57.5000010967255,8|8,0:0|0:0,0:0:0:0:
61,341,56679,5,4,3:1:0:0:
169,379,57005,1,10,0:0:0:0:
249,296,57331,2,0,P|243:269|234:239,1,57.5000010967255,2|0,3:2|0:0,0:0:0:0:
218,185,57657,1,10,0:0:0:0:
268,81,57983,2,0,P|295:70|325:62,1,57.5000010967255,2|0,3:2|0:0,0:0:0:0:
378,74,58310,2,0,P|418:104|407:168,1,115.000002193451,10|0,0:0|3:0,0:0:0:0:
338,252,58962,5,10,0:0:0:0:
338,252,59125,2,0,P|368:290|432:290,1,115.000002193451,2|0,0:0|0:0,0:0:0:0:
479,321,59614,1,10,0:0:0:0:
479,321,59777,2,0,L|495:205,1,115.000002193451,2|2,0:0|0:0,0:0:0:0:
459,161,60266,2,0,L|402:149,1,57.5000010967255,10|2,0:0|0:0,0:0:0:0:
346,138,60592,1,0,3:0:0:0:
247,79,60918,1,8,0:0:0:0:
179,172,61244,2,0,L|195:231,1,57.5000010967255,0|0,3:0|3:0,0:0:0:0:
208,283,61570,1,8,0:0:0:0:
122,359,61896,6,0,B|65:368|65:368|23:323,1,115.000002193451,4|10,3:1|0:0,0:0:0:0:
23,210,62549,2,0,L|33:150,1,57.5000010967255,2|0,3:2|0:0,0:0:0:0:
42,96,62875,1,10,0:0:0:0:
141,37,63201,2,0,L|206:49,1,57.5000010967255,2|0,3:2|0:0,0:0:0:0:
234,91,63527,2,0,L|351:78,1,115.000002193451,10|0,0:0|3:0,0:0:0:0:
458,109,64179,1,8,0:0:0:0:
445,223,64505,6,0,P|407:257|342:241,1,115.000002193451,4|8,3:2|0:0,0:0:0:0:
299,225,64994,1,8,0:0:0:0:
299,225,65157,2,0,P|249:214|200:260,1,115.000002193451,2|8,3:2|0:0,0:0:0:0:
191,309,65646,1,8,0:0:0:0:
191,309,65810,1,2,3:2:0:0:
296,355,66136,1,8,1:2:0:0:
373,269,66462,2,0,P|376:238|376:210,1,57.5000010967255,8|8,0:0|0:3,0:0:0:0:
351,159,66788,2,0,P|320:156|292:156,1,57.5000010967255,4|4,0:3|0:3,0:0:0:0:
259,119,67114,5,6,0:0:0:0:
247,116,73636,6,0,P|237:153|232:182,1,50,0|2,3:0|0:0,0:0:0:0:
198,198,73962,2,0,P|153:214|99:180,1,100,0|0,3:0|3:0,0:0:0:0:
72,104,74614,1,0,3:0:0:0:
72,104,74777,2,0,L|177:70,1,100,2|2,0:0|0:0,0:0:0:0:
202,38,75266,1,0,3:0:0:0:
202,38,75429,2,0,L|236:143,1,100,2|2,0:0|0:0,0:0:0:0:
249,180,75918,1,0,3:0:0:0:
222,274,76244,6,0,P|247:304|305:304,1,100,6|8,3:2|0:0,0:0:0:0:
347,329,76733,1,0,0:0:0:0:
347,329,76896,2,0,P|375:282|363:229,1,100,2|8,3:2|0:0,0:0:0:0:
344,195,77386,1,0,3:0:0:0:
344,195,77549,1,2,1:2:0:0:
256,147,77875,2,0,L|158:163,1,100,10|10,0:0|0:0,0:0:0:0:
107,170,78364,1,0,3:0:0:0:
57,177,78527,1,8,1:0:0:0:
73,78,78853,6,0,L|132:68,1,50,0|2,1:0|1:2,0:0:0:0:
171,62,79179,1,0,3:0:0:0:
244,130,79505,1,0,3:0:0:0:
212,224,79831,1,0,3:0:0:0:
278,298,80157,2,0,P|316:310|372:284,1,100,0|2,3:0|3:2,0:0:0:0:
433,210,80810,2,0,L|422:160,1,50,8|0,0:0|3:0,0:0:0:0:
411,112,81136,1,8,0:0:0:0:
325,60,81462,6,0,L|274:68,1,50,0|2,1:0|1:2,0:0:0:0:
240,102,81788,1,0,3:0:0:0:
292,187,82114,2,0,L|279:298,1,100,0|0,3:0|3:0,0:0:0:0:
195,339,82766,2,0,L|146:325,1,50,0|2,1:0|1:2,0:0:0:0:
99,341,83092,2,0,L|120:244,1,100,0|0,3:0|1:0,0:0:0:0:
94,206,83581,1,0,3:0:0:0:
94,206,83744,1,8,0:0:0:0:
168,139,84070,6,0,L|217:154,1,50,0|2,1:0|1:2,0:0:0:0:
243,195,84396,1,0,3:0:0:0:
335,155,84723,1,0,3:0:0:0:
407,223,85049,1,0,3:0:0:0:
475,149,85375,2,0,B|484:101|484:101|450:56,1,100,0|2,3:0|3:2,0:0:0:0:
356,33,86027,2,0,L|307:45,1,50,8|0,0:0|3:0,0:0:0:0:
276,84,86353,1,8,0:0:0:0:
224,169,86679,6,0,P|165:169|125:135,1,100,0|8,1:0|3:2,0:0:0:0:
97,110,87168,1,8,0:0:0:0:
97,110,87331,2,0,L|110:56,1,50,8|8,3:2|0:0,0:0:0:0:
137,20,87657,2,0,L|191:33,1,50,8|8,3:2|0:0,0:0:0:0:
221,66,87983,6,0,P|236:110|60:194,1,300,2|0,0:0|0:0,0:0:0:0:
