osu file format v14

[General]
AudioFilename: audio.mp3
AudioLeadIn: 0
PreviewTime: 45877
Countdown: 0
SampleSet: Soft
StackLeniency: 0.5
Mode: 0
LetterboxInBreaks: 0
WidescreenStoryboard: 1

[Editor]
DistanceSpacing: 0.6
BeatDivisor: 4
GridSize: 32
TimelineZoom: 3.399999

[Metadata]
Title:Ginsekai (TV Size)
TitleUnicode:銀世界 (TV Size)
Artist:BURNOUT SYNDROMES
ArtistUnicode:BURNOUT SYNDROMES
Creator:Dino99
Version:Houtaro's Insane
Source:ましろのおと
Tags:12BARRY21 Houtaro Mashiro No Oto Those Snow White Notes Anime OP OPENING 2nd op2 Theme Japanese jrock j-rock rock Male Vocal Vocalist BLIZZARD Samisen
BeatmapID:3611899
BeatmapSetID:1760991

[Difficulty]
HPDrainRate:5
CircleSize:4
OverallDifficulty:8
ApproachRate:9
SliderMultiplier:1.76
SliderTickRate:1

[Events]
//Background and Video events
0,0,"BG.jpeg",0,0
Video,98,"Video.mp4"
//Break Periods
2,67314,73036
//Storyboard Layer 0 (Background)
//Storyboard Layer 1 (Fail)
//Storyboard Layer 2 (Pass)
//Storyboard Layer 3 (Foreground)
//Storyboard Layer 4 (Overlay)
//Storyboard Sound Samples

[TimingPoints]
1897,326.086956521739,4,2,1,75,1,0
1897,-133.333333333333,4,2,1,75,0,0
2223,-133.333333333333,4,2,2,65,0,0
3771,-133.333333333333,4,2,1,5,0,0
3853,-133.333333333333,4,2,2,65,0,0
4505,-133.333333333333,4,2,1,75,0,0
4831,-133.333333333333,4,2,2,65,0,0
5810,-133.333333333333,4,2,1,75,0,0
6136,-133.333333333333,4,2,2,65,0,0
6462,-133.333333333333,4,2,1,75,0,0
7032,-133.333333333333,4,2,1,5,0,0
7114,-133.333333333333,4,2,1,75,0,0
7440,-133.333333333333,4,2,2,65,0,0
8989,-133.333333333333,4,2,1,5,0,0
9070,-133.333333333333,4,2,2,65,0,0
9641,-133.333333333333,4,2,1,5,0,0
9723,-133.333333333333,4,2,1,75,0,0
10049,-133.333333333333,4,2,1,50,0,0
10212,-133.333333333333,4,2,1,55,0,0
10375,-133.333333333333,4,2,1,60,0,0
10538,-133.333333333333,4,2,1,65,0,0
10701,-133.333333333333,4,2,1,70,0,0
10864,-133.333333333333,4,2,1,80,0,0
11027,-133.333333333333,4,2,1,50,0,0
11924,-133.333333333333,4,2,1,5,0,0
12005,-71.4285714285714,4,2,1,60,0,0
12250,-71.4285714285714,4,2,1,5,0,0
12331,-86.9565217391304,4,2,1,85,0,1
22277,-86.9565217391304,4,2,1,75,0,1
22766,-111.111111111111,4,2,1,60,0,0
24641,-111.111111111111,4,2,1,5,0,0
24723,-111.111111111111,4,2,1,60,0,0
25293,-111.111111111111,4,2,1,5,0,0
25375,-111.111111111111,4,2,1,60,0,0
28880,-111.111111111111,4,2,1,5,0,0
28962,-111.111111111111,4,2,1,60,0,0
30511,-111.111111111111,4,2,1,5,0,0
30592,-111.111111111111,4,2,1,60,0,0
31896,-111.111111111111,4,2,1,55,0,0
33201,-125,4,2,2,70,0,0
34750,-125,4,2,2,5,0,0
34831,-125,4,2,2,70,0,0
37766,-125,4,2,1,60,0,0
38092,-125,4,2,1,65,0,0
38255,-125,4,2,1,70,0,0
38418,-105.263157894737,4,2,1,75,0,0
41516,-105.263157894737,4,2,1,85,0,0
41679,-105.263157894737,4,2,1,70,0,0
42005,-105.263157894737,4,2,1,85,0,0
42168,-105.263157894737,4,2,1,70,0,0
42494,-105.263157894737,4,2,1,85,0,0
42657,-105.263157894737,4,2,1,70,0,0
43146,-105.263157894737,4,2,1,80,0,0
43636,-500,4,2,1,70,0,0
44858,-500,4,2,1,5,0,0
44940,-111.111111111111,4,2,1,90,0,0
45185,-76.9230769230769,4,2,1,5,0,0
45266,-111.111111111111,4,2,1,90,0,0
45511,-76.9230769230769,4,2,1,5,0,0
45592,-76.9230769230769,4,2,1,90,0,0
45918,-250,4,2,1,60,0,0
46163,-250,4,2,1,5,0,0
46244,-83.3333333333333,4,2,1,90,0,1
47549,-83.3333333333333,4,2,1,90,0,1
51380,-83.3333333333333,4,2,1,5,0,1
51462,-83.3333333333333,4,2,1,90,0,1
52114,-90.9090909090909,4,2,1,90,0,1
52440,-83.3333333333333,4,2,1,90,0,1
53989,-83.3333333333333,4,2,1,5,0,1
54070,-111.111111111111,4,2,1,90,0,1
54723,-111.111111111111,4,2,1,70,0,1
55049,-111.111111111111,4,2,1,90,0,1
55293,-111.111111111111,4,2,1,5,0,1
55375,-111.111111111111,4,2,1,90,0,1
55945,-111.111111111111,4,2,1,5,0,1
56027,-111.111111111111,4,2,1,90,0,1
56598,-111.111111111111,4,2,1,90,0,0
56679,-83.3333333333333,4,2,1,90,0,1
64424,-83.3333333333333,4,2,1,5,0,1
64505,-76.9230769230769,4,2,1,90,0,1
65157,-111.111111111111,4,2,1,90,0,1
66054,-83.3333333333333,4,2,1,5,0,1
66136,-83.3333333333333,4,2,1,90,0,1
67114,-83.3333333333333,4,2,1,50,0,0
73636,-100,4,2,2,70,0,0
74940,-100,4,2,2,75,0,0
76244,-90.9090909090909,4,2,1,80,0,0
76489,-90.9090909090909,4,2,1,5,0,0
76570,-90.9090909090909,4,2,1,80,0,0
77141,-90.9090909090909,4,2,1,5,0,0
77223,-90.9090909090909,4,2,1,80,0,0
77549,-90.9090909090909,4,2,1,60,0,0
77712,-90.9090909090909,4,2,1,80,0,0
78527,-90.9090909090909,4,2,1,50,0,0
78771,-90.9090909090909,4,2,1,5,0,0
78853,-133.333333333333,4,2,1,70,0,0
79179,-133.333333333333,4,2,1,60,0,0
80320,-100,4,2,1,60,0,0
80810,-133.333333333333,4,2,1,60,0,0
81299,-133.333333333333,4,2,1,5,0,0
81462,-133.333333333333,4,2,1,70,0,0
81788,-133.333333333333,4,2,1,60,0,0
82766,-133.333333333333,4,2,1,70,0,0
83092,-133.333333333333,4,2,1,60,0,0
83418,-133.333333333333,4,2,1,70,0,0
84070,-133.333333333333,4,2,1,70,0,0
84396,-133.333333333333,4,2,1,60,0,0
85538,-100,4,2,1,60,0,0
86027,-133.333333333333,4,2,1,60,0,0
86842,-111.111111111111,4,2,1,55,0,0
87005,-111.111111111111,4,2,1,60,0,0
87168,-111.111111111111,4,2,1,65,0,0
87331,-83.3333333333333,4,2,1,70,0,0
87494,-83.3333333333333,4,2,1,75,0,0
87657,-83.3333333333333,4,2,1,80,0,0
87820,-83.3333333333333,4,2,1,85,0,0
87983,-133.333333333333,4,2,1,50,0,0
88962,-133.333333333333,4,2,1,30,0,0

[Colours]
Combo1 : 255,70,163
Combo2 : 164,255,255
Combo3 : 240,233,83
Combo4 : 52,243,67

[HitObjects]
242,10,1897,5,0,1:0:0:0:
448,82,2060,1,2,1:2:0:0:
448,82,2223,2,0,P|477:75|526:69,1,66.0000025177003,0|2,3:0|0:0,0:0:0:0:
369,50,2549,2,0,P|339:56|290:62,1,66.0000025177003,0|2,3:0|0:0,0:0:0:0:
391,197,2875,2,0,P|384:167|378:118,1,66.0000025177003,0|2,3:0|0:0,0:0:0:0:
473,160,3201,2,0,P|477:192|484:224,1,66.0000025177003,0|2,3:0|0:0,0:0:0:0:
299,188,3527,2,0,P|306:220|310:253,1,66.0000025177003,0|2,3:0|0:0,0:0:0:0:
405,280,3853,2,0,P|411:309|417:358,1,66.0000025177003,8|0,0:0|0:0,0:0:0:0:
418,357,4098,1,8,0:0:0:0:
420,369,4179,1,8,3:2:0:0:
494,310,4342,1,2,0:0:0:0:
391,197,4505,5,0,1:0:0:0:
322,346,4668,1,2,1:2:0:0:
322,346,4831,2,0,P|289:347|261:331,1,66.0000025177003,0|2,3:0|0:0,0:0:0:0:
180,360,5157,2,0,P|160:333|157:301,1,66.0000025177003,0|2,3:0|0:0,0:0:0:0:
85,257,5483,2,0,P|95:225|119:204,1,66.0000025177003,0|2,3:0|0:0,0:0:0:0:
269,96,5810,5,0,1:0:0:0:
98,60,5973,1,2,1:2:0:0:
98,60,6136,2,0,P|104:89|110:138,1,66.0000025177003,0|2,3:0|0:0,0:0:0:0:
281,177,6462,1,0,1:0:0:0:
436,36,6625,1,0,1:0:0:0:
436,36,6706,1,8,0:0:0:0:
436,36,6788,2,0,P|440:65|452:113,1,66.0000025177003,8|2,0:0|0:0,0:0:0:0:
493,320,7114,5,0,1:0:0:0:
296,265,7277,1,2,1:2:0:0:
296,265,7440,2,0,P|303:297|308:329,1,66.0000025177003,0|2,3:0|0:0,0:0:0:0:
375,227,7766,2,0,P|367:194|362:162,1,66.0000025177003,0|2,3:0|0:0,0:0:0:0:
211,251,8092,2,0,P|206:218|198:186,1,66.0000025177003,0|2,3:0|0:0,0:0:0:0:
394,307,8418,2,0,P|426:299|458:294,1,66.0000025177003,0|2,3:0|0:0,0:0:0:0:
225,338,8744,2,0,P|192:345|160:350,1,66.0000025177003,0|2,3:0|0:0,0:0:0:0:
282,182,9070,2,0,P|274:149|269:117,1,66.0000025177003,8|0,0:0|0:0,0:0:0:0:
267,104,9315,1,8,0:0:0:0:
265,93,9396,2,0,P|259:60|252:28,1,66.0000025177003,8|2,0:0|0:0,0:0:0:0:
48,98,9723,6,0,P|56:151|69:203,1,99.0000037765504,0|0,1:0|3:0,0:0:0:0:
20,259,10049,1,8,3:2:0:0:
25,272,10130,1,8,0:0:0:0:
35,283,10212,1,8,0:0:0:0:
50,294,10293,1,8,0:0:0:0:
72,301,10375,1,8,3:2:0:0:
98,303,10456,1,8,0:0:0:0:
126,295,10538,1,8,0:0:0:0:
151,275,10619,1,8,0:0:0:0:
182,257,10701,1,8,3:2:0:0:
218,245,10782,1,8,0:0:0:0:
260,251,10864,1,8,0:0:0:0:
296,279,10945,1,8,0:0:0:0:
312,325,11027,1,2,0:0:0:0:
289,373,12005,6,0,P|308:275|329:169,1,184.799994360352,8|0,0:1|0:0,0:0:0:0:
260,134,12331,1,6,3:2:0:0:
498,136,12494,5,2,0:0:0:0:
498,136,12576,1,2,0:0:0:0:
498,136,12657,2,0,P|450:152|399:169,1,101.200001930237,10|0,0:0|0:0,0:0:0:0:
236,210,12983,1,2,3:2:0:0:
358,17,13146,5,2,3:2:0:0:
358,17,13228,1,2,0:0:0:0:
358,17,13309,2,0,P|349:64|334:143,1,101.200001930237,10|0,0:0|0:0,0:0:0:0:
395,248,13636,1,2,3:2:0:0:
183,67,13799,5,2,3:2:0:0:
183,67,13880,1,2,0:0:0:0:
183,67,13962,2,0,P|221:100|263:137,1,101.200001930237,10|0,0:0|0:0,0:0:0:0:
305,291,14288,2,0,P|315:241|325:192,1,101.200001930237,0|2,3:0|3:2,0:0:0:0:
339,116,14614,1,8,0:0:0:0:
339,116,14777,1,2,0:0:0:0:
395,247,14940,5,2,3:2:0:0:
226,345,15103,1,2,0:0:0:0:
226,345,15185,1,2,0:0:0:0:
226,345,15266,2,0,P|167:315|167:263,1,101.200001930237,10|0,0:0|0:0,0:0:0:0:
305,291,15592,5,2,3:2:0:0:
69,284,15755,1,2,3:2:0:0:
69,284,15837,1,2,0:0:0:0:
69,284,15918,2,0,P|59:218|102:188,1,101.200001930237,10|0,0:0|0:0,0:0:0:0:
272,192,16244,6,0,P|220:199|139:211,1,101.200001930237,2|0,3:2|3:0,0:0:0:0:
0,115,16570,2,0,P|52:108|133:96,1,101.200001930237,10|0,0:0|0:0,0:0:0:0:
263,79,16896,1,2,3:2:0:0:
172,206,17060,1,0,3:0:0:0:
75,18,17223,1,10,0:0:0:0:
185,116,17386,1,2,0:0:0:0:
328,26,17549,5,6,3:2:0:0:
412,115,17712,1,2,0:0:0:0:
412,115,17793,1,2,0:0:0:0:
412,115,17875,2,0,P|464:108|545:96,1,101.200001930237,10|0,0:0|0:0,0:0:0:0:
381,261,18201,5,2,3:2:0:0:
272,191,18364,1,2,3:2:0:0:
272,191,18445,1,2,0:0:0:0:
272,191,18527,2,0,P|220:198|139:210,1,101.200001930237,10|0,0:0|0:0,0:0:0:0:
286,325,18853,5,2,3:2:0:0:
381,261,19016,1,2,3:2:0:0:
381,261,19097,1,2,0:0:0:0:
381,261,19179,2,0,P|433:254|514:242,1,101.200001930237,10|0,0:0|0:0,0:0:0:0:
223,383,19505,2,0,P|198:335|229:272,1,101.200001930237,0|2,3:0|3:2,0:0:0:0:
272,191,19831,1,8,0:0:0:0:
379,348,19994,1,2,0:0:0:0:
120,288,20157,6,0,P|68:295|-13:307,1,101.200001930237,0|2,3:0|0:0,0:0:0:0:
272,191,20483,2,0,P|322:183|372:177,1,101.200001930237,8|2,0:0|0:0,0:0:0:0:
140,93,20810,2,0,P|90:101|40:107,1,101.200001930237,0|2,3:0|3:2,0:0:0:0:
173,193,21136,1,10,0:0:0:0:
222,22,21299,1,0,0:0:0:0:
316,101,21462,1,2,3:2:0:0:
316,101,21543,1,0,0:0:0:0:
316,101,21625,1,2,3:2:0:0:
466,0,21788,6,0,P|490:43|479:91,1,101.200001930237,8|0,0:0|3:0,0:0:0:0:
372,177,22114,2,0,P|361:225|385:268,1,101.200001930237,4|8,3:3|0:0,0:0:0:0:
393,276,22358,1,8,0:0:0:0:
402,281,22440,2,0,P|451:273|502:266,1,101.200001930237,8|4,0:3|0:3,0:0:0:0:
368,375,22766,5,8,1:3:0:0:
368,375,22929,1,8,1:3:0:0:
287,245,23092,2,0,P|238:253|187:260,1,79.1999975830079,0|2,3:0|0:0,0:0:0:0:
164,328,23418,2,0,P|106:300|105:260,1,79.1999975830079,0|2,3:0|0:0,0:0:0:0:
21,308,23744,2,0,P|10:244|42:220,1,79.1999975830079,0|2,3:0|0:0,0:0:0:0:
90,122,24070,6,0,P|96:161|102:200,1,79.1999975830079,0|2,3:0|0:0,0:0:0:0:
208,257,24396,2,0,P|201:217|186:127,1,118.799996374512,0|0,3:0|0:0,0:0:0:0:
196,127,24723,2,0,P|189:87|183:48,1,79.1999975830079,0|2,3:0|0:0,0:0:0:0:
281,173,25049,1,0,3:0:0:0:
350,59,25212,1,2,0:0:0:0:
512,129,25375,5,8,3:2:0:0:
512,129,25538,1,10,0:0:0:0:
377,219,25701,2,0,P|370:179|364:140,1,79.1999975830079,0|2,3:0|0:0,0:0:0:0:
350,59,26027,1,0,3:0:0:0:
433,85,26190,1,2,0:0:0:0:
281,173,26353,1,0,3:0:0:0:
364,141,26516,1,2,0:0:0:0:
455,266,26679,5,8,3:2:0:0:
455,266,26842,1,10,0:0:0:0:
321,363,27005,2,0,P|314:323|308:284,1,79.1999975830079,0|2,3:0|0:0,0:0:0:0:
72,234,27331,1,8,3:2:0:0:
72,234,27494,1,10,0:0:0:0:
203,339,27657,2,0,P|196:299|190:260,1,79.1999975830079,0|2,3:0|0:0,0:0:0:0:
245,119,27983,5,8,3:2:0:0:
245,119,28146,1,10,0:0:0:0:
466,88,28310,2,0,P|424:61|387:69,1,79.1999975830079,0|2,3:0|0:0,0:0:0:0:
344,2,28636,2,0,P|297:20|283:55,1,79.1999975830079,0|2,3:0|0:0,0:0:0:0:
318,197,28962,2,0,P|324:157|330:118,1,79.1999975830079,0|2,3:0|0:0,0:0:0:0:
203,48,29288,5,0,3:0:0:0:
245,119,29451,1,2,0:0:0:0:
144,200,29614,1,0,3:0:0:0:
216,283,29777,2,0,P|223:244|230:205,1,79.1999975830079,2|0,0:0|3:0,0:0:0:0:
92,384,30103,1,2,0:0:0:0:
204,366,30266,1,0,3:0:0:0:
125,294,30429,1,2,0:0:0:0:
297,338,30592,5,8,3:2:0:0:
297,338,30755,1,8,0:0:0:0:
512,250,30918,2,0,P|481:225|442:226,1,79.1999975830079,0|0,3:0|0:0,0:0:0:0:
387,366,31244,1,8,3:2:0:0:
387,366,31407,1,8,0:0:0:0:
355,202,31570,2,0,P|362:241|368:280,1,79.1999975830079,0|0,3:0|0:0,0:0:0:0:
471,342,31896,5,0,1:0:0:0:
280,254,32060,1,0,3:0:0:0:
280,254,32141,1,8,0:0:0:0:
280,254,32223,1,8,0:0:0:0:
430,154,32386,1,0,3:0:0:0:
430,154,32467,1,8,0:0:0:0:
430,154,32549,1,8,0:0:0:0:
355,202,32712,1,0,3:0:0:0:
506,112,32875,2,0,P|499:72|492:33,1,79.1999975830079,0|0,1:0|0:0,0:0:0:0:
322,106,33201,6,0,P|328:144|335:184,1,70.4,0|2,3:0|0:0,0:0:0:0:
190,106,33527,2,0,P|183:144|176:184,1,70.4,0|2,3:0|0:0,0:0:0:0:
352,141,33853,2,0,P|342:180|330:218,1,70.4,0|2,3:0|0:0,0:0:0:0:
159,141,34179,2,0,P|169:180|181:218,1,70.4,0|2,3:0|0:0,0:0:0:0:
258,384,34505,2,0,L|257:266,1,105.6,0|0,3:0|0:0,0:0:0:0:
258,258,34831,2,0,L|257:187,1,70.4,0|2,3:0|0:0,0:0:0:0:
347,319,35157,1,0,3:0:0:0:
162,319,35320,2,0,P|138:293|113:270,2,70.4,2|0|2,0:0|3:0|0:0,0:0:0:0:
190,106,35810,6,0,P|155:93|115:79,1,70.4,0|2,3:0|0:0,0:0:0:0:
322,106,36136,2,0,P|356:93|396:79,1,70.4,0|2,3:0|0:0,0:0:0:0:
148,179,36462,2,0,P|113:187|79:195,1,70.4,0|2,3:0|0:0,0:0:0:0:
364,179,36788,2,0,P|398:187|432:195,1,70.4,0|2,3:0|0:0,0:0:0:0:
255,375,37114,1,0,3:0:0:0:
258,258,37277,2,0,L|257:187,1,70.4,2|0,0:0|3:0,0:0:0:0:
345,318,37603,1,2,0:0:0:0:
167,318,37766,2,0,P|125:292|121:261,1,70.4,0|0,1:0|3:0,0:0:0:0:
6,205,38092,5,8,0:0:0:0:
2,184,38174,1,8,0:0:0:0:
5,163,38255,1,8,0:0:0:0:
13,143,38337,1,8,0:0:0:0:
29,134,38418,2,0,P|71:127|112:118,1,83.5999977676392,6|0,3:2|0:0,0:0:0:0:
173,185,38744,2,0,P|131:192|90:201,1,83.5999977676392,10|0,0:0|0:0,0:0:0:0:
204,100,39070,1,2,3:2:0:0:
263,168,39233,2,0,P|322:158|381:145,1,83.5999977676392,2|8,3:2|0:0,0:0:0:0:
425,140,39560,1,2,0:0:0:0:
290,85,39723,5,2,3:2:0:0:
390,225,39886,1,2,0:0:0:0:
479,71,40049,1,10,0:0:0:0:
357,0,40212,2,0,P|366:59|379:118,1,83.5999977676392,2|0,0:0|3:0,0:0:0:0:
478,212,40538,1,2,3:2:0:0:
425,140,40701,1,8,0:0:0:0:
312,234,40864,1,2,0:0:0:0:
427,384,41027,6,0,P|436:324|449:265,1,83.5999977676392,0|0,3:0|3:0,0:0:0:0:
443,293,41271,1,8,0:0:0:0:
444,284,41353,1,8,0:0:0:0:
251,332,41516,2,0,P|241:272|228:213,1,83.5999977676392,8|0,0:3|3:0,0:0:0:0:
235,241,41760,1,8,0:0:0:0:
233,231,41842,1,8,0:0:0:0:
32,371,42005,2,0,P|41:311|54:252,1,83.5999977676392,4|0,0:3|3:0,0:0:0:0:
48,280,42249,1,8,0:0:0:0:
49,271,42331,1,8,0:0:0:0:
137,183,42494,6,0,P|129:141|123:100,2,83.5999977676392,4|4|8,0:3|0:3|0:0,0:0:0:0:
139,191,42902,1,8,0:0:0:0:
141,198,42983,1,8,0:0:0:0:
109,11,43146,1,8,0:3:0:0:
198,47,43310,1,4,0:3:0:0:
40,67,43473,1,4,0:3:0:0:
143,206,43636,1,4,0:0:0:0:
198,47,44940,6,0,P|270:50|310:102,1,118.799996374512,4|0,3:3|0:0,0:0:0:0:
319,52,45266,2,0,P|357:112|338:175,1,118.799996374512,8|0,3:3|0:0,0:0:0:0:
362,181,45592,1,0,3:0:0:0:
97,287,45918,6,0,P|95:313|108:335,1,52.8
173,376,46244,2,0,B|223:396|281:347|233:313|305:256|370:303,1,211.199993554688,4|10,3:1|0:0,0:0:0:0:
512,248,46733,1,0,0:0:0:0:
413,380,46896,2,0,P|424:321|439:261,1,105.599996777344,2|0,3:2|0:0,0:0:0:0:
356,113,47223,2,0,P|372:181|384:240,1,105.599996777344,10|0,0:0|0:0,0:0:0:0:
506,0,47549,6,0,P|488:92|397:104,1,158.399995166016,2|0,3:2|0:0,0:0:0:0:
356,113,47875,2,0,P|288:97|229:85,1,105.599996777344,10|0,0:0|0:0,0:0:0:0:
29,18,48201,1,0,3:0:0:0:
164,120,48364,1,0,0:0:0:0:
273,8,48527,1,10,0:0:0:0:
74,92,48690,5,2,0:0:0:0:
74,92,48853,2,0,P|75:165|128:194,1,105.599996777344,0|0,3:0|0:0,0:0:0:0:
268,241,49179,1,10,0:0:0:0:
164,120,49342,1,2,0:0:0:0:
73,281,49505,2,0,P|124:268|175:257,1,105.599996777344,0|2,3:0|0:0,0:0:0:0:
389,359,49831,1,10,0:0:0:0:
232,322,49994,1,2,0:0:0:0:
402,363,50157,6,0,B|444:343|444:343|474:196,1,158.399995166016,0|0,3:0|0:0,0:0:0:0:
481,151,50483,2,0,P|430:164|379:175,1,105.599996777344,8|0,0:0|0:0,0:0:0:0:
278,215,50810,1,0,3:0:0:0:
208,143,50973,1,0,3:0:0:0:
202,0,51136,2,0,P|264:30|273:80,1,105.599996777344,8|0,0:0|0:0,0:0:0:0:
0,122,51462,6,0,P|84:100|169:82,1,158.399995166016,4|0,3:1|0:0,0:0:0:0:
208,143,51788,2,0,P|218:210|183:247,1,105.599996777344,10|0,0:0|0:0,0:0:0:0:
105,382,52114,2,0,B|122:312|132:281|132:281|124:265|108:230,1,145.200004431152,2|0,3:2|0:0,0:0:0:0:
62,185,52440,2,0,P|34:223|54:292,1,105.599996777344,10|0,0:0|0:0,0:0:0:0:
304,200,52766,6,0,P|388:178|473:160,1,158.399995166016,2|0,3:2|0:0,0:0:0:0:
512,105,53092,2,0,P|521:54|493:12,1,105.599996777344,10|0,0:0|0:0,0:0:0:0:
288,114,53418,1,0,3:0:0:0:
370,147,53581,1,0,0:0:0:0:
432,85,53744,1,8,0:0:0:0:
226,174,53907,1,0,0:0:0:0:
226,174,54070,2,0,P|166:187|81:208,1,118.799996374512,4|0,3:2|0:0,0:0:0:0:
84,205,54396,1,8,0:0:0:0:
256,274,54560,5,0,3:0:0:0:
256,266,54641,1,8,0:0:0:0:
256,258,54723,1,0,1:0:0:0:
257,79,54886,1,0,1:0:0:0:
462,218,55049,2,0,L|370:242,1,79.1999975830079,0|0,3:0|0:0,0:0:0:0:
336,313,55375,5,8,0:0:0:0:
383,133,55538,1,8,0:0:0:0:
176,313,56027,5,8,1:2:0:0:
129,133,56190,1,8,1:2:0:0:
21,298,56353,5,8,0:0:0:0:
3,276,56435,1,8,0:0:0:0:
0,245,56516,1,8,0:0:0:0:
13,221,56598,1,8,0:0:0:0:
37,207,56679,2,0,P|84:219|149:237,1,105.599996777344,4|0,3:1|0:0,0:0:0:0:
386,175,57005,2,0,P|335:160|283:147,1,105.599996777344,10|0,0:0|0:0,0:0:0:0:
234,262,57331,2,0,B|253:227|222:180|193:212|157:154|198:110,1,158.399995166016,2|0,3:2|0:0,0:0:0:0:
121,88,57657,2,0,P|161:24|225:33,1,105.599996777344,10|0,0:0|0:0,0:0:0:0:
376,34,57983,6,0,P|325:49|273:62,1,105.599996777344,2|0,3:2|0:0,0:0:0:0:
157,256,58310,2,0,P|105:268|55:283,1,105.599996777344,10|0,0:0|0:0,0:0:0:0:
178,384,58636,2,0,P|227:357|205:235,1,158.399995166016,0|0,3:0|0:0,0:0:0:0:
157,256,58962,1,10,0:0:0:0:
316,361,59125,1,2,0:0:0:0:
419,229,59288,2,0,P|368:244|316:256,1,105.599996777344,0|0,3:0|0:0,0:0:0:0:
424,337,59614,1,10,0:0:0:0:
500,213,59777,1,2,0:0:0:0:
438,58,59940,2,0,P|414:129|435:155,1,105.599996777344,0|2,3:0|0:0,0:0:0:0:
329,161,60266,1,10,0:0:0:0:
504,298,60429,1,2,0:0:0:0:
319,151,60592,6,0,B|289:128|289:128|228:142|139:159,1,158.399995166016,0|0,3:0|0:0,0:0:0:0:
124,219,60918,2,0,P|72:229|20:240,1,105.599996777344,8|0,0:0|0:0,0:0:0:0:
209,229,61244,1,0,3:0:0:0:
90,142,61407,1,0,3:0:0:0:
11,324,61570,2,0,P|88:307|166:292,1,158.399995166016,8|0,0:0|0:0,0:0:0:0:
234,338,61896,6,0,P|278:274|342:281,1,105.599996777344,4|0,3:1|0:0,0:0:0:0:
496,292,62223,2,0,B|450:320|403:354|403:354|358:341,1,158.399995166016,10|0,0:0|0:0,0:0:0:0:
377,268,62549,2,0,P|365:217|355:165,1,105.599996777344,2|0,3:2|0:0,0:0:0:0:
447,17,62875,2,0,P|459:68|469:120,1,105.599996777344,10|0,0:0|0:0,0:0:0:0:
225,182,63201,2,0,P|210:104|192:26,1,158.399995166016,2|0,3:2|0:0,0:0:0:0:
121,0,63527,2,0,P|104:48|128:94,1,105.599996777344,10|0,0:0|0:0,0:0:0:0:
348,139,63853,1,0,3:0:0:0:
236,96,64016,1,0,0:0:0:0:
135,177,64179,1,8,0:0:0:0:
290,377,64342,5,0,0:0:0:0:
290,377,64505,2,0,P|275:299|257:221,1,114.399994763184,4|0,3:2|0:0,0:0:0:0:
167,358,64831,1,8,0:0:0:0:
182,327,64913,1,8,0:0:0:0:
185,293,64994,1,8,0:0:0:0:
175,259,65076,1,8,0:0:0:0:
152,232,65157,2,0,P|108:209|72:216,1,79.1999975830079,2|0,3:2|0:0,0:0:0:0:
404,307,65483,1,8,0:0:0:0:
378,285,65565,1,8,0:0:0:0:
361,255,65646,1,8,0:0:0:0:
357,220,65728,1,8,0:0:0:0:
367,186,65809,2,0,P|398:147|433:139,1,79.1999975830079,2|0,3:2|0:0,0:0:0:0:
220,34,66136,6,0,P|232:100|247:167,1,105.599996777344,8|0,1:2|0:0,0:0:0:0:
243,147,66380,1,8,0:0:0:0:
245,157,66462,1,8,0:0:0:0:
316,101,66625,1,8,0:3:0:0:
150,134,66788,1,4,0:3:0:0:
328,90,66951,1,4,0:3:0:0:
135,131,67114,1,6,0:0:0:0:
71,88,73636,6,0,P|114:78|156:68,1,88,0|2,3:0|0:0,0:0:0:0:
199,0,73962,2,0,P|259:21|270:52,1,88,0|2,3:0|0:0,0:0:0:0:
362,21,74288,2,0,P|350:63|342:106,1,88,0|2,3:0|0:0,0:0:0:0:
329,188,74614,1,0,3:0:0:0:
412,158,74777,1,2,0:0:0:0:
481,262,74940,2,0,P|438:252|395:242,1,88,0|2,3:0|0:0,0:0:0:0:
229,258,75266,2,0,P|271:267|314:277,1,88,0|2,3:0|0:0,0:0:0:0:
475,350,75592,2,0,P|432:340|389:330,1,88,0|2,3:0|0:0,0:0:0:0:
243,168,75918,2,0,P|286:178|329:188,1,88,0|2,3:0|0:0,0:0:0:0:
198,335,76244,6,0,B|161:342|127:295|163:283|136:243|101:244,1,145.200004431152,6|0,3:2|0:0,0:0:0:0:
94,232,76570,2,0,P|51:222|-16:209,1,96.8000029541017,8|0,0:0|0:0,0:0:0:0:
149,31,76896,2,0,P|153:100|98:142,1,145.200004431152,2|0,3:2|3:0,0:0:0:0:
94,154,77223,2,0,P|46:144|0:133,1,96.8000029541017,8|0,0:0|3:0,0:0:0:0:
236,47,77549,6,0,P|279:57|339:71,1,96.8000029541017,2|0,1:2|3:0,0:0:0:0:
343,71,77793,1,8,0:0:0:0:
352,73,77875,1,10,0:0:0:0:
480,111,78038,1,0,3:0:0:0:
480,111,78119,1,8,0:0:0:0:
480,111,78201,1,10,0:0:0:0:
285,183,78364,1,0,3:0:0:0:
366,254,78527,2,0,P|399:193|384:161,1,96.8000029541017,8|0,1:0|0:0,0:0:0:0:
236,47,78853,5,0,1:0:0:0:
159,227,79016,1,2,1:2:0:0:
77,168,79179,1,0,3:0:0:0:
77,168,79505,5,0,3:0:0:0:
77,168,79831,5,0,3:0:0:0:
77,168,80157,5,0,3:0:0:0:
136,105,80320,2,0,B|102:77|102:77|45:88,2,88,2|2|2,0:0|3:2|0:0,0:0:0:0:
174,181,80810,2,0,P|162:222|155:268,1,66.0000025177003,8|0,0:0|3:0,0:0:0:0:
165,271,81054,1,8,0:0:0:0:
165,271,81136,2,0,P|196:291|233:281,1,66.0000025177003,8|0,0:0|0:0,0:0:0:0:
276,47,81462,5,0,1:0:0:0:
353,227,81625,1,2,1:2:0:0:
435,168,81788,1,0,3:0:0:0:
435,168,82114,5,0,3:0:0:0:
435,168,82440,5,0,3:0:0:0:
435,168,82766,5,0,1:0:0:0:
358,348,82929,1,2,1:2:0:0:
455,314,83092,1,0,3:0:0:0:
455,314,83418,5,0,1:0:0:0:
282,234,83581,1,0,3:0:0:0:
282,234,83663,1,8,0:0:0:0:
282,234,83744,1,8,0:0:0:0:
282,234,84070,5,0,1:0:0:0:
119,369,84233,1,2,1:2:0:0:
47,306,84396,1,0,3:0:0:0:
47,306,84723,5,0,3:0:0:0:
47,306,85049,5,0,3:0:0:0:
47,306,85375,5,0,3:0:0:0:
103,241,85538,2,0,B|69:213|69:213|12:224,2,88,2|2|2,0:0|3:2|0:0,0:0:0:0:
171,298,86027,2,0,P|197:286|256:270,1,66.0000025177003,8|0,0:0|3:0,0:0:0:0:
262,274,86271,1,8,0:0:0:0:
262,274,86353,2,0,P|298:289|309:326,1,66.0000025177003,8|0,0:0|0:0,0:0:0:0:
400,384,86679,6,0,P|402:302|429:286,1,99.0000037765504,0|8,1:0|0:0,0:0:0:0:
406,281,87005,1,8,3:2:0:0:
419,265,87087,1,8,0:0:0:0:
437,256,87168,1,8,0:0:0:0:
453,243,87250,1,8,0:0:0:0:
475,219,87331,1,8,3:2:0:0:
493,192,87413,1,8,0:0:0:0:
501,161,87494,1,8,0:0:0:0:
492,130,87576,1,8,0:0:0:0:
470,107,87657,1,8,3:2:0:0:
439,101,87739,1,8,0:0:0:0:
411,114,87820,1,8,0:0:0:0:
396,137,87902,1,8,0:0:0:0:
399,145,87983,1,2,0:0:0:0:
