osu file format v14

[General]
AudioFilename: audio.mp3
AudioLeadIn: 0
PreviewTime: 45877
Countdown: 0
SampleSet: Soft
StackLeniency: 0.5
Mode: 0
LetterboxInBreaks: 0
WidescreenStoryboard: 1

[Editor]
DistanceSpacing: 1.2
BeatDivisor: 4
GridSize: 32
TimelineZoom: 1.5

[Metadata]
Title:Ginsekai (TV Size)
TitleUnicode:銀世界 (TV Size)
Artist:BURNOUT SYNDROMES
ArtistUnicode:BURNOUT SYNDROMES
Creator:Dino99
Version:Hard
Source:ましろのおと
Tags:12BARRY21 Houtaro Mashiro No Oto Those Snow White Notes Anime OP OPENING 2nd op2 Theme Japanese jrock j-rock rock Male Vocal Vocalist BLIZZARD Samisen
BeatmapID:3606726
BeatmapSetID:1760991

[Difficulty]
HPDrainRate:4.6
CircleSize:3.6
OverallDifficulty:6.2
ApproachRate:8
SliderMultiplier:1.44
SliderTickRate:1

[Events]
//Background and Video events
Video,98,"Video.mp4"
0,0,"BG.jpeg",0,0
//Break Periods
//Storyboard Layer 0 (Background)
//Storyboard Layer 1 (Fail)
//Storyboard Layer 2 (Pass)
//Storyboard Layer 3 (Foreground)
//Storyboard Layer 4 (Overlay)
//Storyboard Sound Samples

[TimingPoints]
1897,326.086956521739,4,2,1,75,1,0
1897,-117.647058823529,4,2,1,75,0,0
2223,-117.647058823529,4,2,2,65,0,0
3771,-117.647058823529,4,2,1,5,0,0
3853,-117.647058823529,4,2,2,65,0,0
4342,-117.647058823529,4,2,1,5,0,0
4505,-117.647058823529,4,2,1,75,0,0
4831,-117.647058823529,4,2,2,65,0,0
5810,-117.647058823529,4,2,1,75,0,0
6136,-117.647058823529,4,2,2,65,0,0
6462,-117.647058823529,4,2,1,75,0,0
7032,-117.647058823529,4,2,1,5,0,0
7114,-117.647058823529,4,2,1,75,0,0
7440,-117.647058823529,4,2,2,65,0,0
8989,-117.647058823529,4,2,1,5,0,0
9070,-117.647058823529,4,2,2,65,0,0
9641,-117.647058823529,4,2,1,5,0,0
9723,-117.647058823529,4,2,1,75,0,0
10049,-117.647058823529,4,2,1,50,0,0
10212,-117.647058823529,4,2,1,55,0,0
10375,-117.647058823529,4,2,1,60,0,0
10538,-117.647058823529,4,2,1,65,0,0
10701,-117.647058823529,4,2,1,70,0,0
10864,-117.647058823529,4,2,1,80,0,0
11027,-117.647058823529,4,2,1,50,0,0
11924,-117.647058823529,4,2,1,5,0,0
12005,-80,4,2,1,60,0,0
12250,-80,4,2,1,5,0,0
12331,-90.9090909090909,4,2,1,85,0,1
22277,-90.9090909090909,4,2,1,75,0,1
22766,-117.647058823529,4,2,1,60,0,0
25293,-117.647058823529,4,2,1,5,0,0
25375,-117.647058823529,4,2,1,60,0,0
28880,-117.647058823529,4,2,1,5,0,0
28962,-117.647058823529,4,2,1,60,0,0
30511,-117.647058823529,4,2,1,5,0,0
30592,-117.647058823529,4,2,1,60,0,0
31896,-117.647058823529,4,2,1,55,0,0
33201,-117.647058823529,4,2,2,70,0,0
37766,-117.647058823529,4,2,1,60,0,0
38092,-117.647058823529,4,2,1,65,0,0
38255,-117.647058823529,4,2,1,70,0,0
38418,-100,4,2,1,75,0,0
41516,-100,4,2,1,85,0,0
41679,-100,4,2,1,70,0,0
42005,-100,4,2,1,85,0,0
42168,-100,4,2,1,70,0,0
42494,-100,4,2,1,85,0,0
42657,-100,4,2,1,70,0,0
43146,-100,4,2,1,80,0,0
43636,-100,4,2,1,70,0,0
44858,-100,4,2,1,5,0,0
44940,-100,4,2,1,90,0,0
45185,-100,4,2,1,5,0,0
45266,-100,4,2,1,90,0,0
45511,-100,4,2,1,5,0,0
45592,-200,4,2,1,90,0,0
45918,-100,4,2,1,60,0,0
46163,-100,4,2,1,5,0,0
46244,-86.9565217391304,4,2,1,90,0,1
51380,-86.9565217391304,4,2,1,5,0,1
51462,-86.9565217391304,4,2,1,90,0,1
53989,-86.9565217391304,4,2,1,5,0,1
54070,-100,4,2,1,90,0,1
54723,-100,4,2,1,70,0,1
55049,-100,4,2,1,90,0,1
55293,-100,4,2,1,5,0,1
55375,-100,4,2,1,90,0,1
55945,-100,4,2,1,5,0,1
56027,-100,4,2,1,90,0,1
56598,-100,4,2,1,90,0,0
56679,-86.9565217391304,4,2,1,90,0,1
64424,-86.9565217391304,4,2,1,5,0,1
64505,-86.9565217391304,4,2,1,90,0,1
65157,-86.9565217391304,4,2,1,90,0,1
66136,-86.9565217391304,4,2,1,90,0,1
67114,-100,4,2,1,50,0,0
71027,-100,4,2,1,30,0,0
72331,-100,4,2,1,40,0,0
73636,-100,4,2,2,70,0,0
74940,-100,4,2,2,75,0,0
76244,-100,4,2,1,80,0,0
76489,-100,4,2,1,5,0,0
76570,-100,4,2,1,80,0,0
77549,-100,4,2,1,60,0,0
77712,-100,4,2,1,80,0,0
78527,-86.9565217391304,4,2,1,50,0,0
78771,-86.9565217391304,4,2,1,5,0,0
78853,-117.647058823529,4,2,1,70,0,0
79179,-117.647058823529,4,2,1,60,0,0
80320,-117.647058823529,4,2,1,60,0,0
80810,-117.647058823529,4,2,1,60,0,0
81299,-117.647058823529,4,2,1,5,0,0
81462,-117.647058823529,4,2,1,70,0,0
81788,-117.647058823529,4,2,1,60,0,0
82766,-117.647058823529,4,2,1,70,0,0
83092,-117.647058823529,4,2,1,60,0,0
83418,-117.647058823529,4,2,1,70,0,0
84070,-117.647058823529,4,2,1,70,0,0
84396,-117.647058823529,4,2,1,60,0,0
85538,-117.647058823529,4,2,1,60,0,0
86027,-117.647058823529,4,2,1,60,0,0
86842,-117.647058823529,4,2,1,55,0,0
87005,-117.647058823529,4,2,1,60,0,0
87168,-117.647058823529,4,2,1,65,0,0
87331,-117.647058823529,4,2,1,70,0,0
87494,-117.647058823529,4,2,1,75,0,0
87657,-117.647058823529,4,2,1,80,0,0
87820,-117.647058823529,4,2,1,85,0,0
87983,-133.333333333333,4,2,1,50,0,0
88962,-133.333333333333,4,2,1,30,0,0

[Colours]
Combo1 : 255,70,163
Combo2 : 164,255,255
Combo3 : 240,233,83
Combo4 : 52,243,67

[HitObjects]
374,39,1897,5,0,1:0:0:0:
456,62,2060,1,2,1:2:0:0:
394,120,2223,6,0,L|380:187,1,61.2000011672974,0|2,3:0|0:0,0:0:0:0:
311,229,2549,2,0,L|251:214,1,61.2000011672974,0|2,3:0|0:0,0:0:0:0:
195,149,2875,2,0,L|135:164,1,61.2000011672974,0|2,3:0|0:0,0:0:0:0:
64,125,3201,5,0,3:0:0:0:
64,125,3364,1,2,0:0:0:0:
14,195,3527,2,0,P|3:238|26:278,1,91.8000017509461,0|0,3:0|0:0,0:0:0:0:
43,289,3853,2,0,L|105:280,1,61.2000011672974,8|0,0:0|0:0,0:0:0:0:
110,286,4098,1,8,0:0:0:0:
116,292,4179,1,8,3:2:0:0:
294,371,4505,5,0,1:0:0:0:
277,286,4668,1,2,1:2:0:0:
357,314,4831,6,0,L|366:248,1,61.2000011672974,0|2,3:0|0:0,0:0:0:0:
435,204,5157,1,0,3:0:0:0:
435,204,5320,2,0,L|500:214,2,61.2000011672974,2|0|2,0:0|3:0|0:0,0:0:0:0:
365,152,5810,5,0,1:0:0:0:
296,203,5973,1,2,1:2:0:0:
285,117,6136,2,0,L|276:54,1,61.2000011672974,0|2,3:0|0:0,0:0:0:0:
193,33,6462,6,0,B|131:42,1,61.2000011672974,0|0,1:0|1:0,0:0:0:0:
123,43,6706,1,8,0:0:0:0:
114,45,6788,1,8,0:0:0:0:
19,216,7114,5,0,1:0:0:0:
102,197,7277,1,2,1:2:0:0:
78,279,7440,6,0,L|95:342,1,61.2000011672974,0|2,3:0|0:0,0:0:0:0:
171,374,7766,2,0,P|228:380|274:338,1,122.400002334595,0|0,3:0|3:0,0:0:0:0:
210,280,8255,1,2,0:0:0:0:
291,252,8418,6,0,L|278:193,1,61.2000011672974,0|2,3:0|0:0,0:0:0:0:
302,110,8744,2,0,P|325:79|377:72,1,91.8000017509461,0|0,3:0|0:0,0:0:0:0:
391,63,9070,2,0,L|400:124,1,61.2000011672974,8|0,0:0|0:0,0:0:0:0:
405,131,9315,1,8,0:0:0:0:
410,138,9396,1,8,0:0:0:0:
478,322,9723,6,0,P|427:308|383:301,1,91.8000017509461,0|0,1:0|3:0,0:0:0:0:
364,282,10049,2,0,P|311:286|267:294,1,91.8000017509461,8|8,3:2|0:0,0:0:0:0:
258,322,10375,1,8,3:2:0:0:
258,322,10456,1,8,0:0:0:0:
258,322,10538,2,0,L|225:319,5,30.6000005836487,8|8|8|8|8|8,0:0|0:0|3:2|0:0|0:0|0:0,0:0:0:0:
190,323,11027,1,2,0:0:0:0:
111,138,11353,5,2,0:0:0:0:
111,138,11516,1,0,0:0:0:0:
188,174,11679,2,0,L|200:83,1,91.8000017509461,2|0,0:0|0:0,0:0:0:0:
216,67,12005,6,0,P|253:108|326:96,1,135,8|0,0:1|0:0,0:0:0:0:
338,75,12331,5,6,3:2:0:0:
427,145,12494,1,2,0:0:0:0:
427,145,12576,1,2,0:0:0:0:
427,145,12657,2,0,L|417:225,1,79.2000024169923,10|0,0:0|0:0,0:0:0:0:
406,326,12983,5,2,3:2:0:0:
325,261,13146,2,0,L|330:218,2,39.6000012084961,2|2|10,3:2|0:0|0:0,0:0:0:0:
406,326,13473,5,0,0:0:0:0:
314,363,13636,1,2,3:2:0:0:
240,306,13799,1,2,3:2:0:0:
240,306,13880,1,2,0:0:0:0:
240,306,13962,2,0,L|163:326,1,79.2000024169923,10|0,0:0|0:0,0:0:0:0:
76,380,14288,6,0,B|40:352|40:352|17:290|68:250,1,158.400004833985,0|8,3:0|0:0,0:0:0:0:
141,180,14777,1,2,0:0:0:0:
235,220,14940,6,0,L|314:201,1,79.2000024169923,2|2,3:2|0:0,0:0:0:0:
333,212,15185,1,2,0:0:0:0:
354,222,15266,2,0,L|433:203,1,79.2000024169923,10|0,0:2|0:0,0:0:0:0:
374,117,15592,6,0,L|355:38,1,79.2000024169923,2|2,3:2|3:2,0:0:0:0:
334,29,15837,1,2,0:0:0:0:
312,18,15918,2,0,L|233:37,1,79.2000024169923,10|0,0:0|0:0,0:0:0:0:
144,100,16244,6,0,P|149:58|152:15,1,79.2000024169923,2|0,3:2|3:0,0:0:0:0:
52,141,16570,2,0,P|47:99|44:56,1,79.2000024169923,10|0,0:0|0:0,0:0:0:0:
136,179,16896,2,0,P|141:140|144:101,1,79.2000024169923,2|0,3:2|3:0,0:0:0:0:
243,166,17223,5,10,0:0:0:0:
200,251,17386,1,2,0:0:0:0:
280,314,17549,6,0,L|357:297,1,79.2000024169923,6|2,3:2|0:0,0:0:0:0:
379,304,17793,1,2,0:0:0:0:
401,313,17875,2,0,P|419:277|416:234,1,79.2000024169923,10|0,0:0|0:0,0:0:0:0:
365,149,18201,5,2,3:2:0:0:
282,207,18364,1,2,3:2:0:0:
282,207,18445,1,2,0:0:0:0:
282,207,18527,2,0,L|205:192,1,79.2000024169923,10|0,0:0|0:0,0:0:0:0:
250,99,18853,5,2,3:2:0:0:
345,137,19016,2,0,L|384:126,2,39.6000012084961,2|2|10,3:2|0:0|0:0,0:0:0:0:
331,35,19342,1,0,0:0:0:0:
250,99,19505,6,0,P|200:89|122:161,1,158.400004833985,0|8,3:0|0:0,0:0:0:0:
23,130,19994,1,2,0:0:0:0:
48,229,20157,6,0,L|66:310,1,79.2000024169923,0|2,3:0|0:0,0:0:0:0:
155,354,20483,2,0,L|233:335,1,79.2000024169923,8|2,0:0|0:0,0:0:0:0:
300,258,20810,1,0,3:0:0:0:
300,258,20973,1,2,3:2:0:0:
199,238,21136,6,0,P|211:156|224:71,1,158.400004833985,10|2,0:0|3:2,0:0:0:0:
227,58,21543,1,0,0:0:0:0:
231,34,21625,1,2,3:2:0:0:
322,80,21788,2,0,P|348:72|401:59,1,79.2000024169923,8|0,0:0|3:0,0:0:0:0:
418,72,22032,1,8,0:0:0:0:
437,85,22114,1,4,3:3:0:0:
380,171,22277,2,0,L|372:209,2,39.6000012084961,8|8|8,0:0|0:0|0:3,0:0:0:0:
233,298,22766,5,8,1:3:0:0:
149,309,22929,1,8,1:3:0:0:
181,228,23092,6,0,L|172:164,1,61.2000011672974,0|2,3:0|0:0,0:0:0:0:
110,107,23418,2,0,L|48:114,2,61.2000011672974,0|2|0,3:0|0:0|3:0,0:0:0:0:
164,41,23907,1,2,0:0:0:0:
164,41,24070,2,0,L|229:53,1,61.2000011672974,0|2,3:0|0:0,0:0:0:0:
301,14,24396,6,0,P|321:77|292:124,1,122.400002334595,0|0,3:0|3:0,0:0:0:0:
227,176,24886,2,0,L|240:236,2,61.2000011672974,2|0|2,0:0|3:0|0:0,0:0:0:0:
330,214,25375,5,8,3:2:0:0:
303,297,25538,1,10,0:0:0:0:
303,297,25701,6,0,P|350:331|410:311,1,122.400002334595,0|0,3:0|3:0,0:0:0:0:
462,248,26190,1,2,0:0:0:0:
462,248,26353,2,0,L|445:186,1,61.2000011672974,0|2,3:0|0:0,0:0:0:0:
426,91,26679,5,8,3:2:0:0:
361,147,26842,1,10,0:0:0:0:
361,147,27005,2,0,L|298:138,1,61.2000011672974,0|2,3:0|0:0,0:0:0:0:
220,71,27331,5,8,3:2:0:0:
163,135,27494,1,10,0:0:0:0:
163,135,27657,2,0,L|172:198,1,61.2000011672974,0|2,3:0|0:0,0:0:0:0:
246,267,27983,5,8,3:2:0:0:
187,330,28146,1,10,0:0:0:0:
187,330,28310,6,0,L|123:318,1,61.2000011672974,0|2,3:0|0:0,0:0:0:0:
50,356,28636,2,0,P|21:309|50:241,1,122.400002334595,0|0,3:0|3:0,0:0:0:0:
29,164,29125,1,2,0:0:0:0:
108,196,29288,2,0,L|182:207,2,61.2000011672974,0|2|0,3:0|0:0|3:0,0:0:0:0:
99,110,29777,2,0,L|112:45,1,61.2000011672974,2|0,0:0|3:0,0:0:0:0:
190,17,30103,1,2,0:0:0:0:
244,82,30266,2,0,L|305:75,1,61.2000011672974,0|2,3:0|0:0,0:0:0:0:
398,29,30592,5,8,3:2:0:0:
463,83,30755,2,0,L|453:145,1,61.2000011672974,8|0,0:0|3:0,0:0:0:0:
278,112,31244,5,8,3:2:0:0:
223,176,31407,2,0,L|243:235,1,61.2000011672974,8|0,0:0|3:0,0:0:0:0:
402,363,31896,6,0,B|407:331|407:331|398:306|398:306|402:274,1,91.8000017509461,0|8,1:0|0:0,0:0:0:0:
388,257,32223,2,0,L|325:265,1,61.2000011672974,8|0,0:0|3:0,0:0:0:0:
313,280,32467,1,8,0:0:0:0:
298,296,32549,2,0,L|235:290,1,61.2000011672974,8|0,0:0|3:0,0:0:0:0:
269,204,32875,2,0,L|258:111,1,91.8000017509461,0|0,1:0|0:0,0:0:0:0:
259,93,33201,5,0,3:0:0:0:
259,93,33364,1,2,0:0:0:0:
187,43,33527,1,0,3:0:0:0:
187,43,33690,1,2,0:0:0:0:
121,106,33853,2,0,L|61:98,1,61.2000011672974,0|2,3:0|0:0,0:0:0:0:
51,189,34179,2,0,L|113:196,1,61.2000011672974,0|2,3:0|0:0,0:0:0:0:
200,163,34505,5,0,3:0:0:0:
200,163,34668,2,0,P|250:145|306:181,1,122.400002334595,2|2,0:0|0:0,0:0:0:0:
376,122,35157,1,0,3:0:0:0:
391,212,35320,2,0,P|422:239|499:226,1,122.400002334595,2|2,0:0|0:0,0:0:0:0:
501,135,35810,6,0,L|486:75,1,61.2000011672974,0|2,3:0|0:0,0:0:0:0:
407,28,36136,2,0,L|393:89,1,61.2000011672974,0|2,3:0|0:0,0:0:0:0:
378,181,36462,1,0,3:0:0:0:
378,181,36625,1,2,0:0:0:0:
304,233,36788,1,0,3:0:0:0:
304,233,36951,1,2,0:0:0:0:
289,146,37114,5,0,3:0:0:0:
289,146,37277,2,0,L|277:84,1,61.2000011672974,2|0,0:0|3:0,0:0:0:0:
185,276,37766,2,0,L|176:339,1,61.2000011672974,0|0,1:0|3:0,0:0:0:0:
89,292,38092,2,0,L|94:257,3,30.6000005836487,8|8|8|8,0:0|0:0|0:0|0:0,0:0:0:0:
79,235,38418,6,0,P|45:229|5:221,1,72,6|0,3:2|0:0,0:0:0:0:
25,129,38744,2,0,P|59:136|100:144,1,72,10|0,3:2|0:0,0:0:0:0:
166,204,39070,1,2,3:2:0:0:
180,111,39233,2,0,P|185:75|191:36,1,72,2|8,3:2|0:0,0:0:0:0:
273,84,39560,1,2,0:0:0:0:
337,16,39723,6,0,P|375:12|411:9,2,72,2|2|10,3:2|0:0|0:0,0:0:0:0:
273,84,40212,2,0,B|260:154|260:154|319:201,1,144,2|2,0:0|3:2,0:0:0:0:
390,256,40701,2,0,L|376:328,1,72,8|2,0:0|0:0,0:0:0:0:
294,372,41027,5,0,3:0:0:0:
226,303,41190,2,0,L|190:293,2,36,0|8|8,3:0|0:0|0:0,0:0:0:0:
200,207,41516,5,8,0:3:0:0:
110,259,41679,2,0,L|91:224,2,36,0|8|8,3:0|0:0|0:0,0:0:0:0:
125,146,42005,5,4,0:3:0:0:
18,168,42168,2,0,L|29:131,2,36,0|8|8,3:0|0:0|0:0,0:0:0:0:
93,66,42494,1,4,0:3:0:0:
125,146,42657,1,4,0:3:0:0:
179,79,42820,6,0,L|217:72,2,36,8|8|8,0:0|0:0|0:0,0:0:0:0:
125,146,43146,1,8,0:3:0:0:
191,201,43310,2,0,L|201:274,1,72,4|4,0:3|0:3,0:0:0:0:
282,226,43636,5,4,0:0:0:0:
282,226,44940,5,4,3:3:0:0:
356,175,45266,5,8,3:3:0:0:
274,137,45592,6,0,L|287:67,1,72,0|0,3:0|0:0,0:0:0:0:
302,50,46244,6,0,P|358:42|426:119,2,165.600003158569,4|10|2,3:1|0:0|3:2,0:0:0:0:
229,118,47060,1,0,0:0:0:0:
300,187,47223,2,0,L|307:269,1,82.8000015792847,10|0,0:0|0:0,0:0:0:0:
245,354,47549,6,0,P|190:364|145:320,1,124.200002368927,2|0,3:2|0:0,0:0:0:0:
119,322,47875,2,0,P|115:277|135:243,1,82.8000015792847,10|0,0:0|0:0,0:0:0:0:
192,165,48201,2,0,L|175:84,1,82.8000015792847,0|0,3:0|0:0,0:0:0:0:
86,39,48527,5,10,0:0:0:0:
13,172,48690,2,0,B|71:144|71:144|171:161,1,165.600003158569,2|0,0:0|0:0,0:0:0:0:
249,87,49179,1,10,0:0:0:0:
302,180,49342,2,0,L|292:262,1,82.8000015792847,2|0,0:0|3:0,0:0:0:0:
230,360,49668,5,2,0:0:0:0:
344,377,49831,1,10,0:0:0:0:
292,262,49994,2,0,P|212:242|148:286,1,165.600003158569,2|0,0:0|0:0,0:0:0:0:
57,352,50483,6,0,P|52:317|45:271,1,82.8000015792847,8|0,0:0|0:0,0:0:0:0:
31,171,50810,2,0,P|72:178|125:181,1,82.8000015792847,0|0,3:0|3:0,0:0:0:0:
171,100,51136,1,8,0:0:0:0:
318,296,51462,6,0,B|364:289|380:245|380:245|404:280|449:277,2,165.600003158569,4|10|2,3:1|0:0|3:2,0:0:0:0:
233,349,52277,1,0,0:0:0:0:
226,249,52440,2,0,L|219:167,1,82.8000015792847,10|0,0:0|0:0,0:0:0:0:
160,73,52766,6,0,P|102:56|57:93,1,124.200002368927,2|0,3:2|0:0,0:0:0:0:
35,106,53092,2,0,P|25:144|39:185,1,82.8000015792847,10|0,0:0|0:0,0:0:0:0:
95,265,53418,2,0,P|135:259|179:253,1,82.8000015792847,0|0,3:0|0:0,0:0:0:0:
270,286,53744,1,8,0:0:0:0:
254,187,53907,1,0,0:0:0:0:
305,101,54070,6,0,P|298:61|292:26,1,72,4|0,0:0|0:0,0:0:0:0:
398,116,54396,2,0,L|390:227,1,108,8|8,0:0|0:0,0:0:0:0:
397,248,54723,6,0,L|333:285,1,72,0|0,1:0|1:0,0:0:0:0:
263,345,55049,2,0,P|211:332|156:321,1,108,0|0,3:0|0:0,0:0:0:0:
133,314,55375,5,8,0:0:0:0:
93,228,55538,1,8,0:0:0:0:
186,235,55701,2,0,P|177:181|171:125,1,108,0|0,3:0|0:0,0:0:0:0:
170,102,56027,5,8,1:2:0:0:
260,42,56190,1,8,1:2:0:0:
336,146,56353,1,8,0:0:0:0:
336,146,56435,1,8,0:0:0:0:
336,146,56516,1,8,0:0:0:0:
336,146,56598,1,8,0:0:0:0:
335,146,56679,6,0,P|355:211|295:279,2,165.600003158569,4|10|2,3:1|0:0|3:2,0:0:0:0:
252,81,57494,1,0,0:0:0:0:
139,133,57657,2,0,L|149:51,1,82.8000015792847,10|0,0:0|0:0,0:0:0:0:
34,121,57983,6,0,L|53:243,1,124.200002368927,2|0,3:2|0:0,0:0:0:0:
67,264,58310,2,0,P|103:266|140:240,1,82.8000015792847,10|0,0:0|0:0,0:0:0:0:
238,251,58636,2,0,L|252:332,1,82.8000015792847,0|0,3:0|0:0,0:0:0:0:
309,180,58962,5,10,0:0:0:0:
219,120,59125,2,0,P|264:77|361:85,1,165.600003158569,2|0,0:0|0:0,0:0:0:0:
457,37,59614,1,10,0:0:0:0:
443,143,59777,2,0,L|434:226,1,82.8000015792847,2|0,0:0|3:0,0:0:0:0:
370,322,60103,5,2,0:0:0:0:
484,338,60266,1,10,0:0:0:0:
434,225,60429,2,0,B|359:197|359:197|317:190|277:215,1,165.600003158569,2|0,0:0|0:0,0:0:0:0:
171,253,60918,6,0,P|128:253|94:227,1,82.8000015792847,8|0,0:0|0:0,0:0:0:0:
167,91,61244,2,0,L|155:173,1,82.8000015792847,0|0,3:0|3:0,0:0:0:0:
60,125,61570,1,8,0:0:0:0:
184,334,61896,6,0,P|124:315|23:306,2,165.600003158569,4|10|2,3:1|0:0|3:2,0:0:0:0:
233,247,62712,1,0,0:0:0:0:
313,309,62875,2,0,P|326:270|343:228,1,82.8000015792847,10|0,0:0|0:0,0:0:0:0:
449,261,63201,6,0,P|436:191|424:138,1,124.200002368927,2|0,3:2|0:0,0:0:0:0:
412,117,63527,2,0,P|368:98|337:107,1,82.8000015792847,10|0,0:0|0:0,0:0:0:0:
240,38,63853,2,0,L|226:119,1,82.8000015792847,0|0,3:0|0:0,0:0:0:0:
285,199,64179,1,8,0:0:0:0:
265,296,64342,1,0,0:0:0:0:
188,232,64505,6,0,B|102:219,1,82.8000015792847,4|0,3:2|0:0,0:0:0:0:
2,250,64831,2,0,L|11:200,3,41.4000007896423,8|8|8|8,0:0|0:0|0:0|0:0,0:0:0:0:
28,192,65157,2,0,L|40:110,1,82.8000015792847,2|0,3:2|0:0,0:0:0:0:
156,33,65483,2,0,L|148:84,3,41.4000007896423,8|8|8|8,0:0|0:0|0:0|0:0,0:0:0:0:
143,98,65810,6,0,L|225:88,1,82.8000015792847,2|0,3:2|0:0,0:0:0:0:
308,143,66136,1,8,1:2:0:0:
225,193,66299,1,0,0:0:0:0:
225,193,66380,1,8,0:0:0:0:
225,193,66462,2,0,L|218:274,1,82.8000015792847,8|8,0:0|0:3,0:0:0:0:
320,252,66788,2,0,L|329:333,1,82.8000015792847,4|4,0:3|0:3,0:0:0:0:
424,282,67114,5,6,0:0:0:0:
424,282,68418,5,2,0:0:0:0:
424,282,69723,5,2,0:0:0:0:
256,192,71027,12,4,72331,0:1:0:0:
152,250,73636,5,0,3:0:0:0:
142,164,73799,1,2,0:0:0:0:
216,120,73962,2,0,L|228:43,1,72,0|2,3:0|0:0,0:0:0:0:
302,6,74288,2,0,L|379:18,1,72,0|2,3:0|0:0,0:0:0:0:
428,83,74614,1,0,3:0:0:0:
343,99,74777,6,0,P|304:144|329:241,1,144,2|2,0:0|0:0,0:0:0:0:
372,286,75266,1,0,3:0:0:0:
303,338,75429,2,0,P|243:340|181:271,1,144,2|2,0:0|0:0,0:0:0:0:
122,343,75918,1,0,3:0:0:0:
122,343,76081,1,2,0:0:0:0:
105,252,76244,6,0,L|94:181,1,72,6|0,3:2|0:0,0:0:0:0:
171,115,76570,2,0,L|182:186,1,72,8|0,0:0|0:0,0:0:0:0:
275,224,76896,2,0,L|264:153,1,72,2|0,3:2|0:0,0:0:0:0:
341,86,77223,2,0,L|352:157,1,72,8|0,0:0|3:0,0:0:0:0:
404,251,77549,6,0,P|354:246|297:240,1,108,2|8,1:2|0:0,0:0:0:0:
275,224,77875,2,0,P|237:227|201:232,1,72,10|0,0:0|3:0,0:0:0:0:
187,247,78119,1,8,0:0:0:0:
173,261,78201,2,0,L|183:189,1,72,10|0,0:0|3:0,0:0:0:0:
81,108,78527,6,0,P|73:156|61:242,1,124.200002368927,8|0,1:0|0:0,0:0:0:0:
64,260,78853,5,0,1:0:0:0:
64,260,79016,1,2,1:2:0:0:
56,351,79179,6,0,L|119:338,1,61.2000011672974,0|2,3:0|0:0,0:0:0:0:
177,278,79505,2,0,L|240:291,1,61.2000011672974,0|2,3:0|0:0,0:0:0:0:
305,342,79831,2,0,L|368:329,1,61.2000011672974,0|2,3:0|0:0,0:0:0:0:
407,255,80157,5,0,3:0:0:0:
477,304,80320,2,0,L|456:366,2,61.2000011672974,2|2|2,0:0|3:2|0:0,0:0:0:0:
407,255,80810,2,0,L|388:193,1,61.2000011672974,8|0,0:0|3:0,0:0:0:0:
393,188,81054,1,8,0:0:0:0:
397,180,81136,1,8,0:0:0:0:
272,28,81462,5,0,1:0:0:0:
208,85,81625,1,2,1:2:0:0:
288,114,81788,6,0,L|296:174,1,61.2000011672974,0|2,3:0|0:0,0:0:0:0:
376,144,82114,1,0,3:0:0:0:
363,228,82277,2,0,L|430:216,2,61.2000011672974,2|0|2,0:0|3:0|0:0,0:0:0:0:
283,259,82766,5,0,1:0:0:0:
262,342,82929,1,2,1:2:0:0:
200,282,83092,2,0,L|132:274,1,61.2000011672974,0|2,3:0|0:0,0:0:0:0:
66,320,83418,6,0,L|55:259,1,61.2000011672974,0|0,1:0|3:0,0:0:0:0:
59,251,83663,1,8,0:0:0:0:
63,243,83744,1,8,0:0:0:0:
249,124,84070,5,0,1:0:0:0:
277,204,84233,1,2,1:2:0:0:
334,139,84396,6,0,L|339:71,2,61.2000011672974,0|2|0,3:0|0:0|3:0,0:0:0:0:
418,123,84886,1,2,0:0:0:0:
390,204,85049,2,0,L|380:267,1,61.2000011672974,0|2,3:0|0:0,0:0:0:0:
297,244,85375,5,0,3:0:0:0:
298,329,85538,2,0,L|362:341,2,61.2000011672974,2|2|2,0:0|3:2|0:0,0:0:0:0:
222,289,86027,2,0,L|162:302,1,61.2000011672974,8|0,0:0|3:0,0:0:0:0:
153,304,86271,1,8,0:0:0:0:
144,306,86353,1,8,0:0:0:0:
213,133,86679,6,0,L|194:40,1,91.8000017509461,0|8,1:0|0:0,0:0:0:0:
169,25,87005,2,0,L|140:33,3,30.6000005836487,8|8|8|8,3:2|0:0|0:0|0:0,0:0:0:0:
122,58,87331,2,0,L|93:66,3,30.6000005836487,8|8|8|8,3:2|0:0|0:0|0:0,0:0:0:0:
74,91,87657,2,0,L|82:120,3,30.6000005836487,8|8|8|8,3:2|0:0|0:0|0:0,0:0:0:0:
79,161,87983,6,0,P|145:242|195:100,1,324.00001235962,2|0,0:0|0:0,0:0:0:0:
