osu file format v14

[General]
AudioFilename: audio.mp3
AudioLeadIn: 0
PreviewTime: 55081
Countdown: 0
SampleSet: Soft
StackLeniency: 0.7
Mode: 3
LetterboxInBreaks: 0
SpecialStyle: 0
WidescreenStoryboard: 1

[Editor]
Bookmarks: 11152,18772,21470,31629,41787,51946,55597,65756,75914
DistanceSpacing: 1
BeatDivisor: 4
GridSize: 4
TimelineZoom: 0.8999999

[Metadata]
Title:FLY HIGH!! (TV Size)
TitleUnicode:FLY HIGH!! (TV Size)
Artist:BURNOUT SYNDROMES
ArtistUnicode:BURNOUT SYNDROMES
Creator:Sympho
Version:Hard!!
Source:ハイキュー!! セカンドシーズン
Tags:japanese anime アニメ Jpop J-pop Pop Jrock J-rock Rock Haikyuu!! haikyu haikyuu second 2nd season op opening バーンアウト・シンドロームズ Junji Ishiwatari 石渡淳治 いしわたり 淳治 Kazuumi Kumagai 熊谷 和海 Taiyu Ishikawa 石川 大裕 Takuya Hirose 廣瀬 拓哉 Haruichi Furudate 古舘 春一 Volleyball 排球 PokeSky FAMoss Ihram-San
BeatmapID:3710476
BeatmapSetID:1457877

[Difficulty]
HPDrainRate:8
CircleSize:4
OverallDifficulty:8
ApproachRate:5
SliderMultiplier:1.4
SliderTickRate:1

[Events]
//Background and Video events
0,0,"bg.jpg",0,0
//Break Periods
//Storyboard Layer 0 (Background)
//Storyboard Layer 1 (Fail)
//Storyboard Layer 2 (Pass)
//Storyboard Layer 3 (Foreground)
//Storyboard Layer 4 (Overlay)
//Storyboard Sound Samples

[TimingPoints]
1153,317.460317460317,4,2,1,60,1,0
55597,-100,4,2,1,60,0,1
75914,-100,4,2,1,60,0,0

[HitObjects]
64,192,518,5,0,0:0:0:0:
320,192,676,1,0,0:0:0:0:
192,192,835,1,0,0:0:0:0:
64,192,994,128,0,1470:0:0:0:0:
448,192,1153,1,0,0:0:0:70:Impact.wav
320,192,1470,1,0,0:0:0:0:
192,192,1629,1,0,0:0:0:0:
448,192,1787,1,0,0:0:0:0:
64,192,2264,128,0,2581:0:0:0:0:
320,192,2581,1,0,0:0:0:0:
192,192,2740,1,0,0:0:0:0:
448,192,2899,1,0,0:0:0:0:
64,192,3057,1,0,0:0:0:0:
320,192,3533,128,0,4010:0:0:0:0:
192,192,4010,128,0,4327:0:0:0:0:
64,192,4327,128,0,4645:0:0:0:0:
320,192,4645,1,0,0:0:0:0:
448,192,4803,128,0,5121:0:0:0:0:
320,192,5121,128,0,5438:0:0:0:0:
64,192,5438,128,0,5914:0:0:0:0:
192,192,5914,1,0,0:0:0:0:
448,192,6073,1,0,0:0:0:0:
64,192,6549,128,0,6867:0:0:0:0:
192,192,6867,128,0,7184:0:0:0:0:
320,192,7184,128,0,7502:0:0:0:0:
448,192,7502,1,0,0:0:0:0:
192,192,7660,1,0,0:0:0:0:
64,192,7819,1,0,0:0:0:0:
320,192,7978,1,0,0:0:0:0:
448,192,8295,128,0,8613:0:0:0:0:
64,192,8613,1,0,0:0:0:0:
192,192,8772,128,0,9089:0:0:0:0:
320,192,9089,1,0,0:0:0:0:
64,192,9248,128,0,9565:0:0:0:0:
320,192,9565,1,0,0:0:0:0:
192,192,9724,1,0,0:0:0:0:
448,192,9883,128,0,10041:0:0:0:0:
192,192,10200,128,0,10359:0:0:0:0:
320,192,10518,1,0,0:0:0:0:
64,192,10676,1,8,0:0:0:0:
448,192,10676,1,0,0:0:0:0:
192,192,10835,1,8,0:0:0:0:
448,192,10835,1,0,0:0:0:0:
64,192,11152,128,2,11470:0:0:0:0:
320,192,11152,1,4,0:0:0:0:
448,192,11152,1,0,0:0:0:0:
192,192,11470,1,2,0:0:0:0:
320,192,11629,1,8,0:0:0:0:
448,192,11629,1,0,0:0:0:0:
64,192,11946,1,2,0:0:0:0:
448,192,11946,1,0,0:0:0:0:
320,192,12105,1,2,0:0:0:0:
192,192,12264,1,8,0:0:0:0:
448,192,12264,1,0,0:0:0:0:
64,192,12422,128,2,12740:0:0:0:0:
192,192,12422,1,4,0:0:0:0:
320,192,12422,1,0,0:0:0:0:
320,192,12740,1,2,0:0:0:0:
192,192,12899,1,8,0:0:0:0:
448,192,12899,1,0,0:0:0:0:
64,192,13216,1,2,0:0:0:0:
192,192,13216,1,0,0:0:0:0:
448,192,13375,1,2,0:0:0:0:
64,192,13533,1,8,0:0:0:0:
320,192,13533,1,0,0:0:0:0:
192,192,13692,1,2,0:0:0:0:
320,192,13692,1,4,0:0:0:0:
448,192,13692,128,0,14010:0:0:0:0:
192,192,14010,1,2,0:0:0:0:
64,192,14168,1,8,0:0:0:0:
320,192,14168,1,0,0:0:0:0:
320,192,14486,1,2,0:0:0:0:
448,192,14486,1,0,0:0:0:0:
64,192,14645,1,2,0:0:0:0:
192,192,14803,1,8,0:0:0:0:
448,192,14803,1,0,0:0:0:0:
64,192,14962,1,2,0:0:0:0:
320,192,14962,128,4,15279:0:0:0:0:
448,192,14962,1,0,0:0:0:0:
192,192,15279,1,2,0:0:0:0:
64,192,15438,1,8,0:0:0:0:
448,192,15438,1,0,0:0:0:0:
192,192,15756,1,2,0:0:0:0:
320,192,15835,1,8,0:0:0:0:
64,192,15914,1,8,0:0:0:0:
192,192,15994,1,8,0:0:0:0:
448,192,16073,1,8,0:0:0:0:
320,192,16152,1,8,0:0:0:0:
64,192,16232,128,2,16549:0:0:0:0:
192,192,16232,1,4,0:0:0:0:
320,192,16549,1,2,0:0:0:0:
192,192,16708,1,8,0:0:0:0:
320,192,16708,1,4,0:0:0:0:
448,192,16708,1,0,0:0:0:0:
64,192,17026,1,2,0:0:0:0:
192,192,17026,1,0,0:0:0:0:
320,192,17184,1,2,0:0:0:0:
192,192,17343,1,8,0:0:0:0:
448,192,17343,1,0,0:0:0:0:
64,192,17502,128,2,17660:0:0:0:0:
192,192,17502,1,4,0:0:0:0:
320,192,17502,1,0,0:0:0:0:
448,192,17819,128,2,17978:0:0:0:0:
64,192,17978,1,8,0:0:0:0:
320,192,17978,1,0,0:0:0:0:
192,192,18137,128,0,18295:0:0:0:0:
320,192,18295,1,2,0:0:0:0:
448,192,18295,1,0,0:0:0:0:
64,192,18454,1,0,0:0:0:50:tom01.wav
192,192,18533,1,0,0:0:0:50:tom02.wav
320,192,18613,1,0,0:0:0:50:tom03.wav
192,192,18692,1,0,0:0:0:50:tom03.wav
64,192,18772,128,2,20200:0:0:0:0:
320,192,18772,1,4,0:0:0:0:
448,192,18772,1,0,0:0:0:0:
192,192,20200,1,8,0:0:0:0:
448,192,20200,1,4,0:0:0:0:
320,192,20359,1,6,0:0:0:0:
192,192,20518,1,8,0:0:0:0:
448,192,20518,1,4,0:0:0:0:
64,192,20676,1,6,0:0:0:0:
320,192,20835,1,8,0:0:0:0:
448,192,20835,1,0,0:0:0:0:
192,192,20914,1,8,0:0:0:0:
64,192,20994,1,8,0:0:0:0:
448,192,21073,1,8,0:0:0:0:
192,192,21152,1,8,0:0:0:0:
320,192,21152,1,0,0:0:0:0:
64,192,21311,1,8,0:0:0:0:
192,192,21391,1,8,0:0:0:0:
320,192,21470,1,2,0:0:0:0:
448,192,21470,1,4,0:0:0:0:
192,192,21787,1,2,0:0:0:0:
64,192,22105,128,2,22264:0:0:0:0:
192,192,22264,128,0,22422:0:0:0:0:
320,192,22422,1,2,0:0:0:0:
448,192,22581,128,0,22899:0:0:0:0:
64,192,22740,1,2,0:0:0:0:
192,192,22740,1,0,0:0:0:0:
320,192,22899,128,0,23057:0:0:0:0:
64,192,23057,1,2,0:0:0:0:
192,192,23216,128,0,23533:0:0:0:0:
448,192,23375,1,2,0:0:0:0:
320,192,23533,128,0,23851:0:0:0:0:
64,192,23692,1,2,0:0:0:0:
192,192,23851,128,0,24010:0:0:0:0:
320,192,24010,1,2,0:0:0:0:
448,192,24010,128,0,24645:0:0:0:0:
320,192,24327,1,2,0:0:0:0:
192,192,24645,1,2,0:0:0:0:
64,192,24803,128,0,24962:0:0:0:0:
320,192,24962,128,2,25121:0:0:0:0:
192,192,25121,128,0,25597:0:0:0:0:
64,192,25279,1,2,0:0:0:0:
448,192,25279,1,0,0:0:0:0:
448,192,25597,1,2,0:0:0:0:
64,192,25914,128,2,26232:0:0:0:0:
448,192,26232,128,2,26391:0:0:0:0:
192,192,26391,1,0,0:0:0:50:LR_HiHat Synth Fast.wav
64,192,26470,1,0,0:0:0:50:LR_HiHat Synth Fast.wav
320,192,26549,128,2,26867:0:0:0:0:
448,192,26549,1,4,0:0:0:0:
192,192,26867,1,2,0:0:0:0:
64,192,27184,128,2,27660:0:0:0:0:
192,192,27502,1,2,0:0:0:0:
448,192,27660,128,0,27819:0:0:0:50:LR_CymbalFSU.wav
320,192,27819,128,2,28137:0:0:0:0:
64,192,27819,1,0,0:0:0:0:
192,192,28137,128,2,28454:0:0:0:0:
448,192,28454,128,2,28930:0:0:0:0:
64,192,28772,1,2,0:0:0:0:
192,192,28930,1,0,0:0:0:50:LR_HiHat Synth Fast.wav
320,192,29010,1,0,0:0:0:50:LR_HiHat Synth Fast.wav
64,192,29089,128,2,30359:0:0:0:0:
448,192,29089,1,4,0:0:0:0:
192,192,29406,1,6,0:0:0:0:
320,192,29724,1,4,0:0:0:0:
448,192,29724,1,2,0:0:0:0:
192,192,30041,1,6,0:0:0:0:
320,192,30359,128,4,30676:0:0:0:0:
448,192,30359,1,2,0:0:0:0:
64,192,30676,1,2,0:0:0:0:
192,192,30676,1,4,0:0:0:0:
448,192,30835,1,8,0:0:0:0:
320,192,30914,1,8,0:0:0:0:
192,192,30994,1,2,0:0:0:0:
64,192,31152,1,8,0:0:0:0:
448,192,31152,1,0,0:0:0:0:
64,192,31311,1,2,0:0:0:0:
320,192,31311,1,0,0:0:0:50:tom02.wav
192,192,31470,1,0,0:0:0:50:tom03.wav
64,192,31629,1,2,0:0:0:0:
320,192,31629,1,4,0:0:0:0:
448,192,31629,1,0,0:0:0:0:
448,192,31946,1,2,0:0:0:0:
320,192,32264,128,2,32422:0:0:0:0:
192,192,32422,128,0,32581:0:0:0:0:
64,192,32581,1,2,0:0:0:0:
448,192,32581,1,8,0:0:0:0:
320,192,32740,128,0,32899:0:0:0:0:
192,192,32899,1,2,0:0:0:0:
448,192,33057,128,0,33216:0:0:0:0:
320,192,33216,1,2,0:0:0:0:
64,192,33375,128,0,33533:0:0:0:0:
448,192,33533,1,2,0:0:0:0:
192,192,33692,128,0,34168:0:0:0:0:
320,192,33851,1,2,0:0:0:0:
448,192,33851,1,8,0:0:0:0:
64,192,34168,128,2,34486:0:0:0:0:
320,192,34486,1,2,0:0:0:0:
448,192,34645,128,0,34962:0:0:0:0:
64,192,34803,1,2,0:0:0:0:
192,192,34962,1,0,0:0:0:0:
320,192,35121,128,8,35279:0:0:0:0:
448,192,35121,1,2,0:0:0:0:
192,192,35279,128,0,35438:0:0:0:0:
64,192,35438,1,2,0:0:0:0:
448,192,35756,1,2,0:0:0:0:
320,192,36073,128,2,36232:0:0:0:0:
448,192,36232,128,0,36391:0:0:0:0:
64,192,36391,1,2,0:0:0:0:
192,192,36391,128,8,36549:0:0:0:0:
320,192,36549,128,0,36708:0:0:0:0:
64,192,36708,128,2,37026:0:0:0:0:
448,192,36708,1,4,0:0:0:0:
192,192,37026,1,8,0:0:0:0:
448,192,37026,1,2,0:0:0:0:
320,192,37343,128,2,37502:0:0:0:0:
192,192,37502,128,0,37660:0:0:0:0:
64,192,37660,128,2,37819:0:0:0:0:
448,192,37660,1,8,0:0:0:0:
320,192,37819,128,0,37978:0:0:0:0:
192,192,37978,1,2,0:0:0:0:
448,192,37978,128,0,38295:0:0:0:0:
64,192,38295,128,8,38454:0:0:0:0:
320,192,38295,1,2,0:0:0:0:
192,192,38454,128,0,38613:0:0:0:0:
448,192,38613,1,2,0:0:0:0:
320,192,38772,128,0,39248:0:0:0:0:
64,192,38930,1,2,0:0:0:0:
192,192,38930,1,8,0:0:0:0:
64,192,39248,128,2,39565:0:0:0:0:
448,192,39248,1,4,0:0:0:0:
192,192,39565,1,2,0:0:0:0:
320,192,39565,1,8,0:0:0:0:
64,192,39883,1,0,0:0:0:50:tom01.wav
448,192,39883,1,0,0:0:0:0:
320,192,40041,1,0,0:0:0:50:tom02.wav
64,192,40200,1,0,0:0:0:50:tom03.wav
192,192,40200,1,0,0:0:0:0:
192,192,40359,128,4,40676:0:0:0:0:
448,192,40359,1,2,0:0:0:0:
320,192,40676,1,8,0:0:0:0:
448,192,40756,1,8,0:0:0:0:
64,192,40835,1,8,0:0:0:0:
192,192,40914,1,8,0:0:0:0:
320,192,40994,1,8,0:0:0:0:
448,192,41073,1,8,0:0:0:0:
64,192,41152,1,8,0:0:0:0:
192,192,41232,1,8,0:0:0:0:
448,192,41311,1,0,0:0:0:50:tom01.wav
320,192,41391,1,0,0:0:0:50:tom01.wav
192,192,41470,1,0,0:0:0:50:tom02.wav
64,192,41549,1,0,0:0:0:50:tom02.wav
448,192,41629,1,0,0:0:0:50:tom03.wav
320,192,41708,1,0,0:0:0:50:tom03.wav
64,192,41787,1,4,0:0:0:0:
192,192,41787,1,2,0:0:0:0:
448,192,41787,128,0,42105:0:0:0:0:
64,192,42105,1,8,0:0:0:0:
320,192,42105,1,0,0:0:0:0:
192,192,42264,1,0,0:0:0:0:
64,192,42422,128,2,42740:0:0:0:0:
448,192,42581,1,2,0:0:0:0:
192,192,42740,1,8,0:0:0:0:
320,192,42740,1,0,0:0:0:0:
448,192,42899,1,0,0:0:0:0:
192,192,43057,128,2,43375:0:0:0:0:
320,192,43216,1,2,0:0:0:0:
64,192,43375,1,8,0:0:0:0:
448,192,43375,1,0,0:0:0:0:
320,192,43533,1,0,0:0:0:0:
448,192,43692,128,2,44010:0:0:0:0:
64,192,43851,1,2,0:0:0:0:
192,192,44010,1,8,0:0:0:0:
320,192,44010,1,0,0:0:0:0:
448,192,44168,1,0,0:0:0:0:
64,192,44327,128,2,44645:0:0:0:0:
192,192,44486,1,2,0:0:0:0:
320,192,44645,1,8,0:0:0:0:
448,192,44645,1,0,0:0:0:0:
192,192,44803,1,0,0:0:0:0:
448,192,44962,128,2,45279:0:0:0:0:
64,192,45121,1,2,0:0:0:0:
192,192,45279,1,8,0:0:0:0:
320,192,45279,1,0,0:0:0:0:
64,192,45438,1,0,0:0:0:0:
320,192,45597,128,2,45914:0:0:0:0:
192,192,45756,1,2,0:0:0:0:
64,192,45914,1,8,0:0:0:0:
448,192,45914,1,0,0:0:0:0:
192,192,46073,1,0,0:0:0:0:
448,192,46232,128,2,46391:0:0:0:0:
320,192,46391,1,2,0:0:0:0:
64,192,46549,1,8,0:0:0:0:
192,192,46549,128,0,46867:0:0:0:0:
320,192,46867,1,2,0:0:0:0:
448,192,46867,1,4,0:0:0:0:
448,192,47026,1,2,0:0:0:0:
64,192,47184,1,8,0:0:0:0:
192,192,47184,1,0,0:0:0:0:
448,192,47343,1,0,0:0:0:0:
64,192,47502,1,2,0:0:0:0:
64,192,47660,1,2,0:0:0:0:
320,192,47819,1,8,0:0:0:0:
448,192,47819,1,0,0:0:0:0:
192,192,47978,1,0,0:0:0:0:
320,192,48137,1,2,0:0:0:0:
320,192,48295,1,2,0:0:0:0:
64,192,48454,1,8,0:0:0:0:
192,192,48454,1,0,0:0:0:0:
448,192,48613,1,0,0:0:0:0:
192,192,48772,1,2,0:0:0:0:
192,192,48930,1,2,0:0:0:0:
64,192,49089,1,8,0:0:0:0:
448,192,49089,1,0,0:0:0:0:
320,192,49248,1,0,0:0:0:0:
192,192,49406,1,2,0:0:0:0:
448,192,49406,1,4,0:0:0:0:
64,192,49565,1,2,0:0:0:0:
320,192,49724,1,4,0:0:0:0:
448,192,49724,1,0,0:0:0:0:
64,192,49883,1,8,0:0:0:0:
192,192,50041,1,4,0:0:0:0:
448,192,50041,1,0,0:0:0:0:
320,192,50200,1,2,0:0:0:0:
64,192,50359,1,8,0:0:0:0:
192,192,50359,1,4,0:0:0:0:
320,192,50518,1,2,0:0:0:0:
64,192,50676,1,8,0:0:0:0:
448,192,50676,1,0,0:0:0:0:
192,192,50835,1,2,0:0:0:0:
320,192,50994,1,8,0:0:0:0:
448,192,50994,1,0,0:0:0:0:
192,192,51152,1,2,0:0:0:0:
64,192,51311,1,8,0:0:0:0:
448,192,51311,1,0,0:0:0:0:
320,192,51391,1,8,0:0:0:0:
192,192,51470,1,8,0:0:0:0:
64,192,51549,1,8,0:0:0:0:
320,192,51629,1,8,0:0:0:0:
448,192,51708,1,8,0:0:0:0:
192,192,51787,1,8,0:0:0:0:
320,192,51867,1,8,0:0:0:0:
64,192,51946,1,2,0:0:0:0:
192,192,51946,1,4,0:0:0:0:
448,192,51946,1,0,0:0:0:0:
64,192,52264,1,8,0:0:0:0:
192,192,52264,1,0,0:0:0:0:
192,192,52422,1,2,0:0:0:0:
320,192,52422,1,4,0:0:0:0:
448,192,52422,1,0,0:0:0:0:
320,192,52740,1,2,0:0:0:0:
64,192,52899,1,8,0:0:0:0:
320,192,52899,1,2,0:0:0:0:
192,192,53216,1,2,0:0:0:0:
192,192,53375,1,8,0:0:0:0:
448,192,53375,1,0,0:0:0:0:
64,192,53533,1,2,0:0:0:0:
448,192,53533,1,0,0:0:0:50:LR_CymbalFSU.wav
64,192,53851,1,8,0:0:0:0:
192,192,53851,1,0,0:0:0:0:
320,192,53930,1,8,0:0:0:0:
448,192,54010,1,8,0:0:0:0:
64,192,54089,1,8,0:0:0:0:
192,192,54168,1,8,0:0:0:0:
320,192,54248,1,8,0:0:0:0:
448,192,54327,1,8,0:0:0:0:
320,192,54406,1,8,0:0:0:0:
64,192,54486,1,8,0:0:0:0:
192,192,54486,1,0,0:0:0:0:
448,192,54565,1,8,0:0:0:0:
320,192,54645,1,8,0:0:0:0:
192,192,54724,1,8,0:0:0:0:
64,192,54803,1,8,0:0:0:0:
448,192,54883,1,8,0:0:0:0:
320,192,54962,1,0,0:0:0:50:LR_CymbalFSU.wav
64,192,55121,1,2,0:0:0:0:
192,192,55121,1,0,0:0:0:50:tom02.wav
320,192,55279,1,2,0:0:0:0:
448,192,55279,1,0,0:0:0:50:tom02.wav
64,192,55597,128,4,55914:0:0:0:0:
192,192,55597,1,2,0:0:0:0:
448,192,55597,1,0,0:0:0:0:
320,192,55914,1,2,0:0:0:0:
192,192,56073,1,8,0:0:0:0:
448,192,56073,128,0,56232:0:0:0:0:
64,192,56232,128,0,56391:0:0:0:0:
192,192,56391,128,2,56549:0:0:0:0:
448,192,56549,1,2,0:0:0:0:
64,192,56708,1,8,0:0:0:0:
320,192,56708,1,0,0:0:0:0:
192,192,56867,1,2,0:0:0:0:
320,192,56867,128,4,57184:0:0:0:0:
448,192,56867,1,0,0:0:0:0:
192,192,57184,128,2,57343:0:0:0:0:
64,192,57343,128,8,57502:0:0:0:0:
448,192,57343,1,0,0:0:0:0:
320,192,57502,128,0,57660:0:0:0:0:
192,192,57660,128,2,57819:0:0:0:0:
448,192,57819,1,2,0:0:0:0:
64,192,57978,1,8,0:0:0:0:
320,192,57978,1,0,0:0:0:0:
64,192,58137,1,4,0:0:0:0:
192,192,58137,1,2,0:0:0:0:
448,192,58137,128,0,58454:0:0:0:0:
320,192,58454,1,2,0:0:0:0:
64,192,58613,128,8,58930:0:0:0:0:
192,192,58613,1,0,0:0:0:0:
320,192,58930,128,2,59248:0:0:0:0:
448,192,59089,1,2,0:0:0:0:
64,192,59248,1,8,0:0:0:0:
192,192,59248,1,0,0:0:0:0:
192,192,59406,128,2,59724:0:0:0:0:
320,192,59406,1,4,0:0:0:0:
448,192,59406,1,0,0:0:0:0:
448,192,59724,128,2,60041:0:0:0:0:
64,192,59883,1,8,0:0:0:0:
320,192,59883,1,0,0:0:0:0:
192,192,60041,128,0,60518:0:0:0:0:
320,192,60200,1,2,0:0:0:0:
64,192,60359,1,2,0:0:0:0:
320,192,60518,1,8,0:0:0:0:
448,192,60518,1,0,0:0:0:0:
64,192,60676,1,4,0:0:0:0:
192,192,60676,1,2,0:0:0:0:
448,192,60676,128,0,60994:0:0:0:0:
320,192,60994,1,2,0:0:0:0:
64,192,61152,128,8,61470:0:0:0:0:
192,192,61152,1,4,0:0:0:0:
448,192,61470,128,6,61787:0:0:0:0:
192,192,61629,1,2,0:0:0:0:
64,192,61787,1,8,0:0:0:0:
320,192,61787,128,4,62105:0:0:0:0:
192,192,61946,1,2,0:0:0:0:
64,192,62105,128,4,62264:0:0:0:0:
448,192,62264,128,2,62422:0:0:0:0:
64,192,62422,1,8,0:0:0:0:
320,192,62422,128,4,62581:0:0:0:0:
192,192,62581,128,0,62740:0:0:0:0:
448,192,62740,1,6,0:0:0:0:
64,192,62899,128,2,63057:0:0:0:0:
192,192,63057,1,8,0:0:0:0:
320,192,63057,128,4,63216:0:0:0:0:
448,192,63216,128,0,63375:0:0:0:0:
64,192,63375,1,8,0:0:0:0:
192,192,63375,1,0,0:0:0:0:
320,192,63533,1,8,0:0:0:0:
448,192,63533,1,0,0:0:0:0:
192,192,63692,1,2,0:0:0:0:
64,192,63851,128,8,64010:0:0:0:0:
448,192,63851,1,0,0:0:0:0:
320,192,64010,1,2,0:0:0:0:
192,192,64168,1,8,0:0:0:0:
448,192,64168,128,0,64327:0:0:0:0:
64,192,64327,1,2,0:0:0:0:
192,192,64486,1,8,0:0:0:0:
320,192,64486,128,4,64803:0:0:0:0:
64,192,64803,128,2,64962:0:0:0:0:
448,192,64803,1,0,0:0:0:0:
192,192,64962,128,8,65121:0:0:0:0:
320,192,64962,1,0,0:0:0:0:
448,192,65121,128,8,65279:0:0:0:0:
64,192,65279,1,0,0:0:0:50:tom01.wav
192,192,65359,1,8,0:0:0:0:
320,192,65438,1,8,0:0:0:0:
448,192,65518,1,8,0:0:0:0:
64,192,65597,1,8,0:0:0:0:
192,192,65676,1,8,0:0:0:0:
64,192,65756,1,4,0:0:0:0:
320,192,65756,1,2,0:0:0:0:
448,192,65756,128,0,66073:0:0:0:0:
192,192,66073,1,2,0:0:0:0:
64,192,66232,1,8,0:0:0:0:
320,192,66232,128,4,66391:0:0:0:0:
448,192,66232,1,0,0:0:0:0:
192,192,66391,128,0,66549:0:0:0:0:
448,192,66549,128,2,66708:0:0:0:0:
64,192,66708,1,2,0:0:0:0:
192,192,66867,1,8,0:0:0:0:
320,192,66867,1,0,0:0:0:0:
64,192,67026,128,4,67343:0:0:0:0:
192,192,67026,1,2,0:0:0:0:
448,192,67026,1,0,0:0:0:0:
320,192,67343,1,2,0:0:0:0:
192,192,67502,1,8,0:0:0:0:
448,192,67502,128,0,67660:0:0:0:0:
64,192,67660,128,0,67819:0:0:0:0:
320,192,67819,128,2,67978:0:0:0:0:
448,192,67978,1,2,0:0:0:0:
64,192,68137,1,8,0:0:0:0:
192,192,68137,1,0,0:0:0:0:
64,192,68295,1,2,0:0:0:0:
320,192,68295,1,4,0:0:0:0:
448,192,68295,128,0,68613:0:0:0:0:
64,192,68613,1,2,0:0:0:0:
192,192,68772,1,8,0:0:0:0:
320,192,68772,128,0,68930:0:0:0:0:
448,192,68930,128,0,69089:0:0:0:0:
64,192,69089,128,2,69406:0:0:0:0:
192,192,69248,1,2,0:0:0:0:
320,192,69406,1,8,0:0:0:0:
448,192,69406,1,0,0:0:0:0:
64,192,69565,1,4,0:0:0:0:
192,192,69565,128,2,69883:0:0:0:0:
448,192,69565,1,0,0:0:0:0:
320,192,69883,1,2,0:0:0:0:
192,192,70041,1,8,0:0:0:0:
448,192,70041,1,0,0:0:0:0:
64,192,70200,128,0,70518:0:0:0:0:
192,192,70359,1,2,0:0:0:0:
320,192,70518,1,2,0:0:0:0:
448,192,70518,128,0,70676:0:0:0:0:
64,192,70676,1,8,0:0:0:0:
192,192,70676,1,0,0:0:0:0:
192,192,70835,1,2,0:0:0:0:
320,192,70835,128,4,71152:0:0:0:0:
448,192,70835,1,0,0:0:0:0:
64,192,71152,1,2,0:0:0:0:
192,192,71311,128,8,71470:0:0:0:0:
448,192,71311,1,4,0:0:0:0:
320,192,71470,128,0,71629:0:0:0:0:
64,192,71629,128,2,71946:0:0:0:0:
192,192,71629,1,4,0:0:0:0:
448,192,71787,1,2,0:0:0:0:
192,192,71946,1,8,0:0:0:0:
320,192,71946,1,4,0:0:0:0:
448,192,72105,128,2,72264:0:0:0:0:
192,192,72264,128,4,72422:0:0:0:0:
320,192,72422,128,2,72581:0:0:0:0:
64,192,72581,128,4,72740:0:0:0:0:
448,192,72581,1,8,0:0:0:0:
192,192,72740,128,0,72899:0:0:0:0:
320,192,72899,1,6,0:0:0:0:
448,192,73057,128,2,73216:0:0:0:0:
64,192,73216,128,4,73375:0:0:0:0:
192,192,73216,1,8,0:0:0:0:
448,192,73375,1,0,0:0:0:0:
64,192,73533,1,8,0:0:0:0:
320,192,73533,1,0,0:0:0:0:
64,192,73692,1,8,0:0:0:0:
320,192,73692,1,0,0:0:0:0:
448,192,73851,1,2,0:0:0:0:
64,192,74010,1,8,0:0:0:0:
192,192,74010,1,0,0:0:0:0:
448,192,74168,1,2,0:0:0:0:
192,192,74327,1,8,0:0:0:0:
320,192,74327,1,0,0:0:0:0:
64,192,74486,1,2,0:0:0:0:
192,192,74645,1,4,0:0:0:0:
320,192,74645,1,8,0:0:0:0:
448,192,74645,128,0,74962:0:0:0:0:
64,192,74962,128,2,75121:0:0:0:0:
320,192,75121,128,8,75279:0:0:0:0:
448,192,75121,1,0,0:0:0:0:
64,192,75279,1,8,0:0:0:0:
192,192,75279,1,0,0:0:0:0:
448,192,75438,1,8,0:0:0:0:
320,192,75518,1,8,0:0:0:0:
64,192,75597,1,8,0:0:0:0:
192,192,75676,1,8,0:0:0:0:
320,192,75756,1,8,0:0:0:0:
192,192,75835,1,8,0:0:0:0:
64,192,75914,128,4,76232:0:0:0:0:
320,192,75914,1,2,0:0:0:0:
448,192,75914,1,0,0:0:0:0:
192,192,76232,1,2,0:0:0:0:
64,192,76391,1,4,0:0:0:0:
320,192,76391,128,8,76708:0:0:0:0:
448,192,76391,1,0,0:0:0:0:
192,192,76708,1,2,0:0:0:0:
448,192,76867,1,2,0:0:0:0:
64,192,77026,1,8,0:0:0:0:
192,192,77026,1,0,0:0:0:0:
64,192,77184,1,2,0:0:0:0:
320,192,77184,1,4,0:0:0:0:
448,192,77184,128,0,77502:0:0:0:0:
192,192,77502,1,2,0:0:0:0:
64,192,77660,1,8,0:0:0:0:
320,192,77660,1,0,0:0:0:0:
192,192,77978,1,2,0:0:0:0:
64,192,78137,1,2,0:0:0:0:
320,192,78295,1,8,0:0:0:0:
448,192,78295,1,0,0:0:0:0:
64,192,78454,128,4,78772:0:0:0:0:
192,192,78454,1,2,0:0:0:0:
448,192,78454,1,0,0:0:0:0:
320,192,78772,128,2,78930:0:0:0:0:
192,192,78930,1,8,0:0:0:0:
448,192,78930,1,0,0:0:0:0:
64,192,79089,128,0,79248:0:0:0:0:
448,192,79248,1,2,0:0:0:0:
192,192,79406,128,2,79565:0:0:0:0:
64,192,79565,1,8,0:0:0:0:
320,192,79565,1,0,0:0:0:0:
64,192,79724,1,2,0:0:0:0:
192,192,79724,1,4,0:0:0:0:
448,192,79724,128,0,80041:0:0:0:0:
320,192,80041,1,2,0:0:0:0:
64,192,80200,1,8,0:0:0:0:
192,192,80200,1,0,0:0:0:0:
320,192,80359,1,0,0:0:0:0:
64,192,80518,1,2,0:0:0:0:
192,192,80597,1,8,0:0:0:0:
448,192,80676,1,8,0:0:0:0:
320,192,80756,1,8,0:0:0:0:
64,192,80835,1,8,0:0:0:0:
192,192,80914,1,8,0:0:0:0:
320,192,80994,1,4,0:0:0:0:
448,192,80994,128,2,81311:0:0:0:0:
192,192,81311,1,2,0:0:0:0:
64,192,81470,1,4,0:0:0:0:
320,192,81470,1,8,0:0:0:0:
448,192,81470,1,0,0:0:0:0:
448,192,81787,1,2,0:0:0:0:
192,192,81946,1,2,0:0:0:0:
64,192,82105,1,8,0:0:0:0:
320,192,82105,1,0,0:0:0:0:
192,192,82264,1,2,0:0:0:0:
320,192,82264,1,4,0:0:0:0:
448,192,82264,128,0,82422:0:0:0:0:
64,192,82581,128,2,82740:0:0:0:0:
192,192,82581,1,0,0:0:0:0:
320,192,82740,1,8,0:0:0:0:
448,192,82740,1,0,0:0:0:0:
192,192,82899,128,0,83216:0:0:0:0:
64,192,83057,1,2,0:0:0:0:
448,192,83216,1,0,0:0:0:50:tom02.wav
320,192,83295,1,0,0:0:0:50:tom02.wav
64,192,83375,1,0,0:0:0:50:tom03.wav
192,192,83454,1,0,0:0:0:50:tom03.wav
64,192,83533,1,2,0:0:0:0:
320,192,83533,1,4,0:0:0:0:
448,192,83533,128,0,84962:0:0:0:0:
64,192,84962,1,4,0:0:0:0:
192,192,84962,1,2,0:0:0:0:
320,192,84962,1,0,0:0:0:0:
448,192,85121,1,0,0:0:0:50:tom03.wav
320,192,85200,1,0,0:0:0:50:tom03.wav
192,192,85279,1,0,0:0:0:50:tom03.wav
64,192,85359,1,0,0:0:0:50:tom03.wav
192,192,85438,1,4,0:0:0:0:
320,192,85438,1,2,0:0:0:0:
448,192,85438,1,0,0:0:0:0:
64,192,85597,1,0,0:0:0:50:tom03.wav
192,192,85676,1,0,0:0:0:50:tom03.wav
320,192,85756,1,0,0:0:0:50:tom03.wav
448,192,85835,1,0,0:0:0:50:tom03.wav
64,192,85914,128,4,86232:0:0:0:0:
192,192,85914,1,2,0:0:0:0:
320,192,85914,1,0,0:0:0:0:
192,192,86232,1,2,0:0:0:0:
320,192,86232,1,4,0:0:0:0:
448,192,86232,1,0,0:0:0:0:
448,192,86391,1,0,0:0:0:0:
64,192,86549,1,8,0:0:0:0:
192,192,86549,1,2,0:0:0:0:
64,192,86708,1,8,0:0:0:0:
192,192,86787,1,8,0:0:0:0:
320,192,86867,1,8,0:0:0:0:
448,192,86867,1,2,0:0:0:0:
448,192,87026,1,8,0:0:0:0:
320,192,87105,1,8,0:0:0:0:
64,192,87184,1,8,0:0:0:0:
192,192,87184,1,2,0:0:0:0:
192,192,87343,1,8,0:0:0:0:
320,192,87422,1,8,0:0:0:0:
64,192,87502,1,8,0:0:0:0:
448,192,87502,1,2,0:0:0:0:
320,192,87660,1,8,0:0:0:0:
192,192,87740,1,8,0:0:0:0:
64,192,87819,1,2,0:0:0:0:
448,192,87819,1,4,0:0:0:0:
320,192,87978,1,0,0:0:0:0:
64,192,88137,1,8,0:0:0:0:
192,192,88137,1,0,0:0:0:50:tom02.wav
64,192,88295,1,8,0:0:0:0:
192,192,88295,1,0,0:0:0:50:tom02.wav
320,192,88454,1,8,0:0:0:0:
448,192,88454,1,0,0:0:0:50:tom02.wav
320,192,88613,128,8,89089:0:0:0:0:
448,192,88613,128,0,89089:0:0:0:50:tom02.wav
