osu file format v14

[General]
AudioFilename: audio.mp3
AudioLeadIn: 0
PreviewTime:55002
Countdown: 0
SampleSet: Soft
StackLeniency: 0.5
Mode: 0
LetterboxInBreaks: 0
WidescreenStoryboard: 0

[Editor]
DistanceSpacing: 1
BeatDivisor: 4
GridSize: 4
TimelineZoom: 2

[Metadata]
Title:FLY HIGH!! (TV Size)
TitleUnicode:FLY HIGH!! (TV Size)
Artist:BURNOUT SYNDROMES
ArtistUnicode:BURNOUT SYNDROMES
Creator:Enerugi
Version:loliness' Shiny Feather
Source:ハイキュー!! セカンドシーズン
Tags:japanese anime version haikyu haikyuu second season op opening alexsander ataraxia milar001 einess ujimatsu chiya karia lolia
BeatmapID:1916994
BeatmapSetID:875289

[Difficulty]
HPDrainRate:6.5
CircleSize:4
OverallDifficulty:9
ApproachRate:9.3
SliderMultiplier:1.92
SliderTickRate:1

[Events]
//Background and Video events
0,0,"haikyubgreduced.jpg",0,0
Video,-10,"Untitled.avi"
//Break Periods
//Storyboard Layer 0 (Background)
//Storyboard Layer 1 (Fail)
//Storyboard Layer 2 (Pass)
//Storyboard Layer 3 (Foreground)
//Storyboard Layer 4 (Overlay)
//Storyboard Sound Samples

[TimingPoints]
1153,317.460317460317,4,2,0,40,1,0
1153,-133.333333333333,4,2,0,40,0,0
9883,-100,4,2,0,60,0,0
10676,-100,4,2,1,60,0,0
11152,-100,4,2,1,70,0,1
20835,-100,4,2,1,70,0,0
21152,-100,4,2,1,70,0,0
21470,-111.111111111111,4,2,2,60,0,0
26391,-111.111111111111,4,2,0,90,0,0
26470,-111.111111111111,4,2,2,60,0,0
29089,-111.111111111111,4,2,2,40,0,0
29406,-111.111111111111,4,2,2,50,0,0
29724,-111.111111111111,4,2,2,60,0,0
30041,-111.111111111111,4,2,2,70,0,0
30359,-111.111111111111,4,2,2,75,0,0
30676,-111.111111111111,4,2,2,80,0,0
30994,-111.111111111111,4,2,2,80,0,0
31152,-111.111111111111,4,2,2,80,0,0
31311,-111.111111111111,4,2,2,80,0,0
31470,-111.111111111111,4,2,2,80,0,0
31629,-111.111111111111,4,2,2,60,0,0
36708,-111.111111111111,4,2,2,66,0,0
39565,-111.111111111111,4,2,2,72,0,0
41152,-111.111111111111,4,2,2,55,0,0
41787,-125,4,2,3,55,0,0
47184,-125,4,2,3,65,0,0
51946,-111.111111111111,4,2,3,55,0,0
53375,-111.111111111111,4,2,3,55,0,0
53533,-111.111111111111,4,2,3,55,0,0
53851,-111.111111111111,4,2,3,55,0,0
54327,-111.111111111111,4,2,3,55,0,0
54803,-111.111111111111,4,2,1,60,0,0
55121,-111.111111111111,4,2,1,50,0,0
55597,-100,4,2,1,75,0,1
63375,-100,4,2,1,85,0,1
65756,-100,4,2,1,75,0,1
73533,-100,4,2,1,85,0,1
75914,-100,4,2,1,70,0,0
85359,-100,4,2,1,70,0,0
85438,-100,4,2,1,70,0,0
85835,-100,4,2,1,70,0,0
85914,-100,4,2,1,70,0,0
88613,-142.857142857143,4,2,1,70,0,0

[Colours]
Combo1 : 170,134,60
Combo2 : 252,224,182
Combo3 : 255,163,70

[HitObjects]
155,235,1153,6,0,B|59:255|59:255|-6:233,2,144.000005493164,2|0|0,0:0|0:0|0:0,0:0:0:0:
383,351,2264,2,0,P|343:303|351:207,1,144.000005493164,2|0,0:0|0:0,0:0:0:0:
447,143,2740,2,0,L|347:155,1,72.0000027465821,0|0,0:0|0:0,0:0:0:0:
283,103,3057,1,2,0:0:0:0:
72,119,3533,6,0,P|140:159|224:123,1,144.000005493164,2|0,0:0|0:0,0:0:0:0:
283,103,4010,2,0,L|275:7,1,72.0000027465821,0|0,0:0|0:0,0:0:0:0:
209,155,4327,2,0,L|203:226,1,72.0000027465821,2|0,0:0|0:0,0:0:0:0:
188,319,4645,1,0,0:0:0:0:
95,311,4803,6,0,P|129:301|165:298,1,72.0000027465821,2|0,0:0|0:0,0:0:0:0:
345,345,5121,2,0,P|309:342|274:332,1,72.0000027465821,2|0,0:0|0:0,0:0:0:0:
269,252,5438,2,0,P|333:260|419:289,1,144.000005493164,2|0,0:0|0:0,0:0:0:0:
488,336,5914,1,2,0:0:0:0:
512,210,6073,1,0,0:0:0:0:
300,48,6549,6,0,P|304:100|304:152,1,72.0000027465821,2|0,0:0|0:0,0:0:0:0:
217,162,6867,2,0,P|213:126|212:90,1,72.0000027465821,0|0,0:0|0:0,0:0:0:0:
306,208,7184,2,0,P|350:192|390:184,1,72.0000027465821,2|0,0:0|0:0,0:0:0:0:
367,325,7502,1,2,0:0:0:0:
273,361,7660,1,2,0:0:0:0:
177,328,7819,1,2,0:0:0:0:
140,234,7978,1,2,0:0:0:0:
142,90,8295,6,0,P|139:162|140:234,1,144.000005493164,2|0,0:0|0:0,0:0:0:0:
331,207,8772,2,0,P|291:152|222:156,1,144.000005493164,2|2,0:0|0:3,0:0:0:0:
136,324,9248,2,0,B|196:332|196:332|280:312,1,144.000005493164,2|2,0:0|0:3,0:0:0:0:
430,193,9724,1,0,3:0:0:0:
365,361,9883,1,2,0:0:0:0:
354,116,10676,5,0,1:0:0:0:
393,348,10835,1,0,1:3:0:0:
416,332,11152,6,0,L|220:308,1,192,4|0,0:2|3:0,0:0:0:0:
24,224,11629,2,0,P|92:220|132:208,1,96,0|0,1:0|0:0,0:0:0:0:
56,92,11946,1,0,3:0:0:0:
136,200,12105,1,0,3:0:0:0:
54,314,12264,1,0,1:0:0:0:
56,92,12422,6,0,P|140:60|212:136,1,192,4|0,0:0|3:0,0:0:0:0:
54,314,12899,2,0,P|34:270|24:224,1,96,0|0,1:0|0:0,0:0:0:0:
224,148,13216,1,0,3:0:0:0:
204,272,13375,1,0,3:0:0:0:
126,195,13533,1,0,1:0:0:0:
304,224,13692,6,0,P|372:196|372:72,1,192,4|0,0:0|3:0,0:0:0:0:
160,185,14168,2,0,B|172:253|172:253|160:313|160:313|172:374,1,192,0|0,1:0|3:0,0:0:0:0:
303,224,14645,1,0,3:0:0:0:
150,107,14803,1,0,1:0:0:0:
315,40,14962,6,0,B|336:96|336:96|304:224,1,192,4|0,0:0|3:0,0:0:0:0:
467,369,15438,2,0,P|455:322|448:274,1,96,0|0,1:0|3:0,0:0:0:0:
366,112,15756,1,0,1:2:0:0:
236,240,15914,1,0,1:2:0:0:
272,260,15994,1,0,1:2:0:0:
312,260,16073,1,2,1:2:0:0:
348,244,16152,1,2,1:2:0:0:
372,212,16232,6,0,P|270:192|148:172,1,192,4|0,1:2|0:0,0:0:0:0:
20,356,16708,2,0,P|84:344|140:332,1,96,4|0,1:2|0:0,0:0:0:0:
283,367,17026,1,0,3:0:0:0:
132,316,17184,1,0,3:0:0:0:
372,212,17343,1,0,1:0:0:0:
99,237,17502,6,0,P|38:215|1:200,1,96,4|0,3:2|0:0,0:0:0:0:
288,134,17819,2,0,P|334:120|378:102,1,96,0|0,3:0|1:0,0:0:0:0:
238,31,18137,1,0,0:0:0:0:
213,274,18295,1,8,3:0:0:0:
107,152,18454,1,0,3:0:0:0:
101,122,18533,1,0,3:0:0:0:
97,90,18613,1,0,3:0:0:0:
94,57,18692,1,4,3:0:0:0:
94,25,18772,5,4,3:2:0:0:
260,40,20200,5,0,1:0:0:0:
136,256,20359,1,0,0:0:0:0:
376,156,20518,1,0,1:0:0:0:
144,72,20676,1,0,0:0:0:0:
208,208,20835,2,0,L|256:204,3,48,0|0|0|0,3:0|0:0|0:0|0:0,0:0:0:0:
288,224,21152,2,0,L|336:228,3,48,0|0|0|0,1:0|1:0|1:0|1:0,0:0:0:0:
357,248,21470,6,0,P|380:210|381:161,1,86.3999973632813,4|0,3:1|0:0,0:0:0:0:
245,333,21787,2,0,P|288:338|333:318,1,86.3999973632813,0|0,3:0|2:0,0:0:0:0:
119,266,22105,1,0,3:0:0:0:
119,266,22264,2,0,P|132:307|169:340,1,86.3999973632813,2|0,2:0|3:0,0:0:0:0:
272,265,22581,1,2,0:2:0:0:
375,351,22740,6,0,B|388:296|388:296|377:248|377:248|397:165,1,172.799994726563,0|0,3:0|3:0,0:0:0:0:
272,265,23216,1,0,0:0:0:0:
459,352,23375,2,0,B|370:366,1,86.3999973632813,0|2,3:0|0:0,0:0:0:0:
231,331,23692,1,0,3:0:0:0:
468,361,23851,1,2,0:0:0:0:
231,331,24010,6,0,P|194:292|226:215,1,129.599996044922,2|0,3:2|0:0,0:0:0:0:
219,218,24327,2,0,L|130:235,1,86.3999973632813,0|0,3:0|0:0,0:0:0:0:
285,276,24645,1,0,3:0:0:0:
154,117,24803,1,2,0:0:0:0:
285,144,24962,1,0,3:0:0:0:
109,204,25121,1,2,0:0:0:0:
121,49,25279,5,0,3:0:0:0:
154,130,25438,1,2,0:0:0:0:
109,204,25597,1,0,3:0:0:0:
157,279,25756,1,2,0:0:0:0:
220,73,25914,2,0,P|260:66|309:86,1,86.3999973632813,0|2,3:0|0:0,0:0:0:0:
486,160,26232,2,0,P|437:167|390:174,1,86.3999973632813,0|0,3:2|0:0,0:0:0:0:
317,219,26470,1,2,0:0:0:0:
303,235,26549,6,0,P|296:279|324:326,1,86.3999973632813,0|2,3:0|0:0,0:0:0:0:
497,172,26867,2,0,P|504:216|476:263,1,86.3999973632813,0|2,3:0|0:0,0:0:0:0:
332,78,27184,2,0,P|325:122|353:169,1,86.3999973632813,0|0,3:0|0:0,0:0:0:0:
479,264,27502,1,0,3:0:0:0:
260,324,27660,1,2,0:3:0:0:
472,273,27819,6,0,P|401:263|327:251,1,129.599996044922,0|0,3:0|0:0,0:0:0:0:
258,221,28137,2,0,L|274:313,1,86.3999973632813,0|0,3:0|0:0,0:0:0:0:
241,129,28454,1,0,3:0:0:0:
127,311,28613,1,0,0:0:0:0:
0,160,28772,2,0,P|48:150|101:139,1,86.3999973632813,0|0,3:0|0:0,0:0:0:0:
172,104,29010,1,0,0:0:0:0:
191,95,29089,6,0,L|180:199,1,86.3999973632813,2|0,3:0|0:0,0:0:0:0:
116,39,29406,1,2,3:0:0:0:
257,142,29565,1,0,0:0:0:0:
27,184,29724,1,2,3:0:0:0:
241,129,29883,1,0,0:0:0:0:
4,53,30041,1,2,3:0:0:0:
264,121,30200,1,0,0:0:0:0:
97,303,30359,5,2,3:0:0:0:
170,70,30518,1,0,0:0:0:0:
97,303,30676,1,2,3:0:0:0:
13,132,30835,1,2,3:0:0:0:
13,132,30914,1,0,3:0:0:0:
13,132,30994,1,4,3:0:0:0:
239,184,31152,1,0,3:0:0:0:
155,203,31311,1,4,3:0:0:0:
69,219,31470,1,8,3:0:0:0:
296,344,31629,6,0,P|341:296|304:196,1,172.799994726563,4|0,3:1|3:0,0:0:0:0:
312,201,32105,1,0,0:0:0:0:
456,349,32264,1,0,3:0:0:0:
508,133,32422,1,2,0:0:0:0:
456,349,32581,2,0,L|436:258,1,86.3999973632813,8|2,0:2|0:0,0:0:0:0:
390,53,32899,6,0,L|371:158,1,86.3999973632813,0|0,3:0|0:0,0:0:0:0:
209,275,33216,2,0,L|305:247,1,86.3999973632813,0|2,3:0|0:0,0:0:0:0:
169,84,33533,2,0,P|200:112|256:130,1,86.3999973632813,0|2,3:0|0:0,0:0:0:0:
45,225,33851,2,0,P|83:207|143:210,1,86.3999973632813,8|0,0:0|0:0,0:0:0:0:
33,40,34168,6,0,P|45:81|71:115,1,86.3999973632813,0|0,3:0|0:0,0:0:0:0:
206,201,34486,1,0,3:0:0:0:
30,244,34645,1,2,0:0:0:0:
152,356,34803,2,0,L|173:238,1,86.3999973632813,0|0,3:0|0:0,0:0:0:0:
371,310,35121,1,10,0:0:0:0:
289,205,35279,1,2,0:0:0:0:
411,135,35438,6,0,P|416:186|422:244,1,86.3999973632813,0|0,0:0|0:0,0:0:0:0:
308,41,35756,2,0,P|303:92|297:150,1,86.3999973632813,0|0,3:0|0:0,0:0:0:0:
277,308,36073,1,0,3:0:0:0:
194,176,36232,1,2,0:0:0:0:
420,236,36391,1,8,0:0:0:0:
420,236,36549,1,2,0:0:0:0:
205,351,36708,6,0,B|271:335|271:335|337:366,1,129.599996044922,4|0,0:1|0:0,0:0:0:0:
415,335,37026,2,0,P|434:299|423:243,1,86.3999973632813,8|0,1:2|0:0,0:0:0:0:
323,86,37343,1,0,3:0:0:0:
458,164,37502,1,0,0:0:0:0:
255,224,37660,1,8,1:2:0:0:
359,171,37819,1,2,0:0:0:0:
130,124,37978,6,0,P|174:89|252:115,1,129.599996044922,0|0,3:0|0:0,0:0:0:0:
241,103,38295,1,8,1:2:0:0:
100,277,38454,2,0,L|84:185,1,86.3999973632813,2|0,0:0|3:0,0:0:0:0:
16,341,38772,1,2,0:0:0:0:
200,266,38930,2,0,P|265:255|336:289,1,129.599996044922,0|0,3:0|0:0,0:0:0:0:
402,333,39248,6,0,B|338:318|338:318|277:351,1,129.599996044922,4|0,0:0|0:0,0:0:0:0:
194,384,39565,2,0,P|189:344|180:285,1,86.3999973632813,8|0,1:2|0:0,0:0:0:0:
286,117,39883,1,0,3:0:0:0:
321,195,40041,1,4,3:3:0:0:
274,268,40200,1,8,3:3:0:0:
477,197,40359,6,0,P|412:193|338:186,1,129.599996044922,4|0,0:0|0:0,0:0:0:0:
278,132,40676,2,0,L|265:176,1,43.1999986816407,0|0,1:0|0:0,0:0:0:0:
205,306,40835,2,0,L|194:265,1,43.1999986816407,0|0,1:0|1:0,0:0:0:0:
94,158,40994,1,0,1:0:0:0:
94,158,41073,1,0,1:0:0:0:
94,158,41152,5,8,3:0:0:0:
128,164,41232,1,8,3:0:0:0:
161,170,41311,1,8,3:0:0:0:
195,176,41391,1,8,3:0:0:0:
222,196,41470,5,4,3:0:0:0:
255,187,41549,1,4,3:0:0:0:
288,178,41629,1,4,3:0:0:0:
321,169,41708,1,4,3:0:0:0:
344,144,41787,6,0,P|337:232|336:320,2,153.6,4|8|0,0:1|0:2|3:0,0:0:0:0:
456,88,42581,1,0,0:0:0:0:
236,24,42740,1,8,0:2:0:0:
248,32,43057,5,0,3:0:0:0:
164,140,43216,1,2,3:2:0:0:
400,212,43375,1,8,0:2:0:0:
392,236,43692,5,0,3:2:0:0:
340,100,43851,1,0,3:2:0:0:
279,325,44010,2,0,P|316:316|351:302,1,76.8,8|0,0:2|0:0,0:0:0:0:
465,175,44327,6,0,L|280:196,1,153.6,0|8,0:0|0:2,0:0:0:0:
32,80,44962,1,0,3:0:0:0:
160,28,45121,1,0,0:0:0:0:
68,232,45279,2,0,P|52:176|44:144,1,76.8,8|2,0:2|3:2,0:0:0:0:
240,108,45597,6,0,P|232:204|216:272,1,153.6,0|8,3:0|0:2,0:0:0:0:
156,336,46073,1,2,0:0:0:0:
372,316,46232,2,0,P|324:288|284:272,1,76.8,0|2,3:2|3:2,0:0:0:0:
68,232,46549,2,0,P|136:220|164:208,1,76.8,8|2,0:2|0:0,0:0:0:0:
368,152,46867,6,0,P|285:138|184:128,2,153.6,4|8|0,0:1|0:2|3:0,0:0:0:0:
448,96,47660,1,0,3:0:0:0:
500,268,47819,2,0,P|444:276|412:284,1,76.8,8|2,1:2|0:0,0:0:0:0:
269,358,48137,6,0,P|326:343|350:310,1,76.8,2|0,3:2|3:0,0:0:0:0:
159,247,48454,2,0,P|198:290|238:297,1,76.8,8|0,0:2|3:0,0:0:0:0:
229,110,48772,2,0,P|201:161|208:201,1,76.8,0|0,3:0|0:0,0:0:0:0:
387,107,49089,2,0,P|328:108|297:135,1,76.8,8|2,1:2|0:2,0:0:0:0:
466,196,49406,6,0,L|491:21,1,153.6,4|2,0:1|0:3,0:0:0:0:
387,107,49883,1,8,0:2:0:0:
418,259,50041,2,0,P|452:273|493:268,1,76.8,8|4,3:3|3:0,0:0:0:0:
259,202,50359,2,0,P|299:186|339:178,1,76.8,0|0,3:3|3:0,0:0:0:0:
262,357,50676,6,0,P|230:336|215:298,1,76.8,8|0,1:2|0:0,0:0:0:0:
344,194,50994,2,0,L|327:269,1,76.8,8|0,1:2|0:0,0:0:0:0:
149,251,51311,1,0,1:0:0:0:
140,225,51391,1,0,1:0:0:0:
137,198,51470,1,0,1:0:0:0:
145,172,51549,1,0,1:0:0:0:
165,153,51629,5,0,1:0:0:0:
139,160,51708,1,0,1:0:0:0:
113,166,51787,1,0,1:0:0:0:
87,174,51867,1,0,1:0:0:0:
58,184,51946,6,0,P|146:201|264:218,1,172.799994726563,4|0,0:1|0:0,0:0:0:0:
393,60,52422,2,0,B|361:100|361:100|398:230,1,172.799994726563,4|0,0:1|0:0,0:0:0:0:
299,362,52899,2,0,P|327:295|255:301,1,172.799994726563,8|0,0:2|0:0,0:0:0:0:
430,348,53375,5,2,0:3:0:0:
160,277,53533,1,2,0:2:0:0:
160,277,53851,5,0,1:0:0:0:
182,251,53930,1,0,1:0:0:0:
195,219,54010,1,0,1:0:0:0:
191,184,54089,1,0,1:0:0:0:
175,153,54168,1,0,1:0:0:0:
145,134,54248,1,0,1:0:0:0:
110,135,54327,5,0,1:0:0:0:
140,150,54406,1,0,1:0:0:0:
175,153,54486,1,8,1:2:0:0:
205,137,54565,1,0,1:0:0:0:
237,124,54645,1,8,1:2:0:0:
271,127,54724,1,0,1:0:0:0:
301,143,54803,1,8,1:2:0:0:
319,172,54883,1,0,1:2:0:0:
317,206,54962,1,8,1:2:0:0:
165,42,55121,5,10,0:2:0:0:
119,306,55279,1,10,0:2:0:0:
136,294,55597,6,0,B|196:296|196:296|229:279|229:279|267:287|267:287|342:270,1,192,4|0,0:2|3:0,0:0:0:0:
458,86,56073,2,0,P|446:142|437:185,1,96,8|0,1:2|0:0,0:0:0:0:
394,339,56391,1,0,3:0:0:0:
476,256,56549,1,0,3:0:0:0:
252,171,56708,1,8,1:2:0:0:
476,256,56867,6,0,P|389:264|281:274,1,192,4|0,0:2|3:0,0:0:0:0:
99,175,57343,2,0,P|111:222|124:271,1,96,8|0,1:2|0:0,0:0:0:0:
195,78,57660,1,0,3:0:0:0:
268,178,57819,1,0,3:0:0:0:
45,302,57978,1,8,1:2:0:0:
268,178,58137,6,0,B|251:216|251:216|266:247|266:247|230:291|237:359,1,192,4|0,0:0|3:0,0:0:0:0:
182,150,58613,2,0,P|252:141|352:126,1,144,8|0,1:2|3:0,0:0:0:0:
427,106,58930,2,0,P|416:162|406:211,1,96,0|0,3:0|3:0,0:0:0:0:
248,34,59248,1,8,1:2:0:0:
140,247,59406,6,0,P|92:204|114:118,1,144,4|0,0:0|3:0,0:0:0:0:
196,150,59724,2,0,P|200:202|157:240,1,96,0|8,3:0|0:2,0:0:0:0:
61,306,60041,1,0,3:0:0:0:
271,239,60200,2,0,P|264:288|255:347,1,96,0|0,3:0|3:0,0:0:0:0:
188,135,60518,1,8,1:2:0:0:
414,212,60676,6,0,P|474:155|412:54,1,192,4|0,0:0|3:0,0:0:0:0:
341,266,61152,2,0,P|334:221|326:157,1,96,8|0,1:2|0:0,0:0:0:0:
462,362,61470,2,0,P|469:317|478:256,1,96,0|0,3:0|3:0,0:0:0:0:
266,384,61787,2,0,P|255:339|240:279,1,96,8|0,1:2|0:0,0:0:0:0:
96,126,62105,5,0,3:0:0:0:
230,205,62264,1,0,3:0:0:0:
10,288,62422,1,8,1:2:0:0:
165,57,62581,2,0,P|173:110|180:156,1,96,0|0,3:0|0:0,0:0:0:0:
336,277,62899,5,0,3:0:0:0:
447,21,63057,1,8,1:2:0:0:
297,150,63216,1,0,0:0:0:0:
506,244,63375,5,0,1:0:0:0:
506,244,63533,2,0,P|453:253|410:261,1,96,0|0,1:0|0:0,0:0:0:0:
191,156,63851,2,0,P|200:207|208:256,1,96,0|0,1:0|0:0,0:0:0:0:
399,34,64168,2,0,P|390:85|382:134,1,96,0|4,1:0|3:3,0:0:0:0:
117,66,64486,6,0,P|216:52|314:32,1,192,0|0,1:0|1:0,0:0:0:0:
107,181,64962,2,0,P|159:190|208:203,1,96,0|0,1:0|1:0,0:0:0:0:
407,344,65279,1,0,1:0:0:0:
394,296,65359,1,0,1:0:0:0:
362,260,65438,1,0,1:0:0:0:
317,240,65518,1,0,1:0:0:0:
270,250,65597,1,0,1:0:0:0:
234,282,65676,1,0,1:0:0:0:
206,320,65756,6,0,P|221:242|238:117,1,192,4|0,0:2|3:0,0:0:0:0:
432,210,66232,2,0,P|378:215|326:220,1,96,12|0,1:2|0:0,0:0:0:0:
169,54,66549,1,0,3:0:0:0:
169,54,66708,1,0,3:0:0:0:
311,250,66867,1,8,1:2:0:0:
474,46,67026,6,0,B|461:107|461:107|478:160|478:160|459:252,1,192,4|0,0:0|3:0,0:0:0:0:
302,79,67502,2,0,B|254:67|254:67|196:96,1,96,8|0,1:2|0:0,0:0:0:0:
396,26,67819,1,0,3:0:0:0:
396,26,67978,1,0,3:0:0:0:
239,209,68137,1,8,1:2:0:0:
58,31,68295,6,0,B|98:69|98:69|156:18|256:33,1,192,4|0,0:0|3:0,0:0:0:0:
118,208,68772,2,0,B|110:168|110:168|116:155|116:155|107:98,1,96,8|0,1:2|0:0,0:0:0:0:
270,284,69089,1,0,3:0:0:0:
76,336,69248,1,0,3:0:0:0:
203,158,69406,1,8,1:2:0:0:
315,371,69565,6,0,P|368:374|411:354,1,96,4|0,0:0|0:0,0:0:0:0:
509,168,69883,2,0,P|500:226|492:273,1,96,0|8,3:0|1:2,0:0:0:0:
352,93,70200,1,0,3:0:0:0:
352,93,70359,2,0,P|359:140|367:187,1,96,0|0,3:0|3:0,0:0:0:0:
458,18,70676,1,8,1:2:0:0:
276,174,70835,6,0,P|191:192|135:106,1,192,4|0,0:0|3:0,0:0:0:0:
15,290,71311,2,0,P|71:281|127:273,1,96,8|0,1:2|0:0,0:0:0:0:
32,77,71629,2,0,P|41:133|49:189,1,96,0|0,3:0|3:0,0:0:0:0:
235,21,71946,2,0,P|226:77|218:133,1,96,8|0,1:2|0:0,0:0:0:0:
172,302,72264,5,0,3:0:0:0:
134,174,72422,1,0,3:0:0:0:
278,340,72581,1,8,1:2:0:0:
405,148,72740,2,0,P|425:198|413:244,1,96,0|0,3:0|0:0,0:0:0:0:
261,333,73057,5,0,3:0:0:0:
326,120,73216,1,12,1:2:0:0:
357,300,73375,1,0,0:0:0:0:
146,210,73533,5,4,1:2:0:0:
146,210,73692,2,0,P|202:202|254:193,1,96,0|4,1:0|3:3,0:0:0:0:
44,54,74010,2,0,L|52:106|60:158,1,96,0|0,1:0|0:0,0:0:0:0:
261,21,74327,2,0,L|253:73|245:125,1,96,0|0,1:0|0:0,0:0:0:0:
49,302,74645,6,0,P|113:247|219:300,1,192,0|4,1:0|3:0,0:0:0:0:
36,146,75121,1,8,1:2:0:0:
137,341,75279,1,8,1:2:0:0:
291,182,75438,2,0,P|261:191|232:195,1,48,8|8,1:2|1:2,0:0:0:0:
120,228,75597,1,8,1:2:0:0:
148,224,75676,1,0,1:2:0:0:
176,232,75756,1,12,1:2:0:0:
196,252,75835,1,0,1:2:0:0:
206,279,75914,6,0,P|212:208|248:64,1,192,6|0,0:1|3:0,0:0:0:0:
417,203,76391,2,0,P|463:212|511:215,1,96,12|0,1:2|0:0,0:0:0:0:
456,109,76708,1,0,3:0:0:0:
382,282,76867,1,0,3:0:0:0:
300,28,77026,1,8,1:2:0:0:
182,165,77184,6,0,P|120:155|74:141,1,96,4|0,0:1|0:0,0:0:0:0:
187,24,77502,1,0,3:0:0:0:
246,239,77660,2,0,L|220:360,1,96,8|0,1:2|0:0,0:0:0:0:
102,259,77978,1,0,3:0:0:0:
215,346,78137,1,0,3:0:0:0:
308,140,78295,1,8,1:2:0:0:
388,360,78454,6,0,B|396:292|396:292|380:232|380:232|392:152,1,192,4|4,0:1|3:0,0:0:0:0:
229,26,78930,1,0,0:0:0:0:
308,221,79089,2,0,P|396:263|474:213,1,192,4|4,3:0|3:0,0:0:0:0:
328,112,79565,1,0,0:0:0:0:
252,284,79724,6,0,B|188:272|188:272|148:292|148:292|112:272|40:292,1,192,4|0,0:1|3:0,0:0:0:0:
0,128,80200,2,0,P|67:139|112:128,1,96,8|0,1:2|0:0,0:0:0:0:
240,64,80518,1,8,1:2:0:0:
308,248,80676,1,8,1:2:0:0:
304,220,80756,1,8,0:2:0:0:
300,192,80835,1,8,1:2:0:0:
296,164,80914,1,8,1:2:0:0:
292,136,80994,6,0,L|280:340,1,192,6|0,1:1|0:0,0:0:0:0:
494,170,81470,2,0,P|490:121|477:68,1,96,12|0,1:2|0:0,0:0:0:0:
308,248,81787,1,0,3:0:0:0:
452,277,81946,1,0,3:0:0:0:
368,32,82105,1,8,1:2:0:0:
198,153,82264,6,0,P|245:149|291:135,1,96,0|0,1:2|0:0,0:0:0:0:
359,321,82581,2,0,P|313:307|265:304,1,96,0|8,3:0|1:2,0:0:0:0:
70,365,82899,1,8,3:0:0:0:
159,133,83057,1,4,3:0:0:0:
164,166,83137,1,8,3:0:0:0:
168,199,83216,1,4,3:0:0:0:
172,232,83295,1,4,3:0:0:0:
178,265,83375,1,4,3:0:0:0:
182,298,83454,1,4,3:0:0:0:
186,331,83533,5,4,1:1:0:0:
186,331,84962,6,0,P|235:281|170:324,1,240,4|0,3:2|0:0,0:0:0:0:
285,355,85438,2,0,P|295:241|200:177,1,240,4|0,3:2|0:0,0:0:0:0:
82,273,85914,2,0,P|99:229|134:197,1,96,4|0,3:0|0:0,0:0:0:0:
277,105,86232,6,0,P|219:90|184:80,1,96,12|0,0:2|0:0,0:0:0:0:
19,60,86549,1,8,1:2:0:0:
46,51,86629,1,0,1:0:0:0:
74,56,86708,1,8,1:2:0:0:
96,73,86787,1,0,1:0:0:0:
109,93,86867,5,8,1:2:0:0:
102,130,86946,1,0,1:0:0:0:
107,168,87026,1,8,1:2:0:0:
133,197,87105,1,0,1:0:0:0:
168,212,87184,6,0,L|214:199,1,48,8|0,1:2|1:0,0:0:0:0:
308,66,87343,2,0,L|295:112,1,48,8|0,1:2|1:0,0:0:0:0:
354,265,87502,2,0,L|320:230,1,48,8|0,1:2|1:0,0:0:0:0:
236,40,87660,5,8,1:2:0:0:
226,77,87740,1,8,1:2:0:0:
217,113,87819,1,8,1:2:0:0:
168,288,87978,1,0,1:0:0:0:
457,154,88137,5,8,3:2:0:0:
87,323,88295,1,8,3:2:0:0:
472,319,88454,5,8,3:2:0:0:
66,95,88613,1,8,3:2:0:0:
