osu file format v14

[General]
AudioFilename: audio.mp3
AudioLeadIn: 0
PreviewTime: 55002
Countdown: 0
SampleSet: Soft
StackLeniency: 0.4
Mode: 0
LetterboxInBreaks: 0
WidescreenStoryboard: 1

[Editor]
Bookmarks: 410,11044,21362,41679,53425,55489,65648,75806,83425,86759,88505
DistanceSpacing: 1.1
BeatDivisor: 4
GridSize: 8
TimelineZoom: 1.6

[Metadata]
Title:FLY HIGH!! (TV Size)
TitleUnicode:FLY HIGH!! (TV Size)
Artist:BURNOUT SYNDROMES
ArtistUnicode:BURNOUT SYNDROMES
Creator:Enerugi
Version:Normal
Source:ハイキュー!! セカンドシーズン
Tags:japanese anime version haikyu haikyuu second season op opening alexsander ataraxia milar001 einess ujimatsu chiya karia lolia
BeatmapID:1829199
BeatmapSetID:875289

[Difficulty]
HPDrainRate:3
CircleSize:3
OverallDifficulty:4
ApproachRate:5
SliderMultiplier:1
SliderTickRate:1

[Events]
//Background and Video events
0,0,"haikyubgreduced.jpg",0,0
Video,-10,"Untitled.avi"
//Break Periods
2,18971,20270
//Storyboard Layer 0 (Background)
//Storyboard Layer 1 (Fail)
//Storyboard Layer 2 (Pass)
//Storyboard Layer 3 (Foreground)
//Storyboard Layer 4 (Overlay)
//Storyboard Sound Samples

[TimingPoints]
1153,317.460317460317,4,2,0,40,1,0
1153,-100,4,2,0,40,0,0
9883,-100,4,2,0,60,0,0
10676,-100,4,2,1,60,0,0
11152,-100,4,2,1,70,0,0
21470,-100,4,2,2,60,0,0
26391,-100,4,2,0,90,0,0
26470,-100,4,2,2,60,0,0
29089,-100,4,2,2,40,0,0
29406,-100,4,2,2,50,0,0
29724,-100,4,2,2,60,0,0
30041,-100,4,2,2,70,0,0
30359,-100,4,2,2,75,0,0
30676,-100,4,2,2,80,0,0
31629,-100,4,2,2,60,0,0
36708,-100,4,2,2,66,0,0
39565,-100,4,2,2,72,0,0
41152,-100,4,2,2,55,0,0
41787,-100,4,2,3,55,0,0
47184,-100,4,2,3,65,0,0
51946,-100,4,2,3,55,0,0
55121,-100,4,2,1,50,0,0
55597,-100,4,2,1,75,0,1
63375,-100,4,2,1,85,0,1
65756,-100,4,2,1,75,0,1
73533,-100,4,2,1,85,0,1
75914,-100,4,2,1,70,0,0

[Colours]
Combo1 : 170,134,60
Combo2 : 252,224,182
Combo3 : 255,163,70

[HitObjects]
16,41,1153,6,0,P|114:19|222:44,1,200,2|0,0:0|0:0,0:0:0:0:
354,118,2264,2,0,P|352:200|363:275,1,150,2|0,0:0|0:0,0:0:0:0:
410,365,3057,1,2,0:0:0:0:
246,383,3533,6,0,L|87:367,1,150,2|0,0:0|0:0,0:0:0:0:
56,265,4327,2,0,P|58:217|46:101,1,150,2|2,0:0|0:0,0:0:0:0:
4,18,5121,1,2,0:0:0:0:
113,0,5438,2,0,P|189:-6|323:35,1,200,2|0,0:0|0:0,0:0:0:0:
253,182,6549,6,0,P|295:192|357:185,1,100,2|0,0:0|0:0,0:0:0:0:
449,136,7184,1,2,0:0:0:0:
442,245,7502,2,0,L|500:238,2,50,2|2|2,0:0|0:0|0:0,0:0:0:0:
392,268,7978,1,2,0:0:0:0:
292,222,8295,6,0,P|235:218|129:251,2,150,2|2|2,0:0|0:0|0:0,0:0:0:0:
392,268,9565,1,2,0:3:0:0:
303,333,9883,2,0,P|277:344|204:343,1,100,0|0,3:0|3:0,0:0:0:0:
150,247,10518,2,0,L|165:194,2,50,2|8|8,3:2|1:3|1:3,0:0:0:0:
51,296,11152,6,0,P|62:232|50:145,1,150,4|0,0:2|1:0,0:0:0:0:
6,47,11946,1,0,3:0:0:0:
111,77,12264,1,0,1:0:0:0:
111,77,12422,2,0,P|206:92|274:78,1,150,4|0,0:0|1:0,0:0:0:0:
364,54,13216,1,0,3:0:0:0:
321,155,13533,1,0,1:0:0:0:
321,155,13692,6,0,P|306:250|320:318,1,150,4|0,0:0|1:0,0:0:0:0:
410,352,14486,1,0,3:0:0:0:
456,252,14803,1,0,1:0:0:0:
456,252,14962,2,0,P|456:177|433:106,1,150,4|0,0:0|1:0,0:0:0:0:
349,37,15756,2,0,L|231:42,1,100,0|2,1:2|1:2,0:0:0:0:
200,67,16232,6,0,P|177:138|177:212,1,150,4|4,1:2|1:2,0:0:0:0:
154,320,17026,2,0,L|102:330,2,50,0|0|0,3:0|3:0|1:0,0:0:0:0:
203,344,17502,1,4,3:2:0:0:
305,305,17819,2,0,L|313:193,1,100,0|0,3:0|1:0,0:0:0:0:
353,168,18295,1,8,3:0:0:0:
353,168,18454,2,0,B|381:166|381:166|424:174,2,50,0|0|4,1:2|1:2|3:2,0:0:0:0:
276,241,21470,6,0,L|174:247,1,100,4|0,3:1|3:0,0:0:0:0:
66,253,22105,1,0,2:0:0:0:
66,253,22264,2,0,L|32:159,2,100,2|2|0,2:0|0:2|0:0,0:0:0:0:
126,345,23216,2,0,L|233:352,1,100,0|2,0:0|0:0,0:0:0:0:
314,285,23851,1,0,0:0:0:0:
314,285,24010,6,0,P|332:223|329:187,1,100,2|0,3:2|3:0,0:0:0:0:
230,138,24645,1,0,3:0:0:0:
230,138,24803,2,0,L|241:70,1,50,2|0,0:0|3:0,0:0:0:0:
246,33,25121,2,0,P|163:58|102:43,1,150,2|0,0:0|3:0,0:0:0:0:
11,103,25914,1,0,3:0:0:0:
68,197,26232,2,0,L|46:264,2,50,0|0|0,3:2|0:0|3:0,0:0:0:0:
157,132,26867,5,0,3:0:0:0:
169,241,27184,2,0,L|274:246,1,100,0|0,3:0|3:0,0:0:0:0:
361,304,27819,2,0,L|366:199,1,100,0|0,3:0|3:0,0:0:0:0:
428,113,28454,2,0,L|323:108,1,100,0|0,3:0|3:0,0:0:0:0:
218,103,29089,5,2,3:0:0:0:
139,179,29406,1,2,3:0:0:0:
213,260,29724,2,0,L|222:372,1,100,2|2,3:0|3:0,0:0:0:0:
325,384,30359,1,2,3:0:0:0:
423,335,30676,1,2,3:0:0:0:
374,232,30994,2,0,P|370:208|371:176,1,50,4|0,3:0|3:0,0:0:0:0:
396,134,31311,2,0,P|395:112|390:84,1,50,4|8,3:0|3:0,0:0:0:0:
358,38,31629,6,0,P|315:34|259:47,1,100,4|0,3:1|3:0,3:0:0:0:
192,133,32264,1,0,3:0:0:0:
192,133,32422,2,0,L|92:142,2,100,2|2|0,0:0|0:0|0:0,0:0:0:0:
297,166,33375,1,2,0:0:0:0:
215,240,33692,2,0,P|213:285|230:346,1,100,2|0,0:0|0:0,0:0:0:0:
268,372,34168,5,0,3:0:0:0:
374,384,34486,2,0,P|416:378|467:346,1,100,0|0,3:0|0:0,0:0:0:0:
508,247,35121,1,10,0:0:0:0:
508,247,35279,2,0,P|509:183|461:110,1,150,2|0,0:0|3:0,0:0:0:0:
376,45,36073,2,0,P|384:29|393:-9,2,50,0|2|8,3:0|0:0|0:0,0:0:0:0:
312,136,36708,6,0,P|256:154|210:154,1,100,4|8,0:1|1:2,0:0:0:0:
117,104,37343,2,0,P|112:86|109:50,2,50,0|0|8,3:0|0:0|1:2,0:0:0:0:
66,201,37978,2,0,P|65:239|47:298,1,100,0|8,3:0|1:2,0:0:0:0:
15,343,38454,2,0,P|77:346|156:384,1,150,2|0,0:0|1:0,0:0:0:0:
269,384,39248,5,4,0:0:0:0:
371,347,39565,1,8,1:2:0:0:
414,245,39883,2,0,L|404:185,1,50,0|4,3:0|3:3,0:0:0:0:
381,146,40200,2,0,L|391:86,1,50,8|4,3:3|0:0,0:0:0:0:
332,2,40676,2,0,B|265:-8|218:48|218:48|169:103|104:76,1,250,0|4,1:0|3:0,0:0:0:0:
96,185,41787,6,0,P|148:197|206:179,1,100,4|8,0:1|0:2,0:0:0:0:
288,130,42422,2,0,P|336:119|384:131,1,100,0|8,3:0|0:2,0:0:0:0:
424,169,42899,1,0,3:0:0:0:
424,169,43057,1,0,3:0:0:0:
457,273,43375,1,8,0:2:0:0:
368,336,43692,1,0,3:2:0:0:
280,270,44010,1,8,0:2:0:0:
314,166,44327,6,0,P|316:111|295:59,1,100,2|8,3:2|0:2,0:0:0:0:
206,13,44962,2,0,P|151:11|99:32,1,100,0|8,3:0|0:2,0:0:0:0:
69,62,45438,1,2,3:2:0:0:
69,62,45597,1,0,3:0:0:0:
11,155,45914,1,8,0:2:0:0:
62,252,46232,1,0,3:2:0:0:
171,249,46549,2,0,L|231:247,1,50,8|2,0:2|0:0,0:0:0:0:
269,274,46867,6,0,P|316:283|368:278,1,100,4|8,0:1|0:2,0:0:0:0:
451,204,47502,2,0,P|455:154|446:105,1,100,0|8,3:0|1:2,0:0:0:0:
352,48,48137,2,0,B|355:22|355:22|362:0,2,50,2|0|8,3:2|3:0|0:2,0:0:0:0:
287,137,48772,2,0,B|294:159|294:159|297:185,2,50,0|0|8,3:0|0:0|1:2,0:0:0:0:
203,66,49406,6,0,P|153:53|96:61,1,100,4|2,0:1|0:3,0:0:0:0:
57,84,49883,1,8,0:2:0:0:
0,177,50200,1,4,3:0:0:0:
0,177,50359,2,0,P|-7:224|8:277,2,100,0|8|8,3:3|1:2|1:2,0:0:0:0:
110,176,51311,2,0,L|161:181,1,50,0|0,1:0|1:0,0:0:0:0:
202,216,51629,2,0,L|271:209,1,50,0|0,1:0|1:0,0:0:0:0:
306,211,51946,6,0,P|303:262|320:317,1,100,4|0,0:1|0:0,0:0:0:0:
347,354,52422,1,4,0:1:0:0:
454,331,52740,1,0,3:0:0:0:
454,331,52899,2,0,P|467:282|463:233,1,100,8|0,0:2|0:0,0:0:0:0:
437,184,53375,2,0,L|442:122,1,50,2|2,0:3|0:2,0:0:0:0:
343,216,55121,6,0,L|338:272,1,50,10|10,0:2|0:2,0:0:0:0:
372,370,55597,6,0,P|298:352|207:371,1,150,4|8,0:2|1:2,0:0:0:0:
117,383,56391,2,0,P|115:358|106:330,1,50,0|0,3:0|3:0,0:0:0:0:
77,287,56708,1,8,1:2:0:0:
77,287,56867,2,0,P|60:209|67:136,1,150,4|8,0:2|1:2,0:0:0:0:
165,93,57660,2,0,P|197:96|232:93,1,50,0|0,3:0|3:0,0:0:0:0:
269,86,57978,1,8,1:2:0:0:
269,86,58137,6,0,P|339:75|417:83,1,150,4|8,0:0|1:2,0:0:0:0:
490,165,58930,2,0,B|497:219|497:219|490:281,1,100,0|8,3:0|1:2,0:0:0:0:
463,311,59406,2,0,B|412:317|412:317|351:307,1,100,4|0,0:0|3:0,0:0:0:0:
268,255,60041,2,0,B|273:233|277:209|277:209|274:184|269:155,1,100,0|0,3:0|3:0,0:0:0:0:
253,102,60518,1,8,1:2:0:0:
253,102,60676,6,0,L|149:99,1,100,4|0,0:0|3:0,0:0:0:0:
100,115,61152,1,8,1:2:0:0:
43,209,61470,1,0,3:0:0:0:
78,312,61787,1,8,1:2:0:0:
185,338,62105,2,0,L|254:341,1,50,0|0,3:0|3:0,0:0:0:0:
280,309,62422,2,0,L|349:306,1,50,8|0,1:2|3:0,0:0:0:0:
437,282,62899,1,0,3:0:0:0:
437,282,63057,2,0,L|446:223,1,50,8|0,1:2|0:0,0:0:0:0:
457,178,63375,6,0,L|525:164,2,50,0|0|0,1:0|1:0|0:0,0:0:0:0:
412,145,63851,1,0,1:0:0:0:
329,72,64168,1,0,1:0:0:0:
231,123,64486,2,0,P|240:179|227:232,1,100,0|0,1:0|1:0,0:0:0:0:
170,312,65121,1,8,1:2:0:0:
170,312,65279,2,0,L|66:317,1,100,0|8,1:2|1:2,0:0:0:0:
26,282,65756,6,0,P|20:228|22:161,1,100,4|0,0:2|3:0,0:0:0:0:
38,130,66232,1,12,1:2:0:0:
122,60,66549,1,0,3:0:0:0:
225,97,66867,1,8,1:2:0:0:
225,97,67026,2,0,P|276:99|326:88,1,100,4|0,0:0|3:0,0:0:0:0:
369,58,67502,1,8,1:2:0:0:
468,11,67819,1,0,3:0:0:0:
504,114,68137,1,8,1:2:0:0:
504,114,68295,6,0,P|508:175|492:218,1,100,4|0,0:0|3:0,0:0:0:0:
448,240,68772,2,0,P|394:237|336:242,1,100,8|0,1:2|3:0,0:0:0:0:
269,319,69406,1,8,1:2:0:0:
269,319,69565,2,0,P|212:320|158:311,1,100,4|0,0:0|3:0,0:0:0:0:
142,207,70200,2,0,P|199:206|253:215,1,100,0|0,3:0|3:2,0:0:0:0:
348,240,70835,5,4,0:0:0:0:
375,133,71152,1,0,3:0:0:0:
375,133,71311,2,0,L|388:65,1,50,8|0,1:2|0:0,0:0:0:0:
392,29,71629,2,0,P|332:17|280:18,1,100,0|8,3:0|1:2,0:0:0:0:
203,82,72264,2,0,P|177:85|149:85,1,50,0|0,3:0|3:0,0:0:0:0:
107,55,72581,2,0,P|82:55|57:58,1,50,8|0,1:2|3:0,0:0:0:0:
58,168,73057,2,0,P|60:196|55:233,1,50,0|12,3:0|1:2,0:0:0:0:
41,270,73375,1,0,0:0:0:0:
41,270,73533,6,0,P|94:280|163:278,1,100,4|4,1:2|3:0,0:0:0:0:
195,277,74010,1,0,1:0:0:0:
277,349,74327,1,0,1:0:0:0:
378,307,74645,2,0,P|388:254|414:190,1,100,0|4,1:0|3:0,0:0:0:0:
463,118,75279,1,8,1:2:0:0:
463,118,75438,2,0,P|443:103|410:92,1,50,0|0,1:2|1:2,0:0:0:0:
310,77,75914,6,0,P|247:45|180:79,1,150,6|12,0:1|1:2,0:0:0:0:
117,168,76708,2,0,L|119:230,1,50,0|0,3:0|3:0,0:0:0:0:
105,271,77026,1,8,1:2:0:0:
105,271,77184,2,0,P|183:266|258:302,1,150,4|8,0:1|1:2,0:0:0:0:
350,333,77978,2,0,L|352:271,1,50,0|0,3:0|3:0,0:0:0:0:
377,233,78295,1,8,1:2:0:0:
377,233,78454,6,0,P|386:184|383:133,1,100,4|4,0:1|3:0,0:0:0:0:
277,103,79089,2,0,P|286:152|283:201,1,100,4|4,3:0|3:0,0:0:0:0:
181,244,79724,2,0,P|183:194|126:105,1,150,4|8,0:1|1:2,0:0:0:0:
83,208,80518,1,8,1:2:0:0:
83,208,80676,1,8,1:2:0:0:
108,315,80994,6,0,B|144:325|179:332|179:332|221:326|259:315,1,150,6|12,1:1|1:2,0:0:0:0:
347,258,81787,2,0,P|333:231|320:198,1,50,0|0,3:0|3:0,0:0:0:0:
304,161,82105,1,8,1:2:0:0:
304,161,82264,1,0,1:2:0:0:
310,51,82581,1,0,3:0:0:0:
208,94,82899,2,0,P|140:109|94:104,1,100,8|4,3:0|3:3,0:0:0:0:
55,202,83533,1,12,1:2:0:0:
55,202,84962,6,0,P|64:255|66:320,1,100,4|0,3:2|3:0,0:0:0:0:
120,313,85438,2,0,P|169:315|219:324,1,100,4|0,3:2|3:0,0:0:0:0:
273,330,85914,1,4,3:2:0:0:
380,305,86232,6,0,L|436:273,1,50,8|0,3:2|0:0,0:0:0:0:
457,236,86549,2,0,L|472:167,2,50,8|8|8,1:2|1:2|1:3,0:0:0:0:
357,188,87184,2,0,L|301:156,1,50,8|8,1:2|1:2,0:0:0:0:
280,119,87502,2,0,L|265:50,2,50,8|0|8,1:2|1:1|1:2,0:0:0:0:
208,203,88137,2,0,P|217:236|219:268,2,50,8|8|8,1:2|1:2|1:2,0:0:0:0:
173,160,88613,1,8,1:2:0:0:
