osu file format v14

[General]
AudioFilename: audio.mp3
AudioLeadIn: 0
PreviewTime: 55002
Countdown: 0
SampleSet: Soft
StackLeniency: 0.4
Mode: 0
LetterboxInBreaks: 0
WidescreenStoryboard: 1

[Editor]
DistanceSpacing: 0.8
BeatDivisor: 4
GridSize: 16
TimelineZoom: 1.899999

[Metadata]
Title:FLY HIGH!! (TV Size)
TitleUnicode:FLY HIGH!! (TV Size)
Artist:BURNOUT SYNDROMES
ArtistUnicode:BURNOUT SYNDROMES
Creator:Enerugi
Version:Milar's Insane
Source:ハイキュー!! セカンドシーズン
Tags:japanese anime version haikyu haikyuu second season op opening alexsander ataraxia milar001 einess ujimatsu chiya karia lolia
BeatmapID:1839694
BeatmapSetID:875289

[Difficulty]
HPDrainRate:5
CircleSize:4
OverallDifficulty:8
ApproachRate:9
SliderMultiplier:1.7
SliderTickRate:1

[Events]
//Background and Video events
0,0,"haikyubgreduced.jpg",0,0
Video,-10,"Untitled.avi"
//Break Periods
//Storyboard Layer 0 (Background)
//Storyboard Layer 1 (Fail)
//Storyboard Layer 2 (Pass)
//Storyboard Layer 3 (Foreground)
//Storyboard Layer 4 (Overlay)
//Storyboard Sound Samples

[TimingPoints]
1153,317.460317460317,4,2,0,40,1,0
1153,-133.333333333333,4,2,0,40,0,0
9010,-133.333333333333,4,2,0,5,0,0
9089,-133.333333333333,4,2,0,40,0,0
9486,-133.333333333333,4,2,0,5,0,0
9565,-133.333333333333,4,2,0,40,0,0
9883,-133.333333333333,4,2,0,60,0,0
10676,-133.333333333333,4,2,1,60,0,0
11152,-100,4,2,1,70,0,0
17740,-100,4,2,1,5,0,0
17819,-100,4,2,1,70,0,0
18057,-100,4,2,1,5,0,0
18137,-100,4,2,1,70,0,0
18772,-100,4,2,1,70,0,0
20835,-100,4,2,1,70,0,0
21470,-117.647058823529,4,2,2,60,0,0
26391,-117.647058823529,4,2,0,90,0,0
26470,-117.647058823529,4,2,2,60,0,0
29089,-117.647058823529,4,2,2,40,0,0
29406,-117.647058823529,4,2,2,50,0,0
29724,-117.647058823529,4,2,2,60,0,0
30041,-117.647058823529,4,2,2,70,0,0
30359,-117.647058823529,4,2,2,75,0,0
30676,-117.647058823529,4,2,2,80,0,0
31629,-117.647058823529,4,2,2,60,0,0
36708,-117.647058823529,4,2,2,66,0,0
39565,-117.647058823529,4,2,2,72,0,0
41152,-117.647058823529,4,2,2,55,0,0
41787,-117.647058823529,4,2,3,55,0,0
47184,-117.647058823529,4,2,3,65,0,0
51946,-117.647058823529,4,2,3,55,0,0
54803,-117.647058823529,4,2,1,60,0,0
55121,-117.647058823529,4,2,1,50,0,0
55597,-83.3333333333333,4,2,1,75,0,1
63375,-83.3333333333333,4,2,1,85,0,1
65756,-83.3333333333333,4,2,1,75,0,1
73533,-83.3333333333333,4,2,1,85,0,1
75914,-100,4,2,1,70,0,0
82502,-100,4,2,1,5,0,0
82581,-100,4,2,1,70,0,0
82819,-100,4,2,1,5,0,0
82899,-100,4,2,1,70,0,0
84962,-100,4,2,1,70,0,0
86152,-100,4,2,1,5,0,0
86232,-100,4,2,1,70,0,0
88137,-100,4,2,1,70,0,0
89089,-100,4,2,1,70,0,0

[Colours]
Combo1 : 170,134,60
Combo2 : 252,224,182
Combo3 : 255,163,70

[HitObjects]
385,70,1153,6,0,P|470:62|522:74,2,127.500004863739
314,127,2264,1,2,0:0:0:0:
314,127,2422,2,0,P|294:54|328:0,2,127.500004863739,0|0|2,0:0|0:0|0:0,0:0:0:0:
395,207,3533,1,2,0:0:0:0:
395,207,3692,6,0,L|258:209,1,127.500004863739
233,357,4327,2,0,L|301:358,1,63.7500024318696,2|0,0:0|0:0,0:0:0:0:
368,309,4645,1,0,0:0:0:0:
318,237,4803,2,0,P|310:202|321:169,1,63.7500024318696,2|0,0:0|0:0,0:0:0:0:
442,209,5121,2,0,P|450:244|439:277,1,63.7500024318696,2|0,0:0|0:0,0:0:0:0:
356,342,5438,2,0,B|294:364|294:364|222:355,1,127.500004863739,2|0,0:0|0:0,0:0:0:0:
149,309,5914,1,2,0:0:0:0:
286,280,6073,1,0,0:0:0:0:
165,153,6549,6,0,L|172:297,2,127.500004863739,2|0|2,0:0|0:0|0:0,0:0:0:0:
82,28,7502,2,0,P|47:23|15:28,2,63.7500024318696,2|2|2,0:0|0:0|0:0,0:0:0:0:
164,72,7978,2,0,L|231:68,1,63.7500024318696,2|0,0:0|0:0,0:0:0:0:
329,82,8295,1,2,0:0:0:0:
363,176,8454,2,0,L|296:172,1,63.7500024318696
431,235,8772,6,0,P|453:196|432:129,1,95.6250036478044,2|0,0:0|0:0,0:0:0:0:
418,112,9089,1,2,0:3:0:0:
431,235,9248,6,0,P|474:222|506:160,1,95.6250036478044,2|0,0:0|0:0,0:0:0:0:
508,137,9565,1,2,0:3:0:0:
328,174,9724,5,0,0:0:0:0:
491,60,9883,1,0,3:0:0:0:
491,60,10676,5,8,1:3:0:0:
428,271,10835,1,8,1:3:0:0:
428,271,11152,6,0,B|332:239|348:303|252:271,1,170,4|0,0:2|3:0,0:0:0:0:
304,99,11629,2,0,L|301:189,1,85,0|0,1:0|0:0,0:0:0:0:
177,324,11946,2,0,L|174:234,1,85,0|0,3:0|3:0,0:0:0:0:
94,126,12264,1,0,1:0:0:0:
262,274,12422,6,0,P|344:272|396:181,1,170,4|0,0:0|3:0,0:0:0:0:
468,70,12899,2,0,B|426:58|426:58|377:70,1,85,0|0,1:0|0:0,0:0:0:0:
219,181,13216,2,0,B|261:193|261:193|310:181,1,85,0|0,3:0|3:0,0:0:0:0:
487,266,13533,1,0,1:0:0:0:
386,68,13692,6,0,L|382:254,1,170,4|0,0:0|3:0,0:0:0:0:
260,330,14168,2,0,P|304:345|347:326,1,85,0|0,1:0|0:0,0:0:0:0:
461,240,14486,2,0,P|417:225|374:244,1,85,0|0,3:0|3:0,0:0:0:0:
492,359,14803,1,0,1:0:0:0:
504,163,14962,6,0,P|405:139|324:172,1,170,4|0,0:0|3:0,0:0:0:0:
196,270,15438,2,0,L|188:164,1,85,0|0,1:0|3:0,0:0:0:0:
107,45,15756,1,0,1:2:0:0:
139,18,15835,1,0,0:0:0:0:
180,8,15914,1,0,1:2:0:0:
222,15,15994,1,0,1:0:0:0:
257,38,16073,2,0,L|282:90,1,42.5,2|2,1:2|1:2,0:0:0:0:
305,205,16232,6,0,B|221:182|221:182|182:103,1,170,4|0,1:2|0:0,0:0:0:0:
393,79,16708,2,0,L|303:104,1,85,4|0,1:2|0:0,0:0:0:0:
198,256,17026,2,0,L|288:281,1,85,0|0,3:0|3:0,0:0:0:0:
427,199,17343,1,0,1:0:0:0:
366,330,17502,6,0,P|305:284|303:220,1,127.5,4|0,3:2|0:0,0:0:0:0:
234,185,17819,2,0,P|304:155|360:185,1,127.5,0|0,3:0|0:0,0:0:0:0:
427,199,18137,1,0,1:0:0:0:
279,307,18295,1,8,3:0:0:0:
456,355,18454,1,0,1:2:0:0:
456,355,18533,1,0,1:2:0:0:
456,355,18613,2,0,L|396:341,1,42.5,0|0,1:2|1:2,0:0:0:0:
184,280,18772,5,4,3:2:0:0:
256,192,18851,12,0,20041,0:0:0:0:
128,33,20200,6,0,L|133:131,1,85,0|0,1:0|3:0,0:0:0:0:
265,143,20518,2,0,L|260:241,1,85,0|0,1:0|3:0,0:0:0:0:
183,328,20835,1,0,1:0:0:0:
218,350,20914,1,0,1:0:0:0:
260,357,20994,1,0,1:0:0:0:
301,348,21073,1,0,1:0:0:0:
336,324,21152,1,0,1:2:0:0:
425,185,21311,2,0,L|368:203,1,42.5,4|4,1:2|1:2,0:0:0:0:
260,227,21470,6,0,L|100:223,1,144.500002756119,4|0,3:1|3:0,0:0:0:0:
6,72,22105,1,0,2:0:0:0:
91,42,22264,2,0,P|99:80|87:116,1,72.2500013780594,2|0,2:0|3:0,0:0:0:0:
18,200,22581,6,0,L|26:279,1,72.2500013780594,2|0,0:2|0:0,0:0:0:0:
136,374,22899,2,0,L|144:295,1,72.2500013780594,0|0,0:0|3:0,0:0:0:0:
219,204,23216,2,0,B|259:176|259:176|380:187,1,144.500002756119,0|2,0:0|0:0,0:0:0:0:
486,350,23851,1,0,0:0:0:0:
394,356,24010,6,0,P|408:293|476:256,2,144.500002756119,2|0|0,3:2|3:0|3:0,0:0:0:0:
306,310,24803,2,0,L|224:305,1,72.2500013780594,2|0,0:0|3:0,0:0:0:0:
148,363,25121,1,2,0:0:0:0:
68,314,25279,6,0,P|56:273|75:232,1,72.2500013780594
147,184,25597,2,0,P|155:149|143:115,1,72.2500013780594,0|0,3:0|0:0,0:0:0:0:
65,23,25914,2,0,L|221:27,1,144.500002756119,0|0,3:0|3:2,0:0:0:0:
321,94,26391,1,0,0:0:0:0:
321,94,26470,1,2,0:0:0:0:
321,94,26549,6,0,B|333:149|333:149|326:181|326:181|339:236,1,144.500002756119,0|0,3:0|3:0,0:0:0:0:
168,135,27184,2,0,L|248:141,1,72.2500013780594,0|0,3:0|0:0,0:0:0:0:
338,234,27502,1,0,3:0:0:0:
438,146,27660,2,0,L|433:103,1,36.1250006890297,2|0,0:3|0:0,0:0:0:0:
470,36,27819,6,0,B|434:27|434:27|384:42,1,72.2500013780594,0|0,3:0|0:0,0:0:0:0:
309,139,28137,2,0,B|275:149|275:149|239:140,1,72.2500013780594,0|0,3:0|0:0,0:0:0:0:
134,70,28454,2,0,P|102:140|145:209,1,144.500002756119,0|0,3:0|3:0,0:0:0:0:
242,359,29089,5,2,3:0:0:0:
242,359,29406,1,2,3:0:0:0:
242,359,29724,1,2,3:0:0:0:
242,359,30041,1,2,3:0:0:0:
242,359,30359,6,0,L|366:349,1,108.375002067089,2|0,3:0|0:0,0:0:0:0:
394,345,30676,1,2,3:0:0:0:
468,235,30835,1,2,3:0:0:0:
468,235,30914,1,0,3:0:0:0:
468,235,30994,2,0,L|386:232,1,72.2500013780594,4|0,3:0|3:0,0:0:0:0:
308,151,31311,1,4,3:0:0:0:
275,324,31470,1,8,3:0:0:0:
194,226,31629,6,0,B|170:185|170:185|171:72,1,144.500002756119,4|0,3:1|3:0,0:0:0:0:
235,5,32105,1,0,0:0:0:0:
235,5,32184,1,0,0:0:0:0:
235,5,32264,1,0,3:0:0:0:
309,108,32422,2,0,P|343:98|384:110,1,72.2500013780594,2|8,0:0|0:2,0:0:0:0:
354,263,32740,6,0,L|346:181,1,72.2500013780594,2|0,0:0|0:0,0:0:0:0:
474,344,33057,2,0,L|482:262,1,72.2500013780594,0|0,0:0|3:0,0:0:0:0:
354,263,33375,2,0,P|311:251|274:264,1,72.2500013780594,2|0,0:0|0:0,0:0:0:0:
181,340,33692,2,0,P|238:373|315:351,1,144.500002756119,2|0,0:0|0:0,0:0:0:0:
255,267,34168,6,0,B|255:158|255:158|231:195,1,144.500002756119,0|0,3:0|3:0,0:0:0:0:
107,187,34645,2,0,L|156:111,2,72.2500013780594,2|0|0,0:0|0:0|0:0,0:0:0:0:
255,121,35121,1,10,0:0:0:0:
105,40,35279,1,2,0:0:0:0:
105,40,35359,1,0,0:0:0:0:
105,40,35438,6,0,P|146:26|180:37,1,72.2500013780594
277,142,35756,2,0,P|312:148|344:134,1,72.2500013780594,0|0,3:0|0:0,0:0:0:0:
429,45,36073,1,0,3:0:0:0:
418,208,36232,1,2,0:0:0:0:
302,64,36391,1,8,0:0:0:0:
302,64,36549,1,2,0:0:0:0:
248,240,36708,6,0,L|402:236,1,144.500002756119,4|8,0:1|1:2,0:0:0:0:
489,353,37184,1,0,0:0:0:0:
352,384,37343,2,0,P|341:342|353:305,1,72.2500013780594,0|0,3:0|0:0,0:0:0:0:
243,170,37660,2,0,P|254:212|242:249,1,72.2500013780594,8|2,1:2|0:0,0:0:0:0:
78,295,37978,6,0,P|110:228|180:210,1,144.500002756119,0|8,3:0|1:2,0:0:0:0:
197,333,38454,1,2,0:0:0:0:
197,333,38533,1,0,0:0:0:0:
197,333,38613,1,0,3:0:0:0:
97,188,38772,2,0,L|95:105,2,72.2500013780594,2|0|0,0:0|1:0|0:0,0:0:0:0:
56,334,39248,6,0,B|134:360|134:307|200:334,1,144.500002756119,4|8,0:0|1:2,0:0:0:0:
234,110,39883,1,0,3:0:0:0:
97,188,40041,1,4,3:3:0:0:
294,215,40200,1,8,3:3:0:0:
28,132,40359,6,0,P|7:177|37:250,1,108.375002067089,4|0,0:0|0:0,0:0:0:0:
49,263,40676,1,0,1:0:0:0:
211,149,40835,1,0,1:0:0:0:
126,313,40994,1,0,1:0:0:0:
138,278,41073,1,0,1:0:0:0:
140,242,41152,1,8,3:0:0:0:
123,210,41232,1,8,3:0:0:0:
97,188,41311,6,0,L|93:131,1,36.1250006890297,8|8,3:0|3:0,0:0:0:0:
133,17,41470,2,0,L|129:74,1,36.1250006890297,4|4,3:0|3:0,0:0:0:0:
211,149,41629,2,0,L|207:92,1,36.1250006890297,4|4,3:0|3:0,0:0:0:0:
300,48,41787,6,0,B|325:95|325:95|305:202,1,144.500002756119,4|8,0:1|0:2,0:0:0:0:
373,307,42264,1,0,3:0:0:0:
484,183,42422,2,0,L|390:186,1,72.2500013780594,0|0,3:0|0:0,0:0:0:0:
262,306,42740,2,0,L|356:309,1,72.2500013780594,8|0,0:2|3:0,0:0:0:0:
165,241,43057,6,0,P|134:292|173:378,1,144.500002756119,0|8,3:0|0:2,0:0:0:0:
334,308,43533,1,2,0:0:0:0:
244,168,43692,1,0,3:2:0:0:
244,168,43851,1,0,3:2:0:0:
390,202,44010,2,0,P|401:159|385:124,1,72.2500013780594,8|0,0:2|0:0,0:0:0:0:
287,24,44327,6,0,B|338:40|338:40|371:23|371:23|423:39,1,144.500002756119,2|8,3:2|0:2,0:0:0:0:
512,142,44803,1,0,3:0:0:0:
390,202,44962,2,0,P|357:212|319:203,1,72.2500013780594,0|0,3:0|0:0,0:0:0:0:
176,113,45279,2,0,P|209:103|247:112,1,72.2500013780594,8|2,0:2|3:2,0:0:0:0:
107,274,45597,6,0,L|272:249,1,144.500002756119,0|8,3:0|0:2,0:0:0:0:
361,323,46073,1,2,0:0:0:0:
386,132,46232,2,0,B|398:167|398:167|389:202,1,72.2500013780594,0|2,3:2|3:2,0:0:0:0:
247,74,46549,2,0,B|235:109|235:109|244:144,1,72.2500013780594,8|2,0:2|0:0,0:0:0:0:
171,334,46867,6,0,B|194:262|194:262|158:187,1,144.500002756119,4|8,0:1|0:2,0:0:0:0:
93,95,47343,1,0,3:0:0:0:
27,262,47502,2,0,L|112:265,1,72.2500013780594,0|0,3:0|3:0,0:0:0:0:
236,197,47819,2,0,L|151:200,1,72.2500013780594,8|2,1:2|0:0,0:0:0:0:
296,316,48137,6,0,P|363:281|372:206,1,144.500002756119,2|8,3:2|0:2,0:0:0:0:
444,90,48613,1,0,3:0:0:0:
301,43,48772,2,0,L|306:132,1,72.2500013780594,0|0,3:0|0:0,0:0:0:0:
463,200,49089,2,0,L|468:111,1,72.2500013780594,8|2,1:2|0:2,0:0:0:0:
377,260,49406,6,0,L|206:273,1,144.500002756119,4|2,0:1|0:3,0:0:0:0:
145,354,49883,1,8,0:2:0:0:
187,183,50041,1,8,3:3:0:0:
187,183,50200,1,4,3:0:0:0:
32,273,50359,2,0,P|71:282|112:273,1,72.2500013780594,0|0,3:3|3:0,0:0:0:0:
271,168,50676,6,0,L|276:85,1,72.2500013780594,8|0,1:2|0:0,0:0:0:0:
67,112,50994,2,0,L|72:195,1,72.2500013780594,8|0,1:2|0:0,0:0:0:0:
207,305,51311,1,0,1:0:0:0:
236,325,51391,1,0,1:0:0:0:
271,333,51470,1,0,1:0:0:0:
306,327,51549,1,0,1:0:0:0:
337,308,51629,2,0,L|386:314,3,36.1250006890297,0|0|0|0,1:0|1:0|1:0|1:0,0:0:0:0:
443,364,51946,6,0,P|458:317|437:262,1,108.375002067089,4|0,0:1|0:0,0:0:0:0:
407,231,52264,1,0,0:0:0:0:
338,166,52422,2,0,L|342:41,1,108.375002067089,4|0,0:1|0:0,0:0:0:0:
345,8,52740,1,0,0:0:0:0:
249,68,52899,6,0,B|196:84|196:84|118:56,1,108.375002067089,8|0,0:2|0:0,0:0:0:0:
105,48,53216,1,0,0:0:0:0:
204,199,53375,1,2,0:3:0:0:
80,9,53533,1,2,0:2:0:0:
64,305,53851,6,0,B|100:317|100:317|140:305,1,72.2500013780594,0|0,1:2|1:2,0:0:0:0:
272,201,54168,2,0,B|236:189|236:189|196:201,1,72.2500013780594,0|0,1:2|1:2,0:0:0:0:
341,358,54486,2,0,L|344:268,1,72.2500013780594,8|8,1:2|1:2,0:0:0:0:
238,156,54803,2,0,L|235:66,1,72.2500013780594,8|8,1:2|1:2,0:0:0:0:
351,0,55121,5,10,0:2:0:0:
159,121,55279,1,10,0:2:0:0:
390,262,55597,6,0,B|278:230|294:294|182:262,1,203.999993774414,4|0,0:2|3:0,0:0:0:0:
242,54,56073,2,0,L|237:157,1,101.999996887207,8|0,1:2|0:0,0:0:0:0:
336,344,56391,1,0,3:0:0:0:
433,195,56549,1,0,3:0:0:0:
251,269,56708,1,8,1:2:0:0:
480,352,56867,6,0,L|472:141,1,203.999993774414,4|0,0:2|3:0,0:0:0:0:
317,32,57343,2,0,P|367:13|419:31,1,101.999996887207,8|0,1:2|0:0,0:0:0:0:
248,157,57660,1,0,3:0:0:0:
433,195,57819,1,0,3:0:0:0:
249,71,57978,1,8,1:2:0:0:
325,228,58137,6,0,B|271:261|271:261|108:246,1,203.999993774414,4|0,0:0|3:0,0:0:0:0:
17,116,58613,2,0,L|124:111,1,101.999996887207,8|0,1:2|0:0,0:0:0:0:
266,29,58930,1,0,3:0:0:0:
253,183,59089,1,0,3:0:0:0:
142,32,59248,1,8,1:2:0:0:
333,134,59406,6,0,P|350:183|324:241,1,101.999996887207,4|0,0:0|0:0,0:0:0:0:
186,323,59724,1,0,3:0:0:0:
221,149,59883,1,8,1:2:0:0:
326,347,60041,2,0,L|210:351,1,101.999996887207,0|0,0:0|3:0,0:0:0:0:
77,244,60359,1,0,3:0:0:0:
253,183,60518,1,8,1:2:0:0:
94,47,60676,6,0,B|166:66|166:66|218:48|218:48|291:67,1,203.999993774414,4|0,0:0|3:0,3:0:0:0:
191,232,61152,2,0,P|170:180|189:135,1,101.999996887207,8|0,1:2|0:0,0:0:0:0:
315,329,61470,2,0,P|336:277|317:232,1,101.999996887207,0|0,3:0|3:0,0:0:0:0:
424,114,61787,2,0,L|318:111,1,101.999996887207,8|0,1:2|0:0,0:0:0:0:
163,64,62105,6,0,P|147:118|175:168,1,101.999996887207,0|0,3:0|3:0,0:0:0:0:
288,264,62422,1,8,1:2:0:0:
156,353,62581,2,0,L|145:243,1,101.999996887207,0|0,3:0|0:0,0:0:0:0:
228,108,62899,1,0,3:0:0:0:
288,264,63057,2,0,P|341:280|391:258,1,101.999996887207,8|0,1:2|0:0,0:0:0:0:
486,169,63375,5,0,1:0:0:0:
486,169,63533,1,0,1:0:0:0:
441,343,63692,1,0,0:0:0:0:
335,197,63851,2,0,L|338:88,1,101.999996887207,0|0,1:0|0:0,0:0:0:0:
186,223,64168,2,0,L|189:332,1,101.999996887207,0|4,1:0|3:3,0:0:0:0:
51,135,64486,6,0,B|95:118|95:118|147:133,1,101.999996887207,0|0,1:0|0:0,0:0:0:0:
265,246,64803,1,0,1:0:0:0:
337,95,64962,2,0,L|224:92,1,101.999996887207,8|8,1:2|1:2,0:0:0:0:
396,18,65279,1,0,1:2:0:0:
433,51,65359,1,0,1:2:0:0:
446,99,65438,1,0,1:2:0:0:
430,147,65518,1,8,1:2:0:0:
390,177,65597,2,0,L|387:235,1,50.9999984436036,8|8,1:2|0:2,0:0:0:0:
455,309,65756,6,0,B|358:372|349:291|256:369,1,203.999993774414,4|0,0:2|3:0,0:0:0:0:
163,282,66232,2,0,P|150:224|173:175,1,101.999996887207,12|0,1:2|0:0,0:0:0:0:
318,250,66549,1,0,3:0:0:0:
337,95,66708,1,0,3:0:0:0:
132,258,66867,1,8,1:2:0:0:
204,78,67026,6,0,B|245:120|245:120|243:280,1,203.999993774414,4|0,0:0|3:0,0:0:0:0:
380,381,67502,2,0,B|394:328|394:328|373:276,1,101.999996887207,8|0,1:2|0:0,0:0:0:0:
410,121,67819,1,0,3:0:0:0:
245,174,67978,1,0,3:0:0:0:
427,224,68137,1,8,1:2:0:0:
249,63,68295,6,0,B|201:38|201:38|362:38,1,203.999993774414,4|0,0:0|3:0,0:0:0:0:
346,179,68772,2,0,L|238:173,1,101.999996887207,8|0,1:2|0:0,0:0:0:0:
129,63,69089,1,0,3:0:0:0:
145,238,69248,1,0,3:0:0:0:
262,95,69406,1,8,1:2:0:0:
75,194,69565,6,0,P|59:247|82:294,1,101.999996887207,4|0,0:0|0:0,0:0:0:0:
265,358,69883,2,0,P|281:305|258:258,1,101.999996887207,0|8,3:0|1:2,0:0:0:0:
52,371,70200,2,0,L|176:369,1,101.999996887207,0|0,3:0|3:2,0:0:0:0:
319,302,70518,1,0,3:2:0:0:
145,238,70676,1,8,1:2:0:0:
386,232,70835,6,0,P|392:161|322:221,1,203.999993774414,4|0,0:0|3:0,0:0:0:0:
471,141,71311,2,0,P|484:207|467:254,1,101.999996887207,8|0,1:2|0:0,0:0:0:0:
250,251,71629,2,0,P|237:185|254:138,2,101.999996887207,0|0|8,3:0|3:0|1:2,0:0:0:0:
361,109,72105,1,0,0:0:0:0:
211,28,72264,6,0,L|98:23,1,101.999996887207,0|0,3:0|3:0,0:0:0:0:
0,122,72581,1,8,1:2:0:0:
149,213,72740,2,0,B|171:165|171:165|152:101,1,101.999996887207,0|0,3:0|0:0,0:0:0:0:
27,40,73057,1,0,3:0:0:0:
47,214,73216,2,0,L|159:212,1,101.999996887207,12|0,1:2|0:0,0:0:0:0:
277,317,73533,5,4,1:2:0:0:
277,317,73692,1,0,1:0:0:0:
245,138,73851,1,4,3:0:0:0:
411,282,74010,2,0,L|291:286,1,101.999996887207,0|0,1:0|0:0,0:0:0:0:
143,134,74327,2,0,L|263:138,1,101.999996887207,0|0,1:0|0:0,0:0:0:0:
414,79,74645,6,0,P|432:130|408:182,1,101.999996887207,0|0,1:0|0:0,0:0:0:0:
446,313,74962,1,4,3:0:0:0:
309,285,75121,2,0,L|304:169,1,101.999996887207,8|8,1:2|1:2,0:0:0:0:
199,65,75438,1,0,1:2:0:0:
241,36,75518,1,0,1:0:0:0:
290,24,75597,1,0,1:2:0:0:
340,31,75676,1,8,1:2:0:0:
385,54,75756,2,0,L|438:88,1,50.9999984436036,12|8,1:2|1:2,0:0:0:0:
484,177,75914,6,0,B|420:192|420:192|383:168|383:168|304:186,1,170,6|0,0:1|3:0,0:0:0:0:
224,66,76391,2,0,L|226:168,1,85,12|0,1:2|0:0,0:0:0:0:
277,298,76708,2,0,P|318:307|359:296,1,85,0|0,3:0|3:0,0:0:0:0:
323,181,77026,1,8,1:2:0:0:
191,312,77184,6,0,L|184:119,1,170,4|0,0:1|3:0,0:0:0:0:
392,138,77660,2,0,P|407:187|392:227,1,85,8|0,1:2|0:0,0:0:0:0:
287,67,77978,2,0,P|270:112|287:156,1,85,0|0,3:0|3:0,0:0:0:0:
350,287,78295,1,8,1:2:0:0:
222,219,78454,6,0,L|115:216,1,85,4|0,0:1|0:0,0:0:0:0:
20,325,78772,2,0,L|127:322,1,85,4|0,3:0|0:0,0:0:0:0:
230,214,79089,2,0,L|114:211,1,85,4|0,3:0|0:0,0:0:0:0:
11,329,79406,2,0,L|127:326,1,85,4|0,3:0|0:0,0:0:0:0:
291,308,79724,6,0,B|328:263|328:263|329:127,1,170,4|0,0:1|3:0,0:0:0:0:
211,21,80200,2,0,B|200:60|200:60|215:103,1,85,8|0,1:2|0:0,0:0:0:0:
373,56,80518,1,8,1:2:0:0:
293,176,80676,1,8,1:2:0:0:
259,201,80756,1,8,1:2:0:0:
218,210,80835,1,8,1:2:0:0:
176,201,80914,1,8,1:2:0:0:
142,176,80994,6,0,P|93:155|108:241,1,170,6|0,1:1|0:0,0:0:0:0:
162,382,81470,2,0,L|168:287,1,85,12|0,1:2|0:0,0:0:0:0:
293,176,81787,2,0,L|299:271,1,85,0|0,3:0|3:0,0:0:0:0:
205,110,82105,1,8,1:2:0:0:
381,96,82264,6,0,B|353:152|353:152|282:180,1,127.5,0|0,1:2|0:0,0:0:0:0:
224,254,82581,2,0,B|189:201|189:201|200:126,1,127.5,0|0,3:0|0:0,0:0:0:0:
289,86,82899,1,8,3:0:0:0:
112,137,83057,1,4,3:3:0:0:
216,5,83216,1,4,3:3:0:0:
216,5,83295,1,4,3:3:0:0:
216,5,83375,2,0,L|183:52,1,42.5,4|4,3:3|3:3,0:0:0:0:
58,207,83533,5,12,1:2:0:0:
256,192,83613,12,0,84803,0:0:0:0:
385,30,84962,6,0,L|394:80,5,42.5,4|0|0|0|0|0,3:2|3:0|3:0|3:0|3:0|3:0,0:0:0:0:
339,134,85438,2,0,L|330:184,5,42.5,4|0|0|0|0|0,3:2|3:0|3:0|3:0|3:0|3:0,0:0:0:0:
382,258,85914,2,0,P|339:273|258:238,1,127.5,4|0,3:2|0:0,0:0:0:0:
233,216,86232,5,8,3:2:0:0:
129,103,86391,2,0,L|19:106,1,85,0|8,0:0|1:2,0:0:0:0:
196,34,86708,1,8,1:2:0:0:
233,216,86867,2,0,P|272:196|283:134,1,85,8|8,1:3|1:2,0:0:0:0:
378,48,87184,5,8,1:2:0:0:
504,172,87343,2,0,L|392:170,1,85,8|8,1:2|1:2,0:0:0:0:
233,216,87660,1,0,1:1:0:0:
371,351,87819,2,0,P|385:304|369:262,1,85,8|8,1:2|1:2,0:0:0:0:
292,77,88137,5,8,1:2:0:0:
233,251,88295,1,8,1:2:0:0:
148,72,88454,1,8,1:2:0:0:
61,268,88613,2,0,P|36:216|72:9,1,255,8|0,1:2|0:0,3:0:0:0:
