osu file format v14

[General]
AudioFilename: audio.mp3
AudioLeadIn: 0
PreviewTime: 55002
Countdown: 0
SampleSet: Soft
StackLeniency: 0.4
Mode: 0
LetterboxInBreaks: 0
WidescreenStoryboard: 1

[Editor]
Bookmarks: 410,11044,21362,28981,31838,35965,41679,46759,53425,55489,65648,75806,83425,86124,86759,88505
DistanceSpacing: 1.3
BeatDivisor: 4
GridSize: 8
TimelineZoom: 1.8

[Metadata]
Title:FLY HIGH!! (TV Size)
TitleUnicode:FLY HIGH!! (TV Size)
Artist:BURNOUT SYNDROMES
ArtistUnicode:BURNOUT SYNDROMES
Creator:Enerugi
Version:Hard
Source:ハイキュー!! セカンドシーズン
Tags:japanese anime version haikyu haikyuu second season op opening alexsander ataraxia milar001 einess ujimatsu chiya karia lolia
BeatmapID:1829196
BeatmapSetID:875289

[Difficulty]
HPDrainRate:4
CircleSize:3.7
OverallDifficulty:7
ApproachRate:8
SliderMultiplier:1.4
SliderTickRate:1

[Events]
//Background and Video events
0,0,"haikyubgreduced.jpg",0,0
Video,-10,"Untitled.avi"
//Break Periods
//Storyboard Layer 0 (Background)
//Storyboard Layer 1 (Fail)
//Storyboard Layer 2 (Pass)
//Storyboard Layer 3 (Foreground)
//Storyboard Layer 4 (Overlay)
//Storyboard Sound Samples

[TimingPoints]
1153,317.460317460317,4,2,0,40,1,0
1153,-133.333333333333,4,2,0,40,0,0
9883,-133.333333333333,4,2,0,60,0,0
10676,-133.333333333333,4,2,1,60,0,0
11152,-100,4,2,1,70,0,0
21470,-125,4,2,2,60,0,0
26391,-125,4,2,0,90,0,0
26470,-125,4,2,2,60,0,0
26549,-125,4,2,2,60,0,0
29089,-125,4,2,2,40,0,0
29406,-125,4,2,2,50,0,0
29724,-125,4,2,2,60,0,0
30041,-125,4,2,2,70,0,0
30359,-125,4,2,2,75,0,0
30676,-125,4,2,2,80,0,0
31629,-125,4,2,2,60,0,0
36073,-111.111111111111,4,2,2,60,0,0
36708,-111.111111111111,4,2,2,66,0,0
39565,-111.111111111111,4,2,2,72,0,0
40518,-100,4,2,2,72,0,0
41152,-100,4,2,2,55,0,0
41787,-100,4,2,3,55,0,0
47184,-100,4,2,3,65,0,0
51946,-100,4,2,3,55,0,0
54803,-100,4,2,1,60,0,0
54883,-100,4,2,1,60,0,0
55121,-100,4,2,1,50,0,0
55597,-100,4,2,1,75,0,1
63375,-100,4,2,1,85,0,1
65756,-100,4,2,1,75,0,1
73533,-100,4,2,1,85,0,1
75914,-100,4,2,1,70,0,0

[Colours]
Combo1 : 170,134,60
Combo2 : 252,224,182
Combo3 : 255,163,70

[HitObjects]
226,332,1153,22,0,P|126:298|111:196,1,210.000008010865
99,46,2264,2,0,P|178:48|229:112,1,157.500006008148,2|0,0:0|0:0,0:0:0:0:
222,208,3057,2,0,P|266:182|322:175,1,105.000004005432,2|0,0:0|0:0,0:0:0:0:
394,192,3533,6,0,B|439:253|439:253|436:344,1,157.500006008148,2|0,0:0|0:0,0:0:0:0:
333,315,4327,2,0,P|277:308|221:326,1,105.000004005432,2|0,0:0|0:0,0:0:0:0:
160,352,4803,1,2,0:0:0:0:
56,333,5121,1,2,0:0:0:0:
7,248,5438,2,0,P|-9:189|3:131,1,105.000004005432,2|0,0:0|0:0,0:0:0:0:
39,81,5914,2,0,P|38:54|27:31,1,52.5000020027161,2|0,0:0|0:0,0:0:0:0:
81,180,6549,6,0,P|116:209|185:230,1,105.000004005432,2|0,0:0|0:0,0:0:0:0:
276,218,7184,1,2,0:0:0:0:
365,272,7502,2,0,L|337:323,2,52.5000020027161,2|2|2,0:0|0:0|0:0,0:0:0:0:
402,205,7978,1,2,0:0:0:0:
512,113,8295,2,0,P|494:91|418:62,1,105.000004005432,2|0,0:0|0:0,0:0:0:0:
351,63,8772,6,0,B|316:101|316:101|302:154,1,105.000004005432,2|2,0:0|0:3,0:0:0:0:
241,193,9248,2,0,B|184:183|184:183|136:160,1,105.000004005432,2|2,0:0|0:3,0:0:0:0:
178,290,9883,2,0,P|205:298|233:299,1,52.5000020027161,0|0,3:0|0:0,0:0:0:0:
300,273,10200,2,0,P|325:266|351:264,1,52.5000020027161,0|0,3:0|0:0,0:0:0:0:
429,277,10518,1,2,3:2:0:0:
492,331,10676,1,8,1:3:0:0:
492,331,10835,1,8,1:3:0:0:
478,216,11152,6,0,P|411:154|362:143,1,140,4|0,0:2|3:0,0:0:0:0:
283,124,11629,2,0,L|287:198,1,70,0|0,1:0|0:0,0:0:0:0:
193,248,11946,2,0,L|196:178,1,70,0|0,3:0|3:0,0:0:0:0:
200,93,12264,1,0,1:0:0:0:
124,57,12422,6,0,B|84:62|64:94|64:94|69:133|51:174,1,140,4|0,0:0|3:0,0:0:0:0:
33,245,12899,2,0,P|49:294|45:329,1,70,0|0,1:0|0:0,0:0:0:0:
122,352,13216,2,0,P|123:317|137:285,1,70,0|0,3:0|3:0,0:0:0:0:
196,224,13533,1,0,1:0:0:0:
155,150,13692,6,0,P|155:101|250:85,1,140,4|0,0:0|3:0,0:0:0:0:
310,99,14168,2,0,P|359:118|404:108,1,70,0|0,1:0|0:0,0:0:0:0:
432,54,14486,2,0,P|460:85|458:138,1,70,0|0,3:0|3:0,0:0:0:0:
423,187,14803,1,0,1:0:0:0:
471,255,14962,6,0,P|489:306|426:360,1,140,4|0,0:0|3:0,0:0:0:0:
348,358,15438,2,0,B|337:324|337:324|335:288,1,70,0|0,1:0|3:0,0:0:0:0:
343,205,15756,1,0,1:2:0:0:
263,229,15914,1,0,1:2:0:0:
282,147,16073,1,2,1:2:0:0:
282,147,16152,1,2,1:2:0:0:
282,147,16232,6,0,P|215:130|142:175,1,140,4|0,1:2|0:0,0:0:0:0:
114,230,16708,2,0,P|106:275|90:329,1,70,4|0,1:2|0:0,0:0:0:0:
28,354,17026,2,0,P|17:324|11:285,2,70,0|0|0,3:0|3:0|1:0,0:0:0:0:
106,384,17502,6,0,L|196:379,1,70,4|0,3:2|0:0,0:0:0:0:
227,313,17819,2,0,L|317:308,1,70,0|0,3:0|1:0,0:0:0:0:
359,252,18137,2,0,P|367:218|349:165,1,70,0|8,1:0|3:0,0:0:0:0:
337,103,18454,2,0,L|405:101,4,35,0|0|0|0|4,1:2|1:2|1:2|1:2|3:2,0:0:0:0:
406,71,20200,6,0,L|332:82,1,70,0|0,1:0|3:0,0:0:0:0:
287,150,20518,2,0,L|361:161,1,70,0|0,1:0|3:0,0:0:0:0:
420,214,20835,2,0,B|411:228|426:235|414:251|414:251|427:286|412:328|377:355,1,140,0|0,1:0|1:2,0:0:0:0:
309,329,21311,1,4,1:2:0:0:
237,373,21470,6,0,L|113:365,1,112,4|0,3:1|3:0,0:0:0:0:
22,248,22105,1,0,2:0:0:0:
22,248,22264,2,0,L|90:243,1,56,2|0,2:0|3:0,0:0:0:0:
156,236,22581,6,0,P|168:198|143:127,1,112,2|0,0:2|0:0,0:0:0:0:
79,91,23057,1,0,3:0:0:0:
147,52,23216,2,0,B|200:46|200:46|216:53|216:53|273:47,1,112,0|2,0:0|0:0,0:0:0:0:
335,39,23692,2,0,L|344:117,1,56,0|0,3:0|0:0,0:0:0:0:
400,162,24010,6,0,P|363:149|296:169,1,112,2|0,3:2|3:0,0:0:0:0:
283,337,24645,1,0,3:0:0:0:
283,337,24803,2,0,L|276:264,1,56,2|0,0:0|3:0,0:0:0:0:
207,233,25121,6,0,B|173:224|140:237|158:239|123:252|85:243,1,112,2|0,0:0|0:0,0:0:0:0:
22,207,25597,2,0,P|6:174|6:143,1,56,0|0,3:0|0:0,0:0:0:0:
59,91,25914,2,0,P|95:93|122:109,1,56,0|2,3:0|0:0,0:0:0:0:
179,153,26232,1,0,3:2:0:0:
248,109,26391,1,0,0:0:0:0:
248,109,26470,1,2,0:0:0:0:
248,109,26549,6,0,B|300:106|300:106|323:117|323:117|379:114,1,112,0|0,3:0|3:0,0:0:0:0:
397,384,27184,2,0,P|380:361|396:270,1,112,0|0,3:0|3:0,0:0:0:0:
450,227,27660,1,2,0:3:0:0:
373,191,27819,6,0,B|341:185|341:185|258:191,2,112,0|0|0,3:0|3:0|3:0,0:0:0:0:
472,327,28772,1,0,3:0:0:0:
458,171,29089,6,0,L|458:107,1,56,2|0,3:0|0:0,0:0:0:0:
382,137,29406,2,0,L|381:56,1,56,2|0,3:0|0:0,0:0:0:0:
306,103,29724,2,0,L|307:22,1,56,2|0,3:0|0:0,0:0:0:0:
230,78,30041,6,0,L|229:147,1,56,2|0,3:0|0:0,0:0:0:0:
154,112,30359,2,0,L|154:181,1,56,2|0,3:0|3:0,0:0:0:0:
77,138,30676,1,2,3:0:0:0:
0,164,30835,2,0,L|0:115,2,28,2|0|4,3:0|3:0|3:0,0:0:0:0:
0,248,31152,2,0,L|70:262,1,56,0|4,3:0|3:0,0:0:0:0:
138,277,31470,1,8,3:0:0:0:
157,359,31629,5,4,3:1:0:0:
357,342,31946,2,0,P|368:317|374:289,1,56,0|0,3:0|0:0,0:0:0:0:
331,223,32264,2,0,P|319:196|310:161,1,56,0|2,3:0|0:0,0:0:0:0:
349,100,32581,1,8,0:2:0:0:
289,48,32740,6,0,P|219:35|173:62,1,112,2|0,0:0|0:0,0:0:0:0:
129,108,33216,1,0,3:0:0:0:
176,170,33375,2,0,B|194:221|194:221|171:280,1,112,2|2,0:0|0:0,0:0:0:0:
130,340,33851,1,8,0:0:0:0:
269,267,34168,6,0,B|324:244|324:244|394:258,1,112,0|0,3:0|3:0,0:0:0:0:
440,300,34645,2,0,P|424:255|447:170,1,112,2|0,0:0|0:0,0:0:0:0:
469,121,35121,1,10,0:0:0:0:
391,126,35279,2,0,P|316:103|277:70,1,112,2|0,0:0|0:0,0:0:0:0:
227,34,35756,1,0,3:0:0:0:
43,123,36073,6,0,P|47:164|57:204,1,62.9999980773926,0|2,3:0|0:0,0:0:0:0:
99,252,36391,2,0,P|95:286|88:321,1,62.9999980773926,8|2,0:0|0:0,0:0:0:0:
28,369,36708,2,0,P|93:354|167:372,1,125.999996154785,4|8,0:1|1:2,0:0:0:0:
302,317,37343,6,0,P|343:313|383:303,1,62.9999980773926,0|0,3:0|0:0,0:0:0:0:
235,264,37660,2,0,P|200:260|165:253,1,62.9999980773926,8|2,1:2|0:0,0:0:0:0:
293,201,37978,2,0,P|319:270|286:333,1,125.999996154785,0|8,3:0|1:2,0:0:0:0:
223,340,38454,2,0,P|188:347|153:350,1,62.9999980773926,2|0,0:0|3:0,0:0:0:0:
86,314,38772,2,0,P|61:257|85:200,1,125.999996154785,2|0,0:0|0:0,0:0:0:0:
139,139,39248,6,0,P|162:82|139:25,2,125.999996154785,4|8|0,0:0|1:2|3:0,0:0:0:0:
85,200,40041,1,4,3:3:0:0:
30,261,40200,1,8,3:3:0:0:
80,325,40359,1,4,0:0:0:0:
235,275,40676,5,0,1:0:0:0:
285,215,40835,2,0,L|289:175,3,35,0|0|0|0,1:0|1:0|1:0|1:0,0:0:0:0:
327,151,41152,2,0,L|331:111,3,35,8|8|8|8,3:0|3:0|3:0|3:0,0:0:0:0:
369,87,41470,2,0,L|373:47,3,35,4|4|4|4,3:0|3:0|3:0|3:0,0:0:0:0:
405,23,41787,6,0,P|468:23|494:109,1,140,4|8,0:1|0:2,0:0:0:0:
459,158,42264,1,0,3:0:0:0:
508,225,42422,2,0,B|530:289|530:289|502:358,1,140,0|8,3:0|0:2,0:0:0:0:
418,378,42899,1,2,3:2:0:0:
413,380,42978,1,2,0:0:0:0:
408,382,43057,6,0,L|323:385,1,70,0|2,3:0|3:2,0:0:0:0:
272,331,43375,2,0,L|202:328,1,70,8|2,0:2|0:0,0:0:0:0:
135,276,43692,1,0,3:2:0:0:
145,193,43851,1,0,3:2:0:0:
212,243,44010,2,0,L|281:245,1,70,8|0,0:2|0:0,0:0:0:0:
350,297,44327,6,0,P|364:230|328:172,1,140,2|8,3:2|0:2,0:0:0:0:
254,131,44803,1,0,3:0:0:0:
172,111,44962,2,0,P|216:56|283:51,1,140,0|8,3:0|0:2,0:0:0:0:
364,72,45438,1,2,3:2:0:0:
369,74,45518,1,2,0:0:0:0:
374,76,45597,6,0,L|459:79,1,70,0|2,3:0|3:2,0:0:0:0:
480,155,45914,2,0,L|395:158,1,70,8|2,0:2|0:0,0:0:0:0:
326,162,46232,1,0,3:2:0:0:
382,228,46391,1,2,3:2:0:0:
347,307,46549,2,0,P|344:347|362:396,1,70,8|2,0:2|0:0,0:0:0:0:
289,238,46867,6,0,P|242:229|151:238,1,140,4|8,0:1|0:2,0:0:0:0:
87,293,47343,1,0,3:0:0:0:
142,357,47502,2,0,P|186:366|230:366,1,70,0|0,3:0|3:0,0:0:0:0:
278,317,47819,2,0,P|322:308|366:308,1,70,8|2,1:2|0:0,0:0:0:0:
422,346,48137,5,2,3:2:0:0:
436,264,48295,2,0,P|439:226|452:186,1,70,0|8,3:0|0:2,0:0:0:0:
489,121,48613,1,0,3:0:0:0:
405,121,48772,2,0,P|367:118|327:105,1,70,0|0,3:0|0:0,0:0:0:0:
264,64,49089,2,0,P|226:67|186:80,1,70,8|2,1:2|0:2,0:0:0:0:
133,132,49406,5,4,0:1:0:0:
36,260,49724,1,2,0:3:0:0:
36,260,49883,2,0,P|26:293|31:327,1,70,8|8,0:2|3:3,0:0:0:0:
94,383,50200,1,4,3:0:0:0:
163,334,50359,2,0,P|172:300|167:266,1,70,0|0,3:3|3:0,0:0:0:0:
105,211,50676,6,0,P|99:176|109:143,1,70,8|0,1:2|0:0,0:0:0:0:
168,82,50994,2,0,L|246:77,1,70,8|0,1:2|0:0,0:0:0:0:
319,97,51311,2,0,L|323:134,3,35,0|0|0|0,1:0|1:0|1:0|1:0,0:0:0:0:
364,157,51629,2,0,L|368:194,3,35,0|0|0|0,1:0|1:0|1:0|1:0,0:0:0:0:
410,219,51946,6,0,P|419:267|412:310,1,70,4|0,0:1|0:0,0:0:0:0:
351,340,52264,1,0,0:0:0:0:
280,294,52422,2,0,P|246:283|211:282,1,70,4|0,0:1|0:0,0:0:0:0:
127,292,52740,1,0,0:0:0:0:
162,216,52899,2,0,P|196:205|231:204,2,70,8|0|0,0:2|0:0|0:0,0:0:0:0:
78,229,53375,5,2,0:3:0:0:
50,308,53533,1,2,0:2:0:0:
256,192,53692,12,8,54803,1:2:0:0:
159,145,55121,5,10,0:2:0:0:
159,145,55279,1,10,0:2:0:0:
303,58,55597,6,0,B|351:41|351:41|448:57,1,140,4|0,0:2|3:0,0:0:0:0:
496,125,56073,2,0,L|422:141,1,70,8|0,1:2|0:0,0:0:0:0:
372,211,56391,2,0,L|446:227,1,70,0|0,3:0|3:0,0:0:0:0:
512,270,56708,1,8,1:2:0:0:
439,312,56867,6,0,P|361:299|290:330,1,140,4|0,0:2|3:0,0:0:0:0:
235,374,57343,2,0,P|225:324|202:284,1,70,8|0,1:2|0:0,0:0:0:0:
173,236,57660,2,0,P|183:186|206:146,1,70,0|0,3:0|3:0,0:0:0:0:
249,108,57978,1,8,1:2:0:0:
210,33,58137,6,0,P|153:15|54:30,1,140,4|0,0:0|3:0,0:0:0:0:
37,98,58613,2,0,P|39:140|33:180,1,70,8|0,1:2|0:0,0:0:0:0:
121,168,58930,2,0,P|156:165|203:172,1,70,0|0,3:0|3:0,0:0:0:0:
272,190,59248,1,8,1:2:0:0:
306,266,59406,6,0,P|340:269|375:266,1,70,4|0,0:0|0:0,0:0:0:0:
458,313,59724,2,0,P|461:278|458:243,1,70,0|8,3:0|1:2,0:0:0:0:
492,154,60041,2,0,P|420:164|343:137,1,140,0|0,0:0|3:0,0:0:0:0:
370,61,60518,1,8,1:2:0:0:
289,40,60676,6,0,B|210:30|210:30|135:61,1,140,4|0,0:0|3:0,0:0:0:0:
70,68,61152,2,0,L|110:161,1,70,8|0,1:2|0:0,0:0:0:0:
166,207,61470,2,0,L|183:137,1,70,0|0,3:0|3:0,0:0:0:0:
255,197,61787,2,0,L|295:290,1,70,8|0,1:2|0:0,0:0:0:0:
336,330,62105,5,0,3:0:0:0:
391,266,62264,1,0,3:0:0:0:
460,313,62422,1,8,1:2:0:0:
495,236,62581,2,0,P|511:173|501:89,1,140,0|0,3:0|3:0,0:0:0:0:
512,15,63057,2,0,B|472:15|472:15|422:4,1,70,8|0,1:2|0:0,0:0:0:0:
351,0,63375,5,0,1:0:0:0:
335,88,63533,1,0,1:0:0:0:
260,43,63692,1,0,0:0:0:0:
260,43,63851,2,0,P|209:30|127:55,1,140,0|0,1:0|1:0,0:0:0:0:
69,116,64327,1,4,3:3:0:0:
131,172,64486,6,0,P|147:247|124:316,1,140,0|0,1:0|1:0,0:0:0:0:
57,350,64962,1,8,1:2:0:0:
133,384,65121,1,8,1:2:0:0:
203,339,65279,2,0,L|243:325,4,35,0|0|0|8|8,1:2|1:2|1:2|1:2|1:2,0:0:0:0:
315,380,65756,6,0,P|297:312|313:245,1,140,4|0,0:2|3:0,0:0:0:0:
345,168,66232,2,0,P|379:196|396:244,1,70,12|0,1:2|0:0,0:0:0:0:
474,228,66549,2,0,P|470:193|453:162,1,70,0|0,3:0|3:0,0:0:0:0:
395,100,66867,1,8,1:2:0:0:
465,59,67026,6,0,B|391:48|391:48|330:9,1,140,4|0,0:0|3:0,0:0:0:0:
252,0,67502,1,8,1:2:0:0:
281,78,67660,1,0,0:0:0:0:
198,62,67819,2,0,B|160:59|160:59|128:61,1,70,0|0,3:0|3:0,0:0:0:0:
51,97,68137,1,8,1:2:0:0:
50,181,68295,6,0,P|112:224|169:254,1,140,4|0,0:0|3:0,0:0:0:0:
220,321,68772,2,0,L|183:400,1,70,8|0,1:2|0:0,0:0:0:0:
300,290,69089,2,0,L|329:226,1,70,0|0,3:0|3:0,0:0:0:0:
293,149,69406,1,8,1:2:0:0:
296,29,69565,6,0,P|276:58|249:81,1,70,4|0,0:0|0:0,0:0:0:0:
104,69,69883,2,0,P|138:70|171:82,1,70,0|8,3:0|1:2,0:0:0:0:
235,215,70200,2,0,P|218:184|212:150,1,70,0|0,3:0|3:2,0:0:0:0:
377,177,70518,2,0,P|357:205|330:228,1,70,0|8,3:2|1:2,0:0:0:0:
275,289,70835,1,4,0:0:0:0:
479,382,71152,5,0,3:0:0:0:
398,352,71311,2,0,P|363:345|329:350,1,70,8|0,1:2|0:0,0:0:0:0:
177,366,71629,2,0,P|211:373|246:368,1,70,0|0,3:0|3:0,0:0:0:0:
275,289,71946,1,8,1:2:0:0:
235,214,72105,1,0,0:0:0:0:
275,140,72264,6,0,B|313:131|313:131|355:138,1,70,0|0,3:0|3:0,0:0:0:0:
427,166,72581,1,8,1:2:0:0:
427,166,72740,1,0,3:0:0:0:
235,214,73057,1,0,3:0:0:0:
152,233,73216,1,12,1:2:0:0:
178,155,73375,1,0,0:0:0:0:
178,155,73533,6,0,P|190:112|219:67,1,70,4|0,1:2|1:0,0:0:0:0:
255,24,73851,1,4,3:0:0:0:
336,48,74010,2,0,P|405:55|472:37,2,140,0|0|0,1:0|1:0|1:0,0:0:0:0:
270,180,74962,5,4,3:0:0:0:
243,259,75121,2,0,L|235:338,1,70,8|8,1:2|1:2,0:0:0:0:
157,280,75438,2,0,P|95:262|62:267,1,70,0|0,1:2|1:2,0:0:0:0:
5,267,75756,1,12,1:2:0:0:
47,194,75914,6,0,P|58:127|29:42,1,140,6|0,0:1|3:0,0:0:0:0:
138,83,76391,2,0,L|224:80,1,70,12|0,1:2|0:0,0:0:0:0:
260,146,76708,2,0,L|329:148,1,70,0|0,3:0|3:0,0:0:0:0:
397,199,77026,1,8,1:2:0:0:
336,256,77184,6,0,P|308:321|337:394,1,140,4|0,0:1|3:0,0:0:0:0:
463,323,77660,2,0,L|394:321,1,70,8|0,1:2|0:0,0:0:0:0:
336,256,77978,2,0,L|267:258,1,70,0|0,3:0|3:0,0:0:0:0:
210,321,78295,1,8,1:2:0:0:
149,262,78454,6,0,P|128:223|127:188,1,70,4|0,0:1|0:0,0:0:0:0:
38,188,78772,2,0,P|54:146|80:123,1,70,4|0,3:0|0:0,0:0:0:0:
23,55,79089,2,0,P|65:41|99:46,1,70,4|0,3:0|0:0,0:0:0:0:
223,102,79406,2,0,L|137:99,1,70,4|0,3:0|0:0,0:0:0:0:
257,179,79724,6,0,P|324:165|400:197,1,140,4|0,0:1|3:0,0:0:0:0:
409,270,80200,2,0,L|414:353,1,70,8|0,1:2|0:0,0:0:0:0:
342,384,80518,1,8,1:2:0:0:
272,337,80676,1,8,1:2:0:0:
198,382,80835,1,8,1:2:0:0:
198,382,80914,1,8,1:2:0:0:
198,382,80994,6,0,B|182:336|182:336|198:222,1,140,6|0,1:1|0:0,0:0:0:0:
212,164,81470,2,0,L|202:92,1,70,12|0,1:2|0:0,0:0:0:0:
189,12,81787,1,0,3:0:0:0:
269,36,81946,1,0,3:0:0:0:
345,0,82105,1,8,1:2:0:0:
360,79,82264,6,0,L|369:148,1,70,0|0,1:2|0:0,0:0:0:0:
417,279,82581,2,0,L|422:209,1,70,0|8,3:0|1:2,0:0:0:0:
456,72,82899,2,0,L|465:141,1,70,8|4,3:0|3:3,0:0:0:0:
511,247,83216,2,0,L|508:283,4,35,4|4|4|4|12,3:3|3:3|3:3|3:3|1:2,0:0:0:0:
416,222,84962,6,0,P|396:157|431:98,1,140,4|0,3:2|3:0,0:0:0:0:
482,167,85438,2,0,L|342:168,1,140,4|0,3:2|3:0,0:0:0:0:
287,233,85914,2,0,P|289:267|283:302,1,70,4|0,3:2|0:0,0:0:0:0:
205,260,86232,6,0,P|166:248|120:248,1,70,8|0,3:2|0:0,0:0:0:0:
115,164,86549,2,0,P|144:137|167:96,1,70,8|8,1:2|1:2,0:0:0:0:
243,134,86867,2,0,P|251:172|275:213,1,70,8|8,1:3|1:2,0:0:0:0:
410,222,87184,6,0,P|371:233|325:234,1,70,8|8,1:2|1:2,0:0:0:0:
320,318,87502,2,0,P|349:344|372:385,1,70,8|0,1:2|1:1,0:0:0:0:
448,348,87819,2,0,P|456:309|480:268,1,70,8|8,1:2|1:2,0:0:0:0:
497,202,88137,1,8,1:2:0:0:
497,202,88295,1,8,1:2:0:0:
436,143,88454,1,8,1:2:0:0:
436,143,88613,1,8,1:2:0:0:
